  0
SECTION
  2
HEADER
  9
$ACADVER
  1
AC1015
  9
$ACADMAINTVER
 70
               6
  9
$DWGCODEPAGE
  3
ANSI_932
  9
$INSBASE
 10
0.0
 20
0.0
 30
0.0
  9
$EXTMIN
 10
-399.53700000000003
 20
-298.69999999999999
 30
0.0
  9
$EXTMAX
 10
459.69999999999999
 20
318.46111111111111
 30
0.0
  9
$LIMMIN
 10
0.0
 20
0.0
  9
$LIMMAX
 10
0.0
 20
0.0
  9
$ORTHOMODE
 70
               0
  9
$REGENMODE
 70
               1
  9
$FILLMODE
 70
               1
  9
$QTEXTMODE
 70
               0
  9
$MIRRTEXT
 70
               1
  9
$LTSCALE
 40
20.32
  9
$ATTMODE
 70
               1
  9
$TEXTSIZE
 40
0.2
  9
$TRACEWID
 40
1.0
  9
$TEXTSTYLE
  7
Standard
  9
$CLAYER
  8
0
  9
$CELTYPE
  6
Continuous
  9
$CECOLOR
 62
             256
  9
$CELTSCALE
 40
1.0
  9
$DISPSILH
 70
               0
  9
$DIMSCALE
 40
1.0
  9
$DIMASZ
 40
8.9792968749999993
  9
$DIMEXO
 40
6.3499999999999996
  9
$DIMDLI
 40
10.16
  9
$DIMRND
 40
0.0
  9
$DIMDLE
 40
1.5874999999999999
  9
$DIMEXE
 40
12.699999999999999
  9
$DIMTP
 40
0.0
  9
$DIMTM
 40
0.0
  9
$DIMTXT
 40
11.28888888888889
  9
$DIMCEN
 40
0.0
  9
$DIMTSZ
 40
0.0
  9
$DIMTOL
 70
               0
  9
$DIMLIM
 70
               0
  9
$DIMTIH
 70
               0
  9
$DIMTOH
 70
               0
  9
$DIMSE1
 70
               0
  9
$DIMSE2
 70
               0
  9
$DIMTAD
 70
               1
  9
$DIMZIN
 70
              11
  9
$DIMBLK
  1
VW_SLASH
  9
$DIMASO
 70
               1
  9
$DIMSHO
 70
               1
  9
$DIMPOST
  1
<>
  9
$DIMAPOST
  1
[]
  9
$DIMALT
 70
               0
  9
$DIMALTD
 70
               3
  9
$DIMALTF
 40
0.0393700787401575
  9
$DIMLFAC
 40
1.0
  9
$DIMTOFL
 70
               1
  9
$DIMTVP
 40
0.0
  9
$DIMTIX
 70
               1
  9
$DIMSOXD
 70
               0
  9
$DIMSAH
 70
               0
  9
$DIMBLK1
  1

  9
$DIMBLK2
  1

  9
$DIMSTYLE
  2
Arch
  9
$DIMCLRD
 70
               0
  9
$DIMCLRE
 70
               0
  9
$DIMCLRT
 70
               0
  9
$DIMTFAC
 40
0.8
  9
$DIMGAP
 40
1.5874999999999999
  9
$DIMJUST
 70
               0
  9
$DIMSD1
 70
               0
  9
$DIMSD2
 70
               0
  9
$DIMTOLJ
 70
               1
  9
$DIMTZIN
 70
              11
  9
$DIMALTZ
 70
              15
  9
$DIMALTTZ
 70
              15
  9
$DIMUPT
 70
               0
  9
$DIMDEC
 70
               1
  9
$DIMTDEC
 70
               1
  9
$DIMALTU
 70
               4
  9
$DIMALTTD
 70
               2
  9
$DIMTXSTY
  7
HGSｺﾞｼｯｸM
  9
$DIMAUNIT
 70
               0
  9
$DIMADEC
 70
               2
  9
$DIMALTRND
 40
0.0
  9
$DIMAZIN
 70
               0
  9
$DIMDSEP
 70
              46
  9
$DIMATFIT
 70
               0
  9
$DIMFRAC
 70
               2
  9
$DIMLDRBLK
  1

  9
$DIMLUNIT
 70
               2
  9
$DIMLWD
 70
              -2
  9
$DIMLWE
 70
              -2
  9
$DIMTMOVE
 70
               0
  9
$LUNITS
 70
               2
  9
$LUPREC
 70
               4
  9
$SKETCHINC
 40
0.1
  9
$FILLETRAD
 40
0.0
  9
$AUNITS
 70
               0
  9
$AUPREC
 70
               0
  9
$MENU
  1
acad
  9
$ELEVATION
 40
0.0
  9
$PELEVATION
 40
0.0
  9
$THICKNESS
 40
0.0
  9
$LIMCHECK
 70
               0
  9
$CHAMFERA
 40
0.0
  9
$CHAMFERB
 40
0.0
  9
$CHAMFERC
 40
0.0
  9
$CHAMFERD
 40
0.0
  9
$SKPOLY
 70
               0
  9
$TDCREATE
 40
2454942.565393519
  9
$TDUCREATE
 40
0.000000000
  9
$TDUPDATE
 40
2454942.565393519
  9
$TDUUPDATE
 40
0.000000000
  9
$TDINDWG
 40
0.0000000000
  9
$TDUSRTIMER
 40
0.0000000000
  9
$USRTIMER
 70
               1
  9
$ANGBASE
 50
0.0
  9
$ANGDIR
 70
               0
  9
$PDMODE
 70
               1
  9
$PDSIZE
 40
-2.0
  9
$PLINEWID
 40
0.0
  9
$SPLFRAME
 70
               0
  9
$SPLINETYPE
 70
               6
  9
$SPLINESEGS
 70
               8
  9
$HANDSEED
  5
48E
  9
$SURFTAB1
 70
               6
  9
$SURFTAB2
 70
               6
  9
$SURFTYPE
 70
               6
  9
$SURFU
 70
               6
  9
$SURFV
 70
               6
  9
$UCSBASE
  2

  9
$UCSNAME
  2

  9
$UCSORG
 10
0.0
 20
0.0
 30
0.0
  9
$UCSXDIR
 10
1.0
 20
0.0
 30
0.0
  9
$UCSYDIR
 10
0.0
 20
1.0
 30
0.0
  9
$UCSORTHOREF
  2

  9
$UCSORTHOVIEW
 70
               0
  9
$UCSORGTOP
 10
0.0
 20
0.0
 30
0.0
  9
$UCSORGBOTTOM
 10
0.0
 20
0.0
 30
0.0
  9
$UCSORGLEFT
 10
0.0
 20
0.0
 30
0.0
  9
$UCSORGRIGHT
 10
0.0
 20
0.0
 30
0.0
  9
$UCSORGFRONT
 10
0.0
 20
0.0
 30
0.0
  9
$UCSORGBACK
 10
0.0
 20
0.0
 30
0.0
  9
$PUCSBASE
  2

  9
$PUCSNAME
  2

  9
$PUCSORG
 10
0.0
 20
0.0
 30
0.0
  9
$PUCSXDIR
 10
1.0
 20
0.0
 30
0.0
  9
$PUCSYDIR
 10
0.0
 20
1.0
 30
0.0
  9
$PUCSORTHOREF
  2

  9
$PUCSORTHOVIEW
 70
               0
  9
$PUCSORGTOP
 10
0.0
 20
0.0
 30
0.0
  9
$PUCSORGBOTTOM
 10
0.0
 20
0.0
 30
0.0
  9
$PUCSORGLEFT
 10
0.0
 20
0.0
 30
0.0
  9
$PUCSORGRIGHT
 10
0.0
 20
0.0
 30
0.0
  9
$PUCSORGFRONT
 10
0.0
 20
0.0
 30
0.0
  9
$PUCSORGBACK
 10
0.0
 20
0.0
 30
0.0
  9
$USERI1
 70
               0
  9
$USERI2
 70
               0
  9
$USERI3
 70
               0
  9
$USERI4
 70
               0
  9
$USERI5
 70
               0
  9
$USERR1
 40
0.0
  9
$USERR2
 40
0.0
  9
$USERR3
 40
0.0
  9
$USERR4
 40
0.0
  9
$USERR5
 40
0.0
  9
$WORLDVIEW
 70
               1
  9
$SHADEDGE
 70
               3
  9
$SHADEDIF
 70
              70
  9
$TILEMODE
 70
               1
  9
$MAXACTVP
 70
              16
  9
$PINSBASE
 10
0.0
 20
0.0
 30
0.0
  9
$PLIMCHECK
 70
               0
  9
$PEXTMIN
 10
1.0000000000000000E+20
 20
1.0000000000000000E+20
 30
1.0000000000000000E+20
  9
$PEXTMAX
 10
-1.0000000000000000E+20
 20
-1.0000000000000000E+20
 30
-1.0000000000000000E+20
  9
$PLIMMIN
 10
0.0
 20
0.0
  9
$PLIMMAX
 10
12.0
 20
9.0
  9
$UNITMODE
 70
               0
  9
$VISRETAIN
 70
               0
  9
$PLINEGEN
 70
               1
  9
$PSLTSCALE
 70
               0
  9
$TREEDEPTH
 70
            3020
  9
$CMLSTYLE
  2
Standard
  9
$CMLJUST
 70
               0
  9
$CMLSCALE
 40
1.0
  9
$PROXYGRAPHICS
 70
               0
  9
$MEASUREMENT
 70
               1
  9
$CELWEIGHT
370
               0
  9
$ENDCAPS
280
               0
  9
$JOINSTYLE
280
               0
  9
$LWDISPLAY
290
               1
  9
$INSUNITS
 70
               4
  9
$HYPERLINKBASE
  1

  9
$STYLESHEET
  1

  9
$XEDIT
290
               1
  9
$CEPSNTYPE
380
               0
  9
$PSTYLEMODE
290
               1
  9
$FINGERPRINTGUID
  2

  9
$VERSIONGUID
  2

  9
$EXTNAMES
290
               1
  9
$PSVPSCALE
 40
0.0
  0
ENDSEC
  0
SECTION
  2
CLASSES
  0
CLASS
  1
LWPOLYLINE
  2
AcDbPolyline
  3
AutoCAD 2000
 90
        0
280
               0
281
               1
  0
CLASS
  1
IMAGE
  2
AcDbRasterImage
  3
ISM
 90
    32895
280
               0
281
               1
  0
CLASS
  1
OLE2FRAME
  2
AcDbOle2Frame
  3
AutoCAD 2000
 90
    32768
280
               0
281
               1
  0
CLASS
  1
HATCH
  2
AcDbHatch
  3
AutoCAD 2000
 90
    32768
280
               0
281
               1
  0
CLASS
  1
DICTIONARYVAR
  2
AcDbDictionaryVar
  3
AutoCAD 2000
 90
    32768
280
               0
281
               0
  0
CLASS
  1
RASTERVARIABLES
  2
AcDbRasterVariables
  3
ISM
 90
    32768
280
               0
281
               0
  0
CLASS
  1
IMAGEDEF
  2
AcDbRasterImageDef
  3
ISM
 90
    32768
280
               0
281
               0
  0
CLASS
  1
IMAGEDEF_REACTOR
  2
AcDbRasterImageDefReactor
  3
ISM
 90
    32769
280
               0
281
               0
  0
CLASS
  1
IDBUFFER
  2
AcDbIdBuffer
  3
AutoCAD 2000
 90
    32768
280
               0
281
               0
  0
CLASS
  1
SPATIAL_FILTER
  2
AcDbSpatialFilter
  3
AutoCAD 2000
 90
    32768
280
               0
281
               0
  0
CLASS
  1
XRECORD
  2
AcDbXrecord
  3
AutoCAD 2000
 90
    32768
280
               0
281
               0
  0
CLASS
  1
SORTENTSTABLE
  2
AcDbSortentsTable
  3
AutoCAD 2000
 90
    32768
280
               0
281
               0
  0
CLASS
  1
LAYER_INDEX
  2
AcDbLayerIndex
  3
AutoCAD 2000
 90
    32768
280
               0
281
               0
  0
CLASS
  1
SPATIAL_INDEX
  2
AcDbSpatialIndex
  3
AutoCAD 2000
 90
    32768
280
               0
281
               0
  0
CLASS
  1
OBJECT_PTR
  2
CAseDLPNTableRecord
  3
"ASE-LPNTableRecord"
 90
    32769
280
               0
281
               0
  0
CLASS
  1
LAYOUT
  2
AcDbLayout
  3
AutoCAD 2000
 90
        0
280
               0
281
               0
  0
CLASS
  1
PLOTSETTINGS
  2
AcDbPlotSettings
  3
AutoCAD 2000
 90
    32768
280
               0
281
               0
  0
CLASS
  1
ACDBDICTIONARYWDFLT
  2
AcDbDictionaryWithDefault
  3
AutoCAD 2000
 90
        0
280
               0
281
               0
  0
CLASS
  1
ACDBPLACEHOLDER
  2
AcDbPlaceHolder
  3
AutoCAD 2000
 90
        0
280
               0
281
               0
  0
CLASS
  1
VBA_PROJECT
  2
AcDbVbaProject
  3
acadvba
 90
    32768
280
               0
281
               0
  0
CLASS
  1
WIPEOUT
  2
AcDbWipeout
  3
WipeOut|AutoCAD Express Tool|expresstools@autodesk.com
 90
      127
280
               0
281
               1
  0
CLASS
  1
WIPEOUTVARIABLES
  2
AcDbWipeoutVariables
  3
WipeOut|AutoCAD Express Tool|expresstools@autodesk.com
 90
        0
280
               0
281
               0
  0
CLASS
  1
RTEXT
  2
RText
  3
RText|AutoCAD Express Tool|expresstools@autodesk.com
 90
    32768
280
               0
281
               1
  0
CLASS
  1
ARCALIGNEDTEXT
  2
AcDbArcAlignedText
  3
ATEXT|AutoCAD Express Tool|expresstools@autodesk.com
 90
    32768
280
               0
281
               1
  0
ENDSEC
  0
SECTION
  2
TABLES
  0
TABLE
  2
VPORT
  5
7
100
AcDbSymbolTable
 70
               1
  0
VPORT
  5
15
100
AcDbSymbolTableRecord
100
AcDbViewportTableRecord
  2
*ACTIVE
 70
               0
 10
0.0
 20
0.0
 11
1.0
 21
1.0
 12
30.081500000000005
 22
9.8805555555555316
 13
0.0
 23
0.0
 14
1.0
 24
1.0
 15
0.0
 25
0.0
 16
0.0
 26
0.0
 36
1.0
 17
0.0
 27
0.0
 37
0.0
 40
617.16111111111104
 41
0.688564
 42
50.0
 43
0.0
 44
0.0
 50
0.0
 51
0.0
 71
               0
 72
             100
 73
               1
 74
               1
 75
               0
 76
               0
 77
               0
 78
               0
281
               0
 65
               0
110
0.0
120
0.0
130
0.0
111
1.0
121
0.0
131
0.0
112
0.0
122
1.0
132
0.0
345
0
346
0
 79
               0
146
0.0
  0
ENDTAB
  0
TABLE
  2
LTYPE
  5
4
100
AcDbSymbolTable
 70
              13
  0
LTYPE
  5
11
100
AcDbSymbolTableRecord
100
AcDbLinetypeTableRecord
  2
ByBlock
 70
              64
  3

 72
              65
 73
               0
 40
0.0
  0
LTYPE
  5
12
100
AcDbSymbolTableRecord
100
AcDbLinetypeTableRecord
  2
ByLayer
 70
              64
  3

 72
              65
 73
               0
 40
0.0
  0
LTYPE
  5
13
100
AcDbSymbolTableRecord
100
AcDbLinetypeTableRecord
  2
Continuous
 70
              64
  3
Solid line
 72
              65
 73
               0
 40
0.0
  0
LTYPE
  5
52
100
AcDbSymbolTableRecord
100
AcDbLinetypeTableRecord
  2
STYLE_01
 70
               0
  3

 72
              65
 73
               2
 40
0.41664
 49
0.20828
 74
               0
 49
-0.20836
 74
               0
  0
LTYPE
  5
53
100
AcDbSymbolTableRecord
100
AcDbLinetypeTableRecord
  2
STYLE_02
 70
               0
  3

 72
              65
 73
               2
 40
0.6944250000000001
 49
0.48607
 74
               0
 49
-0.2083550000000001
 74
               0
  0
LTYPE
  5
54
100
AcDbSymbolTableRecord
100
AcDbLinetypeTableRecord
  2
STYLE_03
 70
               0
  3

 72
              65
 73
               2
 40
1.25
 49
1.0416400000000001
 74
               0
 49
-0.2083599999999999
 74
               0
  0
LTYPE
  5
55
100
AcDbSymbolTableRecord
100
AcDbLinetypeTableRecord
  2
STYLE_04
 70
               0
  3

 72
              65
 73
               2
 40
1.5277099999999999
 49
1.3194249999999998
 74
               0
 49
-0.208285
 74
               0
  0
LTYPE
  5
56
100
AcDbSymbolTableRecord
100
AcDbLinetypeTableRecord
  2
STYLE_05
 70
               0
  3

 72
              65
 73
               2
 40
0.20828
 49
0.069425
 74
               0
 49
-0.138855
 74
               0
  0
LTYPE
  5
57
100
AcDbSymbolTableRecord
100
AcDbLinetypeTableRecord
  2
STYLE_06
 70
               0
  3

 72
              65
 73
               4
 40
1.0416400000000001
 49
0.625
 74
               0
 49
-0.20828
 74
               0
 49
0.06943
 74
               0
 49
-0.13893
 74
               0
  0
LTYPE
  5
58
100
AcDbSymbolTableRecord
100
AcDbLinetypeTableRecord
  2
STYLE_07
 70
               0
  3

 72
              65
 73
               6
 40
1.875
 49
0.625
 74
               0
 49
-0.20828
 74
               0
 49
0.6250000000000001
 74
               0
 49
-0.2083599999999999
 74
               0
 49
0.06943
 74
               0
 49
-0.1389299999999999
 74
               0
  0
LTYPE
  5
59
100
AcDbSymbolTableRecord
100
AcDbLinetypeTableRecord
  2
STYLE_08
 70
               0
  3

 72
              65
 73
               6
 40
1.25
 49
0.625
 74
               0
 49
-0.20828
 74
               0
 49
0.06943
 74
               0
 49
-0.13893
 74
               0
 49
0.0694299999999999
 74
               0
 49
-0.13893
 74
               0
  0
LTYPE
  5
5A
100
AcDbSymbolTableRecord
100
AcDbLinetypeTableRecord
  2
STYLE_09
 70
               0
  3

 72
              65
 73
               4
 40
5.0
 49
3.75
 74
               0
 49
-0.2777849999999998
 74
               0
 49
0.6944300000000003
 74
               0
 49
-0.2777849999999998
 74
               0
  0
LTYPE
  5
5B
100
AcDbSymbolTableRecord
100
AcDbLinetypeTableRecord
  2
STYLE_10
 70
               0
  3

 72
              65
 73
               6
 40
5.9375
 49
3.75
 74
               0
 49
-0.2777849999999998
 74
               0
 49
0.6944300000000003
 74
               0
 49
-0.2777849999999998
 74
               0
 49
0.625
 74
               0
 49
-0.3125
 74
               0
  0
ENDTAB
  0
TABLE
  2
LAYER
  5
2
100
AcDbSymbolTable
 70
               4
  0
LAYER
  5
14
100
AcDbSymbolTableRecord
100
AcDbLayerTableRecord
  2
0
 70
               0
 62
               7
  6
Continuous
290
               1
370
              -3
390
1D
  0
LAYER
  5
66
100
AcDbSymbolTableRecord
100
AcDbLayerTableRecord
  2
Defpoints
 70
               0
 62
               7
  6
Continuous
290
               0
370
              -3
390
1D
  0
LAYER
  5
67
100
AcDbSymbolTableRecord
100
AcDbLayerTableRecord
  2
一般
 70
               0
 62
               7
  6
Continuous
290
               1
370
               5
390
1D
  0
LAYER
  5
68
100
AcDbSymbolTableRecord
100
AcDbLayerTableRecord
  2
寸法
 70
               0
 62
               7
  6
Continuous
290
               1
370
               5
390
1D
  0
ENDTAB
  0
TABLE
  2
STYLE
  5
3
100
AcDbSymbolTable
 70
               2
  0
STYLE
  5
17
100
AcDbSymbolTableRecord
100
AcDbTextStyleTableRecord
  2
Standard
 70
               0
 40
0.0
 41
1.0
 50
0.0
 71
               0
 42
0.0
  3
txt
  4
BIGFONT.SHX
  0
STYLE
  5
51
100
AcDbSymbolTableRecord
100
AcDbTextStyleTableRecord
  2
HGSｺﾞｼｯｸM
 70
               0
 40
0.0
 41
1.0
 50
0.0
 71
               0
 42
0.0
  3
HGSｺﾞｼｯｸM
  4

1001
ACAD
1000
HGSｺﾞｼｯｸM
1071
        0
  0
ENDTAB
  0
TABLE
  2
VIEW
  5
5
100
AcDbSymbolTable
 70
               0
  0
ENDTAB
  0
TABLE
  2
UCS
  5
6
100
AcDbSymbolTable
 70
               0
  0
ENDTAB
  0
TABLE
  2
APPID
  5
8
100
AcDbSymbolTable
 70
               1
  0
APPID
  5
16
100
AcDbSymbolTableRecord
100
AcDbRegAppTableRecord
  2
ACAD
 70
               0
  0
ENDTAB
  0
TABLE
  2
DIMSTYLE
  5
9
100
AcDbSymbolTable
 70
               2
100
AcDbDimStyleTable
 71
               0
  0
DIMSTYLE
105
18
100
AcDbSymbolTableRecord
100
AcDbDimStyleTableRecord
  2
Standard
 70
               0
  3

  4

 40
1.0
 41
0.18
 42
0.0625
 43
0.38
 44
0.18
 45
0.0
 46
0.0
 47
0.0
 48
0.0
 71
               0
 72
               0
 73
               1
 74
               1
 75
               0
 76
               0
 77
               0
 78
               0
 79
               0
140
0.18
141
0.09
142
0.0
143
25.399999999999999
144
1.0
145
0.0
146
1.0
147
0.09
148
0.0
170
               0
171
               2
172
               0
173
               0
174
               0
175
               0
176
               0
177
               0
178
               0
179
               0
271
               4
272
               4
273
               2
274
               2
275
               0
276
               0
277
               2
278
              46
279
               0
280
               0
281
               0
282
               0
283
               1
284
               0
285
               0
286
               0
288
               0
340
17
341
0
342
0
343
0
344
0
371
              -2
372
              -2
  0
DIMSTYLE
105
65
100
AcDbSymbolTableRecord
100
AcDbDimStyleTableRecord
  2
Arch
 70
               0
  3
<>
  4
[]
 40
1.0
 41
8.9792968749999993
 42
6.3499999999999996
 43
10.16
 44
12.699999999999999
 45
0.0
 46
1.5874999999999999
 47
0.0
 48
0.0
 71
               0
 72
               0
 73
               0
 74
               0
 75
               0
 76
               0
 77
               1
 78
              11
 79
               0
140
11.28888888888889
141
0.0
142
0.0
143
0.0393700787401575
144
1.0
145
0.0
146
0.8
147
1.5874999999999999
148
0.0
170
               0
171
               3
172
               1
173
               0
174
               1
175
               0
176
               0
177
               0
178
               0
179
               2
271
               1
272
               1
273
               4
274
               2
275
               0
276
               2
277
               2
278
              46
279
               0
280
               0
281
               0
282
               0
283
               1
284
              11
285
              15
286
              15
288
               0
340
51
341
61
342
5C
343
0
344
0
371
              -2
372
              -2
  0
ENDTAB
  0
TABLE
  2
BLOCK_RECORD
  5
1
100
AcDbSymbolTable
 70
              47
  0
BLOCK_RECORD
  5
A
100
AcDbSymbolTableRecord
100
AcDbBlockTableRecord
  2
*MODEL_SPACE
340
20
  0
BLOCK_RECORD
  5
B
100
AcDbSymbolTableRecord
100
AcDbBlockTableRecord
  2
*PAPER_SPACE
340
21
  0
BLOCK_RECORD
  5
5C
100
AcDbSymbolTableRecord
100
AcDbBlockTableRecord
  2
VW_SLASH
340
0
  0
BLOCK_RECORD
  5
61
100
AcDbSymbolTableRecord
100
AcDbBlockTableRecord
  2
VW_FILLEDARROW
340
0
  0
BLOCK_RECORD
  5
24
100
AcDbSymbolTableRecord
100
AcDbBlockTableRecord
  2
*U2
340
0
102
{BLKREFS
331
92
102
}
  0
BLOCK_RECORD
  5
25
100
AcDbSymbolTableRecord
100
AcDbBlockTableRecord
  2
SRP-D2000.1SI
340
0
102
{BLKREFS
331
47F
102
}
  0
BLOCK_RECORD
  5
26
100
AcDbSymbolTableRecord
100
AcDbBlockTableRecord
  2
*U4
340
0
102
{BLKREFS
331
10D
102
}
  0
BLOCK_RECORD
  5
27
100
AcDbSymbolTableRecord
100
AcDbBlockTableRecord
  2
*U5
340
0
102
{BLKREFS
331
10E
102
}
  0
BLOCK_RECORD
  5
28
100
AcDbSymbolTableRecord
100
AcDbBlockTableRecord
  2
*U6
340
0
102
{BLKREFS
331
480
102
}
  0
BLOCK_RECORD
  5
29
100
AcDbSymbolTableRecord
100
AcDbBlockTableRecord
  2
*D7
340
0
  0
BLOCK_RECORD
  5
2A
100
AcDbSymbolTableRecord
100
AcDbBlockTableRecord
  2
*D8
340
0
  0
BLOCK_RECORD
  5
2B
100
AcDbSymbolTableRecord
100
AcDbBlockTableRecord
  2
*D9
340
0
  0
BLOCK_RECORD
  5
2C
100
AcDbSymbolTableRecord
100
AcDbBlockTableRecord
  2
*D10
340
0
  0
BLOCK_RECORD
  5
2D
100
AcDbSymbolTableRecord
100
AcDbBlockTableRecord
  2
*D11
340
0
  0
BLOCK_RECORD
  5
2E
100
AcDbSymbolTableRecord
100
AcDbBlockTableRecord
  2
*D12
340
0
  0
BLOCK_RECORD
  5
2F
100
AcDbSymbolTableRecord
100
AcDbBlockTableRecord
  2
*D13
340
0
  0
BLOCK_RECORD
  5
30
100
AcDbSymbolTableRecord
100
AcDbBlockTableRecord
  2
*D14
340
0
  0
BLOCK_RECORD
  5
31
100
AcDbSymbolTableRecord
100
AcDbBlockTableRecord
  2
*D15
340
0
  0
BLOCK_RECORD
  5
32
100
AcDbSymbolTableRecord
100
AcDbBlockTableRecord
  2
*D16
340
0
  0
BLOCK_RECORD
  5
33
100
AcDbSymbolTableRecord
100
AcDbBlockTableRecord
  2
*U17
340
0
102
{BLKREFS
331
1AB
102
}
  0
BLOCK_RECORD
  5
34
100
AcDbSymbolTableRecord
100
AcDbBlockTableRecord
  2
*U18
340
0
102
{BLKREFS
331
1AC
102
}
  0
BLOCK_RECORD
  5
35
100
AcDbSymbolTableRecord
100
AcDbBlockTableRecord
  2
*U19
340
0
102
{BLKREFS
331
1AD
102
}
  0
BLOCK_RECORD
  5
36
100
AcDbSymbolTableRecord
100
AcDbBlockTableRecord
  2
*U20
340
0
102
{BLKREFS
331
1AE
102
}
  0
BLOCK_RECORD
  5
37
100
AcDbSymbolTableRecord
100
AcDbBlockTableRecord
  2
*U21
340
0
102
{BLKREFS
331
326
102
}
  0
BLOCK_RECORD
  5
38
100
AcDbSymbolTableRecord
100
AcDbBlockTableRecord
  2
*U22
340
0
102
{BLKREFS
331
2F2
102
}
  0
BLOCK_RECORD
  5
39
100
AcDbSymbolTableRecord
100
AcDbBlockTableRecord
  2
*U23
340
0
102
{BLKREFS
331
2F3
102
}
  0
BLOCK_RECORD
  5
3A
100
AcDbSymbolTableRecord
100
AcDbBlockTableRecord
  2
*U24
340
0
102
{BLKREFS
331
2F4
102
}
  0
BLOCK_RECORD
  5
3B
100
AcDbSymbolTableRecord
100
AcDbBlockTableRecord
  2
*U25
340
0
102
{BLKREFS
331
2F5
102
}
  0
BLOCK_RECORD
  5
3C
100
AcDbSymbolTableRecord
100
AcDbBlockTableRecord
  2
*U26
340
0
102
{BLKREFS
331
2F6
102
}
  0
BLOCK_RECORD
  5
3D
100
AcDbSymbolTableRecord
100
AcDbBlockTableRecord
  2
*U27
340
0
102
{BLKREFS
331
2F7
102
}
  0
BLOCK_RECORD
  5
3E
100
AcDbSymbolTableRecord
100
AcDbBlockTableRecord
  2
*U28
340
0
102
{BLKREFS
331
2F8
102
}
  0
BLOCK_RECORD
  5
3F
100
AcDbSymbolTableRecord
100
AcDbBlockTableRecord
  2
*U29
340
0
102
{BLKREFS
331
2F9
102
}
  0
BLOCK_RECORD
  5
40
100
AcDbSymbolTableRecord
100
AcDbBlockTableRecord
  2
*U30
340
0
102
{BLKREFS
331
2FA
102
}
  0
BLOCK_RECORD
  5
41
100
AcDbSymbolTableRecord
100
AcDbBlockTableRecord
  2
*U31
340
0
102
{BLKREFS
331
2FB
102
}
  0
BLOCK_RECORD
  5
42
100
AcDbSymbolTableRecord
100
AcDbBlockTableRecord
  2
*U32
340
0
102
{BLKREFS
331
2FC
102
}
  0
BLOCK_RECORD
  5
43
100
AcDbSymbolTableRecord
100
AcDbBlockTableRecord
  2
*U33
340
0
102
{BLKREFS
331
2FD
102
}
  0
BLOCK_RECORD
  5
44
100
AcDbSymbolTableRecord
100
AcDbBlockTableRecord
  2
*U34
340
0
102
{BLKREFS
331
2FE
102
}
  0
BLOCK_RECORD
  5
45
100
AcDbSymbolTableRecord
100
AcDbBlockTableRecord
  2
*U35
340
0
102
{BLKREFS
331
2FF
102
}
  0
BLOCK_RECORD
  5
46
100
AcDbSymbolTableRecord
100
AcDbBlockTableRecord
  2
*U36
340
0
102
{BLKREFS
331
300
102
}
  0
BLOCK_RECORD
  5
47
100
AcDbSymbolTableRecord
100
AcDbBlockTableRecord
  2
*U37
340
0
102
{BLKREFS
331
301
102
}
  0
BLOCK_RECORD
  5
48
100
AcDbSymbolTableRecord
100
AcDbBlockTableRecord
  2
*U38
340
0
102
{BLKREFS
331
32C
102
}
  0
BLOCK_RECORD
  5
49
100
AcDbSymbolTableRecord
100
AcDbBlockTableRecord
  2
*U39
340
0
102
{BLKREFS
331
32D
102
}
  0
BLOCK_RECORD
  5
4A
100
AcDbSymbolTableRecord
100
AcDbBlockTableRecord
  2
*U40
340
0
102
{BLKREFS
331
341
102
}
  0
BLOCK_RECORD
  5
4B
100
AcDbSymbolTableRecord
100
AcDbBlockTableRecord
  2
*U41
340
0
102
{BLKREFS
331
36F
102
}
  0
BLOCK_RECORD
  5
4C
100
AcDbSymbolTableRecord
100
AcDbBlockTableRecord
  2
*U42
340
0
102
{BLKREFS
331
48B
102
}
  0
BLOCK_RECORD
  5
4D
100
AcDbSymbolTableRecord
100
AcDbBlockTableRecord
  2
*D43
340
0
  0
BLOCK_RECORD
  5
4E
100
AcDbSymbolTableRecord
100
AcDbBlockTableRecord
  2
*U44
340
0
102
{BLKREFS
331
47C
102
}
  0
BLOCK_RECORD
  5
4F
100
AcDbSymbolTableRecord
100
AcDbBlockTableRecord
  2
*U45
340
0
102
{BLKREFS
331
47D
102
}
  0
BLOCK_RECORD
  5
50
100
AcDbSymbolTableRecord
100
AcDbBlockTableRecord
  2
*U46
340
0
102
{BLKREFS
331
48D
102
}
  0
ENDTAB
  0
ENDSEC
  0
SECTION
  2
BLOCKS
  0
BLOCK
  5
D
100
AcDbEntity
  8
0
100
AcDbBlockBegin
  2
*MODEL_SPACE
 70
               0
 10
0.0
 20
0.0
 30
0.0
  3
*MODEL_SPACE
  1

  0
ENDBLK
  5
E
100
AcDbEntity
  8
0
100
AcDbBlockEnd
  0
BLOCK
  5
F
100
AcDbEntity
 67
               1
  8
0
100
AcDbBlockBegin
  2
*PAPER_SPACE
 70
               0
 10
0.0
 20
0.0
 30
0.0
  3
*PAPER_SPACE
  1

  0
ENDBLK
  5
10
100
AcDbEntity
 67
               1
  8
0
100
AcDbBlockEnd
  0
BLOCK
  5
5D
100
AcDbEntity
  8
0
370
              -2
  6
ByBlock
 62
               0
100
AcDbBlockBegin
  2
VW_SLASH
 70
               0
 10
0.0
 20
0.0
 30
0.0
  3
VW_SLASH
  1

  0
LINE
  5
5E
100
AcDbEntity
  8
0
370
              -2
  6
ByBlock
 62
               0
100
AcDbLine
 10
0.0
 20
0.0
 30
0.0
 11
-1.0
 21
0.0
 31
0.0
  0
LINE
  5
5F
100
AcDbEntity
  8
0
370
              20
  6
ByBlock
 62
               0
100
AcDbLine
 10
-0.499877537989201
 20
-0.4998775379892008
 30
0.0
 11
0.499877537989201
 21
0.4998775379892008
 31
0.0
  0
ENDBLK
  5
60
100
AcDbEntity
  8
0
100
AcDbBlockEnd
  0
BLOCK
  5
62
100
AcDbEntity
  8
0
370
              -2
  6
ByBlock
 62
               0
100
AcDbBlockBegin
  2
VW_FILLEDARROW
 70
               0
 10
0.0
 20
0.0
 30
0.0
  3
VW_FILLEDARROW
  1

  0
SOLID
  5
63
100
AcDbEntity
  8
0
370
              -2
 62
               0
100
AcDbTrace
 10
0.0
 20
0.0
 30
0.0
 11
-1.4138671875
 21
-0.3788445710954878
 31
0.0
 12
-1.4138671875
 22
0.3788445710954881
 32
0.0
 13
-1.4138671875
 23
0.3788445710954881
 33
0.0
  0
ENDBLK
  5
64
100
AcDbEntity
  8
0
100
AcDbBlockEnd
  0
BLOCK
  5
69
100
AcDbEntity
  8
一般
100
AcDbBlockBegin
  2
*U2
 70
               1
 10
0.0
 20
0.0
 30
0.0
  3
*U2
  1

  0
LINE
  5
6A
100
AcDbEntity
  8
一般
370
               9
  6
Continuous
 62
               7
100
AcDbLine
 10
6.4999999999999991
 20
-44.049999999999997
 30
0.0
 11
6.4999999999999991
 21
-0.05
 31
0.0
  0
LINE
  5
6B
100
AcDbEntity
  8
一般
370
               9
  6
Continuous
 62
               7
100
AcDbLine
 10
6.4999999999999991
 20
-44.049999999999997
 30
0.0
 11
181.49999999999997
 21
-44.049999999999997
 31
0.0
  0
LINE
  5
6C
100
AcDbEntity
  8
一般
370
               9
  6
Continuous
 62
               7
100
AcDbLine
 10
6.4999999999999991
 20
-0.05
 30
0.0
 11
181.49999999999997
 21
-0.05
 31
0.0
  0
LINE
  5
6D
100
AcDbEntity
  8
一般
370
               9
  6
Continuous
 62
               7
100
AcDbLine
 10
9.5
 20
-0.05
 30
0.0
 11
9.5
 21
-44.049999999999997
 31
0.0
  0
LINE
  5
6E
100
AcDbEntity
  8
一般
370
               9
  6
Continuous
 62
               7
100
AcDbLine
 10
54.499999999999993
 20
-6.0499999999999998
 30
0.0
 11
54.499999999999993
 21
-28.049999999999997
 31
0.0
  0
LINE
  5
6F
100
AcDbEntity
  8
一般
370
               9
  6
Continuous
 62
               7
100
AcDbLine
 10
14.499999999999998
 20
-41.049999999999997
 30
0.0
 11
51.499999999999993
 21
-41.049999999999997
 31
0.0
  0
LINE
  5
70
100
AcDbEntity
  8
一般
370
               9
  6
Continuous
 62
               7
100
AcDbLine
 10
54.499999999999993
 20
-38.049999999999997
 30
0.0
 11
54.499999999999993
 21
-16.049999999999997
 31
0.0
  0
ARC
  5
71
100
AcDbEntity
  8
一般
370
               9
  6
Continuous
 62
               7
100
AcDbCircle
 10
51.499999999999993
 20
-6.0499999999999998
 30
0.0
 40
3.0
100
AcDbArc
 50
0.0
 51
90.0
  0
ARC
  5
72
100
AcDbEntity
  8
一般
370
               9
  6
Continuous
 62
               7
100
AcDbCircle
 10
51.499999999999993
 20
-38.049999999999997
 30
0.0
 40
3.0
100
AcDbArc
 50
270.0
 51
0.0
  0
LINE
  5
73
100
AcDbEntity
  8
一般
370
               9
  6
Continuous
 62
               7
100
AcDbLine
 10
6.4999999999999991
 20
-30.049999999999997
 30
0.0
 11
6.4999999999999991
 21
-18.049999999999997
 31
0.0
  0
LINE
  5
74
100
AcDbEntity
  8
一般
370
               9
  6
Continuous
 62
               7
100
AcDbLine
 10
6.4999999999999991
 20
-30.049999999999997
 30
0.0
 11
2.5
 21
-30.049999999999997
 31
0.0
  0
LINE
  5
75
100
AcDbEntity
  8
一般
370
               9
  6
Continuous
 62
               7
100
AcDbLine
 10
6.4999999999999991
 20
-18.049999999999997
 30
0.0
 11
2.5
 21
-18.049999999999997
 31
0.0
  0
LINE
  5
76
100
AcDbEntity
  8
一般
370
               9
  6
Continuous
 62
               7
100
AcDbLine
 10
2.5
 20
-30.049999999999997
 30
0.0
 11
2.5
 21
-18.049999999999997
 31
0.0
  0
LINE
  5
77
100
AcDbEntity
  8
一般
370
               9
  6
Continuous
 62
               7
100
AcDbLine
 10
181.49999999999997
 20
-0.05
 30
0.0
 11
181.49999999999997
 21
-44.049999999999997
 31
0.0
  0
LINE
  5
78
100
AcDbEntity
  8
一般
370
               9
  6
Continuous
 62
               7
100
AcDbLine
 10
181.49999999999997
 20
-31.049999999999997
 30
0.0
 11
181.49999999999997
 21
-12.049999999999999
 31
0.0
  0
LINE
  5
79
100
AcDbEntity
  8
一般
370
               9
  6
Continuous
 62
               7
100
AcDbLine
 10
181.49999999999997
 20
-31.049999999999997
 30
0.0
 11
186.49999999999997
 21
-31.049999999999997
 31
0.0
  0
LINE
  5
7A
100
AcDbEntity
  8
一般
370
               9
  6
Continuous
 62
               7
100
AcDbLine
 10
181.49999999999997
 20
-12.049999999999999
 30
0.0
 11
186.49999999999997
 21
-12.049999999999999
 31
0.0
  0
LINE
  5
7B
100
AcDbEntity
  8
一般
370
               9
  6
Continuous
 62
               7
100
AcDbLine
 10
186.49999999999997
 20
-31.049999999999997
 30
0.0
 11
186.49999999999997
 21
-12.049999999999999
 31
0.0
  0
LINE
  5
7C
100
AcDbEntity
  8
一般
370
               9
  6
Continuous
 62
               7
100
AcDbLine
 10
186.49999999999997
 20
-22.049999999999997
 30
0.0
 11
186.49999999999997
 21
-15.049999999999999
 31
0.0
  0
LINE
  5
7D
100
AcDbEntity
  8
一般
370
               9
  6
Continuous
 62
               7
100
AcDbLine
 10
186.49999999999997
 20
-22.049999999999997
 30
0.0
 11
195.49999999999997
 21
-22.049999999999997
 31
0.0
  0
LINE
  5
7E
100
AcDbEntity
  8
一般
370
               9
  6
Continuous
 62
               7
100
AcDbLine
 10
186.49999999999997
 20
-15.049999999999999
 30
0.0
 11
195.49999999999997
 21
-15.049999999999999
 31
0.0
  0
LINE
  5
7F
100
AcDbEntity
  8
一般
370
               9
  6
Continuous
 62
               7
100
AcDbLine
 10
195.49999999999997
 20
-22.049999999999997
 30
0.0
 11
195.49999999999997
 21
-15.049999999999999
 31
0.0
  0
LINE
  5
80
100
AcDbEntity
  8
一般
370
               9
  6
Continuous
 62
               7
100
AcDbLine
 10
195.49999999999997
 20
-19.049999999999997
 30
0.0
 11
209.49999999999997
 21
-19.049999999999997
 31
0.0
  0
LINE
  5
81
100
AcDbEntity
  8
一般
370
               9
  6
Continuous
 62
               7
100
AcDbLine
 10
192.49999999999997
 20
-27.049999999999997
 30
0.0
 11
208.49999999999997
 21
-27.049999999999997
 31
0.0
  0
LINE
  5
82
100
AcDbEntity
  8
一般
370
               9
  6
Continuous
 62
               7
100
AcDbLine
 10
182.49999999999997
 20
-12.049999999999999
 30
0.0
 11
182.49999999999997
 21
-31.049999999999997
 31
0.0
  0
LINE
  5
83
100
AcDbEntity
  8
一般
370
               9
  6
Continuous
 62
               7
100
AcDbLine
 10
184.49999999999997
 20
-31.049999999999997
 30
0.0
 11
184.49999999999997
 21
-12.049999999999999
 31
0.0
  0
LINE
  5
84
100
AcDbEntity
  8
一般
370
               9
  6
Continuous
 62
               7
100
AcDbLine
 10
192.49999999999997
 20
-27.049999999999997
 30
0.0
 11
186.49999999999997
 21
-29.049999999999997
 31
0.0
  0
LINE
  5
85
100
AcDbEntity
  8
一般
370
               9
  6
Continuous
 62
               7
100
AcDbLine
 10
192.49999999999997
 20
-27.049999999999997
 30
0.0
 11
186.49999999999997
 21
-22.049999999999997
 31
0.0
  0
LINE
  5
86
100
AcDbEntity
  8
一般
370
               9
  6
Continuous
 62
               7
100
AcDbLine
 10
186.49999999999997
 20
-25.049999999999997
 30
0.0
 11
189.49999999999997
 21
-28.049999999999997
 31
0.0
  0
LINE
  5
87
100
AcDbEntity
  8
一般
370
               9
  6
Continuous
 62
               7
100
AcDbLine
 10
12.499999999999998
 20
-5.0499999999999998
 30
0.0
 11
12.499999999999998
 21
-39.049999999999997
 31
0.0
  0
LINE
  5
88
100
AcDbEntity
  8
一般
370
               9
  6
Continuous
 62
               7
100
AcDbLine
 10
14.499999999999998
 20
-41.049999999999997
 30
0.0
 11
12.499999999999998
 21
-39.049999999999997
 31
0.0
  0
LINE
  5
89
100
AcDbEntity
  8
一般
370
               9
  6
Continuous
 62
               7
100
AcDbLine
 10
51.499999999999993
 20
-3.0499999999999998
 30
0.0
 11
14.499999999999998
 21
-3.0499999999999998
 31
0.0
  0
LINE
  5
8A
100
AcDbEntity
  8
一般
370
               9
  6
Continuous
 62
               7
100
AcDbLine
 10
12.499999999999998
 20
-5.0499999999999998
 30
0.0
 11
14.499999999999998
 21
-3.0499999999999998
 31
0.0
  0
LINE
  5
8B
100
AcDbEntity
  8
一般
370
               9
  6
Continuous
 62
               7
100
AcDbLine
 10
181.49999999999997
 20
-0.05
 30
0.0
 11
181.49999999999997
 21
-12.049999999999999
 31
0.0
  0
LINE
  5
8C
100
AcDbEntity
  8
一般
370
               9
  6
Continuous
 62
               7
100
AcDbLine
 10
195.49999999999997
 20
-15.049999999999999
 30
0.0
 11
195.49999999999997
 21
-19.049999999999997
 31
0.0
  0
LINE
  5
8D
100
AcDbEntity
  8
一般
370
               9
  6
Continuous
 62
               7
100
AcDbLine
 10
181.49999999999997
 20
-31.049999999999997
 30
0.0
 11
181.49999999999997
 21
-44.049999999999997
 31
0.0
  0
LINE
  5
8E
100
AcDbEntity
  8
一般
370
               9
  6
Continuous
 62
               7
100
AcDbLine
 10
186.49999999999997
 20
-29.049999999999997
 30
0.0
 11
186.49999999999997
 21
-31.049999999999997
 31
0.0
  0
POINT
  5
8F
100
AcDbEntity
  8
一般
370
               5
  6
Continuous
 62
               7
100
AcDbPoint
 10
0.0
 20
0.0
 30
0.0
  0
ENDBLK
  5
90
100
AcDbEntity
  8
一般
100
AcDbBlockEnd
  0
BLOCK
  5
91
100
AcDbEntity
  8
一般
100
AcDbBlockBegin
  2
SRP-D2000.1SI
 70
               0
 10
0.0
 20
0.0
 30
0.0
  3
SRP-D2000.1SI
  1

  0
INSERT
  5
92
100
AcDbEntity
  8
一般
 62
               7
100
AcDbBlockReference
  2
*U2
 10
0.0
 20
0.0
 30
0.0
  0
ENDBLK
  5
93
100
AcDbEntity
  8
一般
100
AcDbBlockEnd
  0
BLOCK
  5
94
100
AcDbEntity
  8
一般
100
AcDbBlockBegin
  2
*U4
 70
               1
 10
0.0
 20
0.0
 30
0.0
  3
*U4
  1

  0
LINE
  5
95
100
AcDbEntity
  8
一般
370
               9
  6
Continuous
 62
               7
100
AcDbLine
 10
-44.000000000000028
 20
-201.0
 30
0.0
 11
-44.000000000000028
 21
-189.0
 31
0.0
  0
LINE
  5
96
100
AcDbEntity
  8
一般
370
               9
  6
Continuous
 62
               7
100
AcDbLine
 10
-44.000000000000028
 20
-201.0
 30
0.0
 11
-17.000000000000028
 21
-201.0
 31
0.0
  0
LINE
  5
97
100
AcDbEntity
  8
一般
370
               9
  6
Continuous
 62
               7
100
AcDbLine
 10
-44.000000000000028
 20
-189.0
 30
0.0
 11
-17.000000000000028
 21
-189.0
 31
0.0
  0
LINE
  5
98
100
AcDbEntity
  8
一般
370
               9
  6
Continuous
 62
               7
100
AcDbLine
 10
-17.000000000000028
 20
-201.0
 30
0.0
 11
-17.000000000000028
 21
-189.0
 31
0.0
  0
LINE
  5
99
100
AcDbEntity
  8
一般
370
               9
  6
Continuous
 62
               7
100
AcDbLine
 10
-42.000000000000028
 20
-199.0
 30
0.0
 11
-42.000000000000028
 21
-191.0
 31
0.0
  0
LINE
  5
9A
100
AcDbEntity
  8
一般
370
               9
  6
Continuous
 62
               7
100
AcDbLine
 10
-42.000000000000028
 20
-199.0
 30
0.0
 11
-19.000000000000028
 21
-199.0
 31
0.0
  0
LINE
  5
9B
100
AcDbEntity
  8
一般
370
               9
  6
Continuous
 62
               7
100
AcDbLine
 10
-42.000000000000028
 20
-191.0
 30
0.0
 11
-19.000000000000028
 21
-191.0
 31
0.0
  0
LINE
  5
9C
100
AcDbEntity
  8
一般
370
               9
  6
Continuous
 62
               7
100
AcDbLine
 10
-19.000000000000028
 20
-199.0
 30
0.0
 11
-19.000000000000028
 21
-191.0
 31
0.0
  0
LINE
  5
9D
100
AcDbEntity
  8
一般
370
               9
  6
Continuous
 62
               7
100
AcDbLine
 10
-39.000000000000028
 20
-198.0
 30
0.0
 11
-39.000000000000028
 21
-192.0
 31
0.0
  0
LINE
  5
9E
100
AcDbEntity
  8
一般
370
               9
  6
Continuous
 62
               7
100
AcDbLine
 10
-39.000000000000028
 20
-198.0
 30
0.0
 11
-38.000000000000028
 21
-198.0
 31
0.0
  0
LINE
  5
9F
100
AcDbEntity
  8
一般
370
               9
  6
Continuous
 62
               7
100
AcDbLine
 10
-39.000000000000028
 20
-192.0
 30
0.0
 11
-38.000000000000028
 21
-192.0
 31
0.0
  0
LINE
  5
A0
100
AcDbEntity
  8
一般
370
               9
  6
Continuous
 62
               7
100
AcDbLine
 10
-38.000000000000028
 20
-198.0
 30
0.0
 11
-38.000000000000028
 21
-192.0
 31
0.0
  0
LINE
  5
A1
100
AcDbEntity
  8
一般
370
               9
  6
Continuous
 62
               7
100
AcDbLine
 10
-39.000000000000028
 20
-197.0
 30
0.0
 11
-38.000000000000028
 21
-197.0
 31
0.0
  0
LINE
  5
A2
100
AcDbEntity
  8
一般
370
               9
  6
Continuous
 62
               7
100
AcDbLine
 10
-39.000000000000028
 20
-193.0
 30
0.0
 11
-38.000000000000028
 21
-193.0
 31
0.0
  0
LINE
  5
A3
100
AcDbEntity
  8
一般
370
               9
  6
Continuous
 62
               7
100
AcDbLine
 10
-24.000000000000028
 20
-198.0
 30
0.0
 11
-24.000000000000028
 21
-192.0
 31
0.0
  0
LINE
  5
A4
100
AcDbEntity
  8
一般
370
               9
  6
Continuous
 62
               7
100
AcDbLine
 10
-24.000000000000028
 20
-198.0
 30
0.0
 11
-22.000000000000028
 21
-198.0
 31
0.0
  0
LINE
  5
A5
100
AcDbEntity
  8
一般
370
               9
  6
Continuous
 62
               7
100
AcDbLine
 10
-24.000000000000028
 20
-192.0
 30
0.0
 11
-22.000000000000028
 21
-192.0
 31
0.0
  0
LINE
  5
A6
100
AcDbEntity
  8
一般
370
               9
  6
Continuous
 62
               7
100
AcDbLine
 10
-22.000000000000028
 20
-198.0
 30
0.0
 11
-22.000000000000028
 21
-192.0
 31
0.0
  0
LINE
  5
A7
100
AcDbEntity
  8
一般
370
               9
  6
Continuous
 62
               7
100
AcDbLine
 10
-24.000000000000028
 20
-197.0
 30
0.0
 11
-22.000000000000028
 21
-197.0
 31
0.0
  0
LINE
  5
A8
100
AcDbEntity
  8
一般
370
               9
  6
Continuous
 62
               7
100
AcDbLine
 10
-24.000000000000028
 20
-193.0
 30
0.0
 11
-22.000000000000028
 21
-193.0
 31
0.0
  0
LINE
  5
A9
100
AcDbEntity
  8
一般
370
               9
  6
Continuous
 62
               7
100
AcDbLine
 10
-31.000000000000028
 20
-206.0
 30
0.0
 11
-31.000000000000028
 21
-201.0
 31
0.0
  0
ENDBLK
  5
AA
100
AcDbEntity
  8
一般
100
AcDbBlockEnd
  0
BLOCK
  5
AB
100
AcDbEntity
  8
一般
100
AcDbBlockBegin
  2
*U5
 70
               1
 10
0.0
 20
0.0
 30
0.0
  3
*U5
  1

  0
LINE
  5
AC
100
AcDbEntity
  8
一般
370
               9
  6
Continuous
 62
               7
100
AcDbLine
 10
-83.000000000000028
 20
-201.0
 30
0.0
 11
-83.000000000000028
 21
-189.0
 31
0.0
  0
LINE
  5
AD
100
AcDbEntity
  8
一般
370
               9
  6
Continuous
 62
               7
100
AcDbLine
 10
-83.000000000000028
 20
-201.0
 30
0.0
 11
-56.000000000000028
 21
-201.0
 31
0.0
  0
LINE
  5
AE
100
AcDbEntity
  8
一般
370
               9
  6
Continuous
 62
               7
100
AcDbLine
 10
-83.000000000000028
 20
-189.0
 30
0.0
 11
-56.000000000000028
 21
-189.0
 31
0.0
  0
LINE
  5
AF
100
AcDbEntity
  8
一般
370
               9
  6
Continuous
 62
               7
100
AcDbLine
 10
-56.000000000000028
 20
-201.0
 30
0.0
 11
-56.000000000000028
 21
-189.0
 31
0.0
  0
LINE
  5
B0
100
AcDbEntity
  8
一般
370
               9
  6
Continuous
 62
               7
100
AcDbLine
 10
-81.000000000000028
 20
-199.0
 30
0.0
 11
-81.000000000000028
 21
-191.0
 31
0.0
  0
LINE
  5
B1
100
AcDbEntity
  8
一般
370
               9
  6
Continuous
 62
               7
100
AcDbLine
 10
-81.000000000000028
 20
-199.0
 30
0.0
 11
-58.000000000000028
 21
-199.0
 31
0.0
  0
LINE
  5
B2
100
AcDbEntity
  8
一般
370
               9
  6
Continuous
 62
               7
100
AcDbLine
 10
-81.000000000000028
 20
-191.0
 30
0.0
 11
-58.000000000000028
 21
-191.0
 31
0.0
  0
LINE
  5
B3
100
AcDbEntity
  8
一般
370
               9
  6
Continuous
 62
               7
100
AcDbLine
 10
-58.000000000000028
 20
-199.0
 30
0.0
 11
-58.000000000000028
 21
-191.0
 31
0.0
  0
LINE
  5
B4
100
AcDbEntity
  8
一般
370
               9
  6
Continuous
 62
               7
100
AcDbLine
 10
-78.000000000000028
 20
-198.0
 30
0.0
 11
-78.000000000000028
 21
-192.0
 31
0.0
  0
LINE
  5
B5
100
AcDbEntity
  8
一般
370
               9
  6
Continuous
 62
               7
100
AcDbLine
 10
-78.000000000000028
 20
-198.0
 30
0.0
 11
-77.000000000000028
 21
-198.0
 31
0.0
  0
LINE
  5
B6
100
AcDbEntity
  8
一般
370
               9
  6
Continuous
 62
               7
100
AcDbLine
 10
-78.000000000000028
 20
-192.0
 30
0.0
 11
-77.000000000000028
 21
-192.0
 31
0.0
  0
LINE
  5
B7
100
AcDbEntity
  8
一般
370
               9
  6
Continuous
 62
               7
100
AcDbLine
 10
-77.000000000000028
 20
-198.0
 30
0.0
 11
-77.000000000000028
 21
-192.0
 31
0.0
  0
LINE
  5
B8
100
AcDbEntity
  8
一般
370
               9
  6
Continuous
 62
               7
100
AcDbLine
 10
-78.000000000000028
 20
-197.0
 30
0.0
 11
-77.000000000000028
 21
-197.0
 31
0.0
  0
LINE
  5
B9
100
AcDbEntity
  8
一般
370
               9
  6
Continuous
 62
               7
100
AcDbLine
 10
-78.000000000000028
 20
-193.0
 30
0.0
 11
-77.000000000000028
 21
-193.0
 31
0.0
  0
LINE
  5
BA
100
AcDbEntity
  8
一般
370
               9
  6
Continuous
 62
               7
100
AcDbLine
 10
-63.000000000000028
 20
-198.0
 30
0.0
 11
-63.000000000000028
 21
-192.0
 31
0.0
  0
LINE
  5
BB
100
AcDbEntity
  8
一般
370
               9
  6
Continuous
 62
               7
100
AcDbLine
 10
-63.000000000000028
 20
-198.0
 30
0.0
 11
-61.000000000000028
 21
-198.0
 31
0.0
  0
LINE
  5
BC
100
AcDbEntity
  8
一般
370
               9
  6
Continuous
 62
               7
100
AcDbLine
 10
-63.000000000000028
 20
-192.0
 30
0.0
 11
-61.000000000000028
 21
-192.0
 31
0.0
  0
LINE
  5
BD
100
AcDbEntity
  8
一般
370
               9
  6
Continuous
 62
               7
100
AcDbLine
 10
-61.000000000000028
 20
-198.0
 30
0.0
 11
-61.000000000000028
 21
-192.0
 31
0.0
  0
LINE
  5
BE
100
AcDbEntity
  8
一般
370
               9
  6
Continuous
 62
               7
100
AcDbLine
 10
-63.000000000000028
 20
-197.0
 30
0.0
 11
-61.000000000000028
 21
-197.0
 31
0.0
  0
LINE
  5
BF
100
AcDbEntity
  8
一般
370
               9
  6
Continuous
 62
               7
100
AcDbLine
 10
-63.000000000000028
 20
-193.0
 30
0.0
 11
-61.000000000000028
 21
-193.0
 31
0.0
  0
LINE
  5
C0
100
AcDbEntity
  8
一般
370
               9
  6
Continuous
 62
               7
100
AcDbLine
 10
-70.000000000000028
 20
-206.0
 30
0.0
 11
-70.000000000000028
 21
-201.0
 31
0.0
  0
ENDBLK
  5
C1
100
AcDbEntity
  8
一般
100
AcDbBlockEnd
  0
BLOCK
  5
C2
100
AcDbEntity
  8
一般
100
AcDbBlockBegin
  2
*U6
 70
               1
 10
0.0
 20
0.0
 30
0.0
  3
*U6
  1

  0
LINE
  5
C3
100
AcDbEntity
  8
一般
370
               9
  6
Continuous
 62
               7
100
AcDbLine
 10
-391.0
 20
-215.0
 30
0.0
 11
-391.0
 21
-177.0
 31
0.0
  0
LINE
  5
C4
100
AcDbEntity
  8
一般
370
               9
  6
Continuous
 62
               7
100
AcDbLine
 10
-388.0
 20
-218.0
 30
0.0
 11
87.999999999999972
 21
-218.0
 31
0.0
  0
LINE
  5
C5
100
AcDbEntity
  8
一般
370
               9
  6
Continuous
 62
               7
100
AcDbLine
 10
-388.0
 20
-174.0
 30
0.0
 11
87.999999999999972
 21
-174.0
 31
0.0
  0
LINE
  5
C6
100
AcDbEntity
  8
一般
370
               9
  6
Continuous
 62
               7
100
AcDbLine
 10
-365.0
 20
-174.0
 30
0.0
 11
-365.0
 21
-218.0
 31
0.0
  0
LINE
  5
C7
100
AcDbEntity
  8
一般
370
               9
  6
Continuous
 62
               7
100
AcDbLine
 10
64.999999999999972
 20
-174.0
 30
0.0
 11
64.999999999999972
 21
-218.0
 31
0.0
  0
LWPOLYLINE
  5
C8
100
AcDbEntity
  8
一般
370
               9
  6
Continuous
 62
               7
100
AcDbPolyline
 90
        5
 70
             129
 10
-183.0
 20
-196.0
 42
-0.414213562373095
 10
-181.0
 20
-194.0
 42
-0.414213562373095
 10
-179.0
 20
-196.0
 42
-0.414213562373095
 10
-181.0
 20
-198.0
 42
-0.414213562373095
 10
-183.0
 20
-196.0
 42
-0.414213562373095
  0
LWPOLYLINE
  5
C9
100
AcDbEntity
  8
一般
370
               9
  6
Continuous
 62
               7
100
AcDbPolyline
 90
        5
 70
             129
 10
-160.0
 20
-196.0
 42
-0.414213562373095
 10
-158.0
 20
-194.0
 42
-0.414213562373095
 10
-156.0
 20
-196.0
 42
-0.414213562373095
 10
-158.0
 20
-198.0
 42
-0.414213562373095
 10
-160.0
 20
-196.0
 42
-0.414213562373095
  0
LINE
  5
CA
100
AcDbEntity
  8
一般
370
               9
  6
Continuous
 62
               7
100
AcDbLine
 10
-352.0
 20
-204.0
 30
0.0
 11
-352.0
 21
-192.0
 31
0.0
  0
LINE
  5
CB
100
AcDbEntity
  8
一般
370
               9
  6
Continuous
 62
               7
100
AcDbLine
 10
-352.0
 20
-204.0
 30
0.0
 11
-323.0
 21
-204.0
 31
0.0
  0
LINE
  5
CC
100
AcDbEntity
  8
一般
370
               9
  6
Continuous
 62
               7
100
AcDbLine
 10
-352.0
 20
-192.0
 30
0.0
 11
-323.0
 21
-192.0
 31
0.0
  0
LINE
  5
CD
100
AcDbEntity
  8
一般
370
               9
  6
Continuous
 62
               7
100
AcDbLine
 10
-323.0
 20
-204.0
 30
0.0
 11
-323.0
 21
-192.0
 31
0.0
  0
LINE
  5
CE
100
AcDbEntity
  8
一般
370
               9
  6
Continuous
 62
               7
100
AcDbLine
 10
-350.0
 20
-192.0
 30
0.0
 11
-350.0
 21
-203.0
 31
0.0
  0
LINE
  5
CF
100
AcDbEntity
  8
一般
370
               9
  6
Continuous
 62
               7
100
AcDbLine
 10
-350.0
 20
-192.0
 30
0.0
 11
-326.0
 21
-192.0
 31
0.0
  0
LINE
  5
D0
100
AcDbEntity
  8
一般
370
               9
  6
Continuous
 62
               7
100
AcDbLine
 10
-350.0
 20
-203.0
 30
0.0
 11
-326.0
 21
-203.0
 31
0.0
  0
LINE
  5
D1
100
AcDbEntity
  8
一般
370
               9
  6
Continuous
 62
               7
100
AcDbLine
 10
-326.0
 20
-192.0
 30
0.0
 11
-326.0
 21
-203.0
 31
0.0
  0
LINE
  5
D2
100
AcDbEntity
  8
一般
370
               9
  6
Continuous
 62
               7
100
AcDbLine
 10
-350.0
 20
-201.0
 30
0.0
 11
-326.0
 21
-201.0
 31
0.0
  0
LWPOLYLINE
  5
D3
100
AcDbEntity
  8
一般
370
               9
  6
Continuous
 62
               7
100
AcDbPolyline
 90
        5
 70
             129
 10
-339.0
 20
-188.0
 42
-0.414213562373095
 10
-338.0
 20
-187.0
 42
-0.414213562373095
 10
-337.0
 20
-188.0
 42
-0.414213562373095
 10
-338.0
 20
-189.0
 42
-0.414213562373095
 10
-339.0
 20
-188.0
 42
-0.414213562373095
  0
LINE
  5
D4
100
AcDbEntity
  8
一般
370
               9
  6
Continuous
 62
               7
100
AcDbLine
 10
-388.0
 20
-179.0
 30
0.0
 11
-388.0
 21
-178.0
 31
0.0
  0
LINE
  5
D5
100
AcDbEntity
  8
一般
370
               9
  6
Continuous
 62
               7
100
AcDbLine
 10
-387.0
 20
-180.0
 30
0.0
 11
-382.0
 21
-180.0
 31
0.0
  0
LINE
  5
D6
100
AcDbEntity
  8
一般
370
               9
  6
Continuous
 62
               7
100
AcDbLine
 10
-387.0
 20
-177.0
 30
0.0
 11
-382.0
 21
-177.0
 31
0.0
  0
LINE
  5
D7
100
AcDbEntity
  8
一般
370
               9
  6
Continuous
 62
               7
100
AcDbLine
 10
-381.0
 20
-179.0
 30
0.0
 11
-381.0
 21
-178.0
 31
0.0
  0
ARC
  5
D8
100
AcDbEntity
  8
一般
370
               9
  6
Continuous
 62
               7
100
AcDbCircle
 10
-387.0
 20
-178.0
 30
0.0
 40
1.0
100
AcDbArc
 50
90.0
 51
180.0
  0
ARC
  5
D9
100
AcDbEntity
  8
一般
370
               9
  6
Continuous
 62
               7
100
AcDbCircle
 10
-387.0
 20
-179.0
 30
0.0
 40
1.0
100
AcDbArc
 50
180.0
 51
270.0
  0
ARC
  5
DA
100
AcDbEntity
  8
一般
370
               9
  6
Continuous
 62
               7
100
AcDbCircle
 10
-382.0
 20
-179.0
 30
0.0
 40
1.0
100
AcDbArc
 50
270.0
 51
0.0
  0
ARC
  5
DB
100
AcDbEntity
  8
一般
370
               9
  6
Continuous
 62
               7
100
AcDbCircle
 10
-382.0
 20
-178.0
 30
0.0
 40
1.0
100
AcDbArc
 50
0.0
 51
90.0
  0
LWPOLYLINE
  5
DC
100
AcDbEntity
  8
一般
370
               9
  6
Continuous
 62
               7
100
AcDbPolyline
 90
        5
 70
             129
 10
-373.0
 20
-189.0
 42
-0.414213562373095
 10
-372.0
 20
-188.0
 42
-0.414213562373095
 10
-371.0
 20
-189.0
 42
-0.414213562373095
 10
-372.0
 20
-190.0
 42
-0.414213562373095
 10
-373.0
 20
-189.0
 42
-0.414213562373095
  0
LINE
  5
DD
100
AcDbEntity
  8
一般
370
               9
  6
Continuous
 62
               7
100
AcDbLine
 10
-388.0
 20
-213.0
 30
0.0
 11
-388.0
 21
-214.0
 31
0.0
  0
LINE
  5
DE
100
AcDbEntity
  8
一般
370
               9
  6
Continuous
 62
               7
100
AcDbLine
 10
-387.0
 20
-212.0
 30
0.0
 11
-382.0
 21
-212.0
 31
0.0
  0
LINE
  5
DF
100
AcDbEntity
  8
一般
370
               9
  6
Continuous
 62
               7
100
AcDbLine
 10
-387.0
 20
-215.0
 30
0.0
 11
-382.0
 21
-215.0
 31
0.0
  0
LINE
  5
E0
100
AcDbEntity
  8
一般
370
               9
  6
Continuous
 62
               7
100
AcDbLine
 10
-381.0
 20
-213.0
 30
0.0
 11
-381.0
 21
-214.0
 31
0.0
  0
ARC
  5
E1
100
AcDbEntity
  8
一般
370
               9
  6
Continuous
 62
               7
100
AcDbCircle
 10
-387.0
 20
-214.0
 30
0.0
 40
1.0
100
AcDbArc
 50
180.0
 51
270.0
  0
ARC
  5
E2
100
AcDbEntity
  8
一般
370
               9
  6
Continuous
 62
               7
100
AcDbCircle
 10
-387.0
 20
-213.0
 30
0.0
 40
1.0
100
AcDbArc
 50
90.0
 51
180.0
  0
ARC
  5
E3
100
AcDbEntity
  8
一般
370
               9
  6
Continuous
 62
               7
100
AcDbCircle
 10
-382.0
 20
-213.0
 30
0.0
 40
1.0
100
AcDbArc
 50
0.0
 51
90.0
  0
ARC
  5
E4
100
AcDbEntity
  8
一般
370
               9
  6
Continuous
 62
               7
100
AcDbCircle
 10
-382.0
 20
-214.0
 30
0.0
 40
1.0
100
AcDbArc
 50
270.0
 51
0.0
  0
LWPOLYLINE
  5
E5
100
AcDbEntity
  8
一般
370
               9
  6
Continuous
 62
               7
100
AcDbPolyline
 90
        5
 70
             129
 10
-373.0
 20
-203.0
 42
-0.414213562373095
 10
-372.0
 20
-202.0
 42
-0.414213562373095
 10
-371.0
 20
-203.0
 42
-0.414213562373095
 10
-372.0
 20
-204.0
 42
-0.414213562373095
 10
-373.0
 20
-203.0
 42
-0.414213562373095
  0
LINE
  5
E6
100
AcDbEntity
  8
一般
370
               9
  6
Continuous
 62
               7
100
AcDbLine
 10
90.999999999999972
 20
-215.0
 30
0.0
 11
90.999999999999972
 21
-177.0
 31
0.0
  0
LINE
  5
E7
100
AcDbEntity
  8
一般
370
               9
  6
Continuous
 62
               7
100
AcDbLine
 10
64.999999999999972
 20
-174.0
 30
0.0
 11
64.999999999999972
 21
-218.0
 31
0.0
  0
LINE
  5
E8
100
AcDbEntity
  8
一般
370
               9
  6
Continuous
 62
               7
100
AcDbLine
 10
87.999999999999972
 20
-179.0
 30
0.0
 11
87.999999999999972
 21
-178.0
 31
0.0
  0
LINE
  5
E9
100
AcDbEntity
  8
一般
370
               9
  6
Continuous
 62
               7
100
AcDbLine
 10
86.999999999999972
 20
-180.0
 30
0.0
 11
81.999999999999972
 21
-180.0
 31
0.0
  0
LINE
  5
EA
100
AcDbEntity
  8
一般
370
               9
  6
Continuous
 62
               7
100
AcDbLine
 10
86.999999999999972
 20
-177.0
 30
0.0
 11
81.999999999999972
 21
-177.0
 31
0.0
  0
LINE
  5
EB
100
AcDbEntity
  8
一般
370
               9
  6
Continuous
 62
               7
100
AcDbLine
 10
80.999999999999972
 20
-179.0
 30
0.0
 11
80.999999999999972
 21
-178.0
 31
0.0
  0
ARC
  5
EC
100
AcDbEntity
  8
一般
370
               9
  6
Continuous
 62
               7
100
AcDbCircle
 10
86.999999999999972
 20
-178.0
 30
0.0
 40
1.0
100
AcDbArc
 50
0.0
 51
90.0
  0
ARC
  5
ED
100
AcDbEntity
  8
一般
370
               9
  6
Continuous
 62
               7
100
AcDbCircle
 10
86.999999999999972
 20
-179.0
 30
0.0
 40
1.0
100
AcDbArc
 50
270.0
 51
0.0
  0
ARC
  5
EE
100
AcDbEntity
  8
一般
370
               9
  6
Continuous
 62
               7
100
AcDbCircle
 10
81.999999999999972
 20
-179.0
 30
0.0
 40
1.0
100
AcDbArc
 50
180.0
 51
270.0
  0
ARC
  5
EF
100
AcDbEntity
  8
一般
370
               9
  6
Continuous
 62
               7
100
AcDbCircle
 10
81.999999999999972
 20
-178.0
 30
0.0
 40
1.0
100
AcDbArc
 50
90.0
 51
180.0
  0
LWPOLYLINE
  5
F0
100
AcDbEntity
  8
一般
370
               9
  6
Continuous
 62
               7
100
AcDbPolyline
 90
        5
 70
             129
 10
70.999999999999972
 20
-189.0
 42
-0.414213562373095
 10
71.999999999999972
 20
-188.0
 42
-0.4142135623731034
 10
72.999999999999972
 20
-189.0
 42
-0.414213562373095
 10
71.999999999999972
 20
-190.0
 42
-0.4142135623730867
 10
70.999999999999972
 20
-189.0
 42
-0.4142135623730867
  0
LINE
  5
F1
100
AcDbEntity
  8
一般
370
               9
  6
Continuous
 62
               7
100
AcDbLine
 10
87.999999999999972
 20
-213.0
 30
0.0
 11
87.999999999999972
 21
-214.0
 31
0.0
  0
LINE
  5
F2
100
AcDbEntity
  8
一般
370
               9
  6
Continuous
 62
               7
100
AcDbLine
 10
86.999999999999972
 20
-212.0
 30
0.0
 11
81.999999999999972
 21
-212.0
 31
0.0
  0
LINE
  5
F3
100
AcDbEntity
  8
一般
370
               9
  6
Continuous
 62
               7
100
AcDbLine
 10
86.999999999999972
 20
-215.0
 30
0.0
 11
81.999999999999972
 21
-215.0
 31
0.0
  0
LINE
  5
F4
100
AcDbEntity
  8
一般
370
               9
  6
Continuous
 62
               7
100
AcDbLine
 10
80.999999999999972
 20
-213.0
 30
0.0
 11
80.999999999999972
 21
-214.0
 31
0.0
  0
ARC
  5
F5
100
AcDbEntity
  8
一般
370
               9
  6
Continuous
 62
               7
100
AcDbCircle
 10
86.999999999999972
 20
-214.0
 30
0.0
 40
1.0
100
AcDbArc
 50
270.0
 51
0.0
  0
ARC
  5
F6
100
AcDbEntity
  8
一般
370
               9
  6
Continuous
 62
               7
100
AcDbCircle
 10
86.999999999999972
 20
-213.0
 30
0.0
 40
1.0
100
AcDbArc
 50
0.0
 51
90.0
  0
ARC
  5
F7
100
AcDbEntity
  8
一般
370
               9
  6
Continuous
 62
               7
100
AcDbCircle
 10
81.999999999999972
 20
-213.0
 30
0.0
 40
1.0
100
AcDbArc
 50
90.0
 51
180.0
  0
ARC
  5
F8
100
AcDbEntity
  8
一般
370
               9
  6
Continuous
 62
               7
100
AcDbCircle
 10
81.999999999999972
 20
-214.0
 30
0.0
 40
1.0
100
AcDbArc
 50
180.0
 51
270.0
  0
LWPOLYLINE
  5
F9
100
AcDbEntity
  8
一般
370
               9
  6
Continuous
 62
               7
100
AcDbPolyline
 90
        5
 70
             129
 10
70.999999999999972
 20
-203.0
 42
-0.414213562373095
 10
71.999999999999972
 20
-202.0
 42
-0.4142135623731034
 10
72.999999999999972
 20
-203.0
 42
-0.414213562373095
 10
71.999999999999972
 20
-204.0
 42
-0.4142135623730867
 10
70.999999999999972
 20
-203.0
 42
-0.4142135623730867
  0
LWPOLYLINE
  5
FA
100
AcDbEntity
  8
一般
370
               9
  6
Continuous
 62
               7
100
AcDbPolyline
 90
        5
 70
             129
 10
-271.0
 20
-196.0
 42
-0.414213562373095
 10
-269.0
 20
-194.0
 42
-0.414213562373095
 10
-267.0
 20
-196.0
 42
-0.414213562373095
 10
-269.0
 20
-198.0
 42
-0.414213562373095
 10
-271.0
 20
-196.0
 42
-0.414213562373095
  0
LWPOLYLINE
  5
FB
100
AcDbEntity
  8
一般
370
               9
  6
Continuous
 62
               7
100
AcDbPolyline
 90
        5
 70
             129
 10
-247.99999999999997
 20
-196.0
 42
-0.4142135623730909
 10
-245.99999999999997
 20
-194.0
 42
-0.414213562373095
 10
-243.99999999999997
 20
-196.0
 42
-0.4142135623730992
 10
-245.99999999999997
 20
-198.0
 42
-0.414213562373095
 10
-247.99999999999997
 20
-196.0
 42
-0.414213562373095
  0
LINE
  5
FC
100
AcDbEntity
  8
一般
370
               9
  6
Continuous
 62
               7
100
AcDbLine
 10
-267.0
 20
-196.0
 30
0.0
 11
-247.99999999999997
 21
-196.0
 31
0.0
  0
LINE
  5
FD
100
AcDbEntity
  8
一般
370
               9
  6
Continuous
 62
               7
100
AcDbLine
 10
-179.0
 20
-196.0
 30
0.0
 11
-160.0
 21
-196.0
 31
0.0
  0
LINE
  5
FE
100
AcDbEntity
  8
一般
370
               9
  6
Continuous
 62
               7
100
AcDbLine
 10
-312.0
 20
-208.0
 30
0.0
 11
-312.0
 21
-203.0
 31
0.0
  0
LINE
  5
FF
100
AcDbEntity
  8
一般
370
               9
  6
Continuous
 62
               7
100
AcDbLine
 10
-312.0
 20
-208.0
 30
0.0
 11
-298.50000000000011
 21
-208.0
 31
0.0
  0
LINE
  5
100
100
AcDbEntity
  8
一般
370
               9
  6
Continuous
 62
               7
100
AcDbLine
 10
-312.0
 20
-203.0
 30
0.0
 11
-298.50000000000011
 21
-203.0
 31
0.0
  0
LINE
  5
101
100
AcDbEntity
  8
一般
370
               9
  6
Continuous
 62
               7
100
AcDbLine
 10
-298.50000000000011
 20
-208.0
 30
0.0
 11
-298.50000000000011
 21
-203.0
 31
0.0
  0
LINE
  5
102
100
AcDbEntity
  8
一般
370
               9
  6
Continuous
 62
               7
100
AcDbLine
 10
-298.50000000000011
 20
-206.0
 30
0.0
 11
-31.000000000000028
 21
-206.0
 31
0.0
  0
LINE
  5
103
100
AcDbEntity
  8
一般
370
               9
  6
Continuous
 62
               7
100
AcDbLine
 10
-245.99999999999997
 20
-198.0
 30
0.0
 11
-245.99999999999997
 21
-206.0
 31
0.0
  0
LINE
  5
104
100
AcDbEntity
  8
一般
370
               9
  6
Continuous
 62
               7
100
AcDbLine
 10
-158.0
 20
-198.0
 30
0.0
 11
-158.0
 21
-206.0
 31
0.0
  0
LWPOLYLINE
  5
105
100
AcDbEntity
  8
一般
370
               9
  6
Continuous
 62
               7
100
AcDbPolyline
 90
        5
 70
             129
 10
-126.99999999999997
 20
-202.0
 42
-0.4142135623730909
 10
-124.99999999999997
 20
-200.0
 42
-0.414213562373095
 10
-122.99999999999997
 20
-202.0
 42
-0.4142135623730992
 10
-124.99999999999997
 20
-204.0
 42
-0.414213562373095
 10
-126.99999999999997
 20
-202.0
 42
-0.414213562373095
  0
LWPOLYLINE
  5
106
100
AcDbEntity
  8
一般
370
               9
  6
Continuous
 62
               7
100
AcDbPolyline
 90
        5
 70
             129
 10
-115.99999999999997
 20
-202.0
 42
-0.4142135623730909
 10
-113.99999999999997
 20
-200.0
 42
-0.414213562373095
 10
-111.99999999999997
 20
-202.0
 42
-0.4142135623730992
 10
-113.99999999999997
 20
-204.0
 42
-0.414213562373095
 10
-115.99999999999997
 20
-202.0
 42
-0.414213562373095
  0
LWPOLYLINE
  5
107
100
AcDbEntity
  8
一般
370
               9
  6
Continuous
 62
               7
100
AcDbPolyline
 90
        5
 70
             129
 10
-105.99999999999997
 20
-202.0
 42
-0.4142135623730909
 10
-103.99999999999997
 20
-200.0
 42
-0.414213562373095
 10
-101.99999999999997
 20
-202.0
 42
-0.4142135623730992
 10
-103.99999999999997
 20
-204.0
 42
-0.414213562373095
 10
-105.99999999999997
 20
-202.0
 42
-0.414213562373095
  0
POINT
  5
108
100
AcDbEntity
  8
一般
370
               5
  6
Continuous
 62
               7
100
AcDbPoint
 10
-391.0
 20
-174.0
 30
0.0
  0
ARC
  5
109
100
AcDbEntity
  8
一般
370
               9
  6
Continuous
 62
               7
100
AcDbCircle
 10
87.999999999999972
 20
-215.0
 30
0.0
 40
3.0
100
AcDbArc
 50
270.0
 51
0.0
  0
ARC
  5
10A
100
AcDbEntity
  8
一般
370
               9
  6
Continuous
 62
               7
100
AcDbCircle
 10
87.999999999999972
 20
-177.0
 30
0.0
 40
3.0
100
AcDbArc
 50
0.0
 51
90.0
  0
ARC
  5
10B
100
AcDbEntity
  8
一般
370
               9
  6
Continuous
 62
               7
100
AcDbCircle
 10
-388.0
 20
-177.0
 30
0.0
 40
3.0
100
AcDbArc
 50
90.0
 51
180.0
  0
ARC
  5
10C
100
AcDbEntity
  8
一般
370
               9
  6
Continuous
 62
               7
100
AcDbCircle
 10
-388.0
 20
-215.0
 30
0.0
 40
3.0
100
AcDbArc
 50
180.0
 51
270.0
  0
INSERT
  5
10D
100
AcDbEntity
  8
一般
 62
               7
100
AcDbBlockReference
  2
*U4
 10
0.0
 20
0.0
 30
0.0
  0
INSERT
  5
10E
100
AcDbEntity
  8
一般
 62
               7
100
AcDbBlockReference
  2
*U5
 10
0.0
 20
0.0
 30
0.0
  0
ENDBLK
  5
10F
100
AcDbEntity
  8
一般
100
AcDbBlockEnd
  0
BLOCK
  5
110
100
AcDbEntity
  8
寸法
100
AcDbBlockBegin
  2
*D7
 70
               1
 10
0.0
 20
0.0
 30
0.0
  3
*D7
  1

  0
LINE
  5
111
100
AcDbEntity
  8
寸法
370
              -2
  6
Continuous
 62
               0
100
AcDbLine
 10
107.34999999999999
 20
91.0
 30
0.0
 11
154.69999999999999
 21
91.0
 31
0.0
  0
LINE
  5
112
100
AcDbEntity
  8
寸法
370
              -2
  6
Continuous
 62
               0
100
AcDbLine
 10
107.34999999999999
 20
-84.0
 30
0.0
 11
154.69999999999999
 21
-84.0
 31
0.0
  0
LINE
  5
113
100
AcDbEntity
  8
寸法
370
              -2
  6
Continuous
 62
               0
100
AcDbLine
 10
142.0
 20
97.349999999999994
 30
0.0
 11
142.0
 21
91.0
 31
0.0
  0
LINE
  5
114
100
AcDbEntity
  8
寸法
370
              -2
  6
Continuous
 62
               0
100
AcDbLine
 10
142.0
 20
-84.0
 30
0.0
 11
142.0
 21
-90.349999999999994
 31
0.0
  0
LINE
  5
115
100
AcDbEntity
  8
寸法
370
              -2
  6
Continuous
 62
               0
100
AcDbLine
 10
142.0
 20
91.0
 30
0.0
 11
142.0
 21
-84.0
 31
0.0
  0
LINE
  5
116
100
AcDbEntity
  8
寸法
370
              20
  6
Continuous
 62
               0
100
AcDbLine
 10
146.49012806053457
 20
86.509871939465427
 30
0.0
 11
137.50987193946543
 21
95.490128060534573
 31
0.0
  0
LINE
  5
117
100
AcDbEntity
  8
寸法
370
              20
  6
Continuous
 62
               0
100
AcDbLine
 10
137.50987193946543
 20
-79.509871939465427
 30
0.0
 11
146.49012806053457
 21
-88.490128060534573
 31
0.0
  0
MTEXT
  5
118
100
AcDbEntity
  8
寸法
 62
               0
100
AcDbMText
 10
121.53888888888888
 20
-8.7766663975185821
 30
0.0
 40
11.28888888888889
 41
0.0
 71
               1
 72
               1
  1
175
  7
HGSｺﾞｼｯｸM
 11
0.0
 21
1.0
 31
0.0
 73
               1
 44
1.0
  0
POINT
  5
119
100
AcDbEntity
  8
Defpoints
370
               0
 62
               0
100
AcDbPoint
 10
101.0
 20
-84.0
 30
0.0
  0
POINT
  5
11A
100
AcDbEntity
  8
Defpoints
370
               0
 62
               0
100
AcDbPoint
 10
101.0
 20
91.0
 30
0.0
  0
POINT
  5
11B
100
AcDbEntity
  8
Defpoints
370
               0
 62
               0
100
AcDbPoint
 10
142.0
 20
91.0
 30
0.0
  0
ENDBLK
  5
11C
100
AcDbEntity
  8
寸法
100
AcDbBlockEnd
  0
BLOCK
  5
11D
100
AcDbEntity
  8
寸法
100
AcDbBlockBegin
  2
*D8
 70
               1
 10
0.0
 20
0.0
 30
0.0
  3
*D8
  1

  0
LINE
  5
11E
100
AcDbEntity
  8
寸法
370
              -2
  6
Continuous
 62
               0
100
AcDbLine
 10
109.34999999999999
 20
-174.0
 30
0.0
 11
154.69999999999999
 21
-174.0
 31
0.0
  0
LINE
  5
11F
100
AcDbEntity
  8
寸法
370
              -2
  6
Continuous
 62
               0
100
AcDbLine
 10
109.34999999999999
 20
-218.0
 30
0.0
 11
154.69999999999999
 21
-218.0
 31
0.0
  0
LINE
  5
120
100
AcDbEntity
  8
寸法
370
              -2
  6
Continuous
 62
               0
100
AcDbLine
 10
142.0
 20
-167.65000000000001
 30
0.0
 11
142.0
 21
-174.0
 31
0.0
  0
LINE
  5
121
100
AcDbEntity
  8
寸法
370
              -2
  6
Continuous
 62
               0
100
AcDbLine
 10
142.0
 20
-218.0
 30
0.0
 11
142.0
 21
-224.34999999999999
 31
0.0
  0
LINE
  5
122
100
AcDbEntity
  8
寸法
370
              -2
  6
Continuous
 62
               0
100
AcDbLine
 10
142.0
 20
-174.0
 30
0.0
 11
142.0
 21
-218.0
 31
0.0
  0
LINE
  5
123
100
AcDbEntity
  8
寸法
370
              20
  6
Continuous
 62
               0
100
AcDbLine
 10
146.49012806053457
 20
-178.49012806053457
 30
0.0
 11
137.50987193946543
 21
-169.50987193946543
 31
0.0
  0
LINE
  5
124
100
AcDbEntity
  8
寸法
370
              20
  6
Continuous
 62
               0
100
AcDbLine
 10
137.50987193946543
 20
-213.50987193946543
 30
0.0
 11
146.49012806053457
 21
-222.49012806053457
 31
0.0
  0
MTEXT
  5
125
100
AcDbEntity
  8
寸法
 62
               0
100
AcDbMText
 10
121.53888888888888
 20
-204.18444471359251
 30
0.0
 40
11.28888888888889
 41
0.0
 71
               1
 72
               1
  1
44
  7
HGSｺﾞｼｯｸM
 11
0.0
 21
1.0
 31
0.0
 73
               1
 44
1.0
  0
POINT
  5
126
100
AcDbEntity
  8
Defpoints
370
               0
 62
               0
100
AcDbPoint
 10
103.0
 20
-218.0
 30
0.0
  0
POINT
  5
127
100
AcDbEntity
  8
Defpoints
370
               0
 62
               0
100
AcDbPoint
 10
103.0
 20
-174.0
 30
0.0
  0
POINT
  5
128
100
AcDbEntity
  8
Defpoints
370
               0
 62
               0
100
AcDbPoint
 10
142.0
 20
-174.0
 30
0.0
  0
ENDBLK
  5
129
100
AcDbEntity
  8
寸法
100
AcDbBlockEnd
  0
BLOCK
  5
12A
100
AcDbEntity
  8
寸法
100
AcDbBlockBegin
  2
*D9
 70
               1
 10
0.0
 20
0.0
 30
0.0
  3
*D9
  1

  0
LINE
  5
12B
100
AcDbEntity
  8
寸法
370
              -2
  6
Continuous
 62
               0
100
AcDbLine
 10
187.50000000000003
 20
-240.34999999999999
 30
0.0
 11
187.50000000000003
 21
-298.69999999999999
 31
0.0
  0
LINE
  5
12C
100
AcDbEntity
  8
寸法
370
              -2
  6
Continuous
 62
               0
100
AcDbLine
 10
362.5
 20
-240.34999999999999
 30
0.0
 11
362.5
 21
-298.69999999999999
 31
0.0
  0
LINE
  5
12D
100
AcDbEntity
  8
寸法
370
              -2
  6
Continuous
 62
               0
100
AcDbLine
 10
181.15000000000003
 20
-286.0
 30
0.0
 11
187.50000000000003
 21
-286.0
 31
0.0
  0
LINE
  5
12E
100
AcDbEntity
  8
寸法
370
              -2
  6
Continuous
 62
               0
100
AcDbLine
 10
362.5
 20
-286.0
 30
0.0
 11
368.85000000000002
 21
-286.0
 31
0.0
  0
LINE
  5
12F
100
AcDbEntity
  8
寸法
370
              -2
  6
Continuous
 62
               0
100
AcDbLine
 10
187.50000000000003
 20
-286.0
 30
0.0
 11
362.5
 21
-286.0
 31
0.0
  0
LINE
  5
130
100
AcDbEntity
  8
寸法
370
              20
  6
Continuous
 62
               0
100
AcDbLine
 10
191.9901280605346
 20
-281.50987193946543
 30
0.0
 11
183.00987193946546
 21
-290.49012806053457
 31
0.0
  0
LINE
  5
131
100
AcDbEntity
  8
寸法
370
              20
  6
Continuous
 62
               0
100
AcDbLine
 10
358.00987193946543
 20
-290.49012806053457
 30
0.0
 11
366.99012806053457
 21
-281.50987193946543
 31
0.0
  0
MTEXT
  5
132
100
AcDbEntity
  8
寸法
 62
               0
100
AcDbMText
 10
262.72333360248143
 20
-265.53888888888889
 30
0.0
 40
11.28888888888889
 41
0.0
 71
               1
 72
               1
  1
175
  7
HGSｺﾞｼｯｸM
 73
               1
 44
1.0
  0
POINT
  5
133
100
AcDbEntity
  8
Defpoints
370
               0
 62
               0
100
AcDbPoint
 10
362.5
 20
-234.0
 30
0.0
  0
POINT
  5
134
100
AcDbEntity
  8
Defpoints
370
               0
 62
               0
100
AcDbPoint
 10
187.50000000000003
 20
-234.0
 30
0.0
  0
POINT
  5
135
100
AcDbEntity
  8
Defpoints
370
               0
 62
               0
100
AcDbPoint
 10
187.50000000000003
 20
-286.0
 30
0.0
  0
ENDBLK
  5
136
100
AcDbEntity
  8
寸法
100
AcDbBlockEnd
  0
BLOCK
  5
137
100
AcDbEntity
  8
寸法
100
AcDbBlockBegin
  2
*D10
 70
               1
 10
0.0
 20
0.0
 30
0.0
  3
*D10
  1

  0
LINE
  5
138
100
AcDbEntity
  8
寸法
370
              -2
  6
Continuous
 62
               0
100
AcDbLine
 10
-391.0
 20
-246.34999999999999
 30
0.0
 11
-391.0
 21
-298.69999999999999
 31
0.0
  0
LINE
  5
139
100
AcDbEntity
  8
寸法
370
              -2
  6
Continuous
 62
               0
100
AcDbLine
 10
90.999999999999972
 20
-246.34999999999999
 30
0.0
 11
90.999999999999972
 21
-298.69999999999999
 31
0.0
  0
LINE
  5
13A
100
AcDbEntity
  8
寸法
370
              -2
  6
Continuous
 62
               0
100
AcDbLine
 10
-397.35000000000002
 20
-286.0
 30
0.0
 11
-391.0
 21
-286.0
 31
0.0
  0
LINE
  5
13B
100
AcDbEntity
  8
寸法
370
              -2
  6
Continuous
 62
               0
100
AcDbLine
 10
90.999999999999972
 20
-286.0
 30
0.0
 11
97.349999999999966
 21
-286.0
 31
0.0
  0
LINE
  5
13C
100
AcDbEntity
  8
寸法
370
              -2
  6
Continuous
 62
               0
100
AcDbLine
 10
-391.0
 20
-286.0
 30
0.0
 11
90.999999999999972
 21
-286.0
 31
0.0
  0
LINE
  5
13D
100
AcDbEntity
  8
寸法
370
              20
  6
Continuous
 62
               0
100
AcDbLine
 10
-386.50987193946543
 20
-281.50987193946543
 30
0.0
 11
-395.49012806053457
 21
-290.49012806053457
 31
0.0
  0
LINE
  5
13E
100
AcDbEntity
  8
寸法
370
              20
  6
Continuous
 62
               0
100
AcDbLine
 10
86.509871939465398
 20
-290.49012806053457
 30
0.0
 11
95.490128060534545
 21
-281.50987193946543
 31
0.0
  0
MTEXT
  5
13F
100
AcDbEntity
  8
寸法
 62
               0
100
AcDbMText
 10
-162.27666639751857
 20
-265.53888888888889
 30
0.0
 40
11.28888888888889
 41
0.0
 71
               1
 72
               1
  1
482
  7
HGSｺﾞｼｯｸM
 73
               1
 44
1.0
  0
POINT
  5
140
100
AcDbEntity
  8
Defpoints
370
               0
 62
               0
100
AcDbPoint
 10
90.999999999999972
 20
-240.0
 30
0.0
  0
POINT
  5
141
100
AcDbEntity
  8
Defpoints
370
               0
 62
               0
100
AcDbPoint
 10
-391.0
 20
-240.0
 30
0.0
  0
POINT
  5
142
100
AcDbEntity
  8
Defpoints
370
               0
 62
               0
100
AcDbPoint
 10
-391.0
 20
-286.0
 30
0.0
  0
ENDBLK
  5
143
100
AcDbEntity
  8
寸法
100
AcDbBlockEnd
  0
BLOCK
  5
144
100
AcDbEntity
  8
寸法
100
AcDbBlockBegin
  2
*D11
 70
               1
 10
0.0
 20
0.0
 30
0.0
  3
*D11
  1

  0
LINE
  5
145
100
AcDbEntity
  8
寸法
370
              -2
  6
Continuous
 62
               0
100
AcDbLine
 10
-365.0
 20
120.34999999999999
 30
0.0
 11
-365.0
 21
153.69999999999999
 31
0.0
  0
LINE
  5
146
100
AcDbEntity
  8
寸法
370
              -2
  6
Continuous
 62
               0
100
AcDbLine
 10
65.0
 20
120.34999999999999
 30
0.0
 11
65.0
 21
153.69999999999999
 31
0.0
  0
LINE
  5
147
100
AcDbEntity
  8
寸法
370
              -2
  6
Continuous
 62
               0
100
AcDbLine
 10
-371.35000000000002
 20
141.0
 30
0.0
 11
-365.0
 21
141.0
 31
0.0
  0
LINE
  5
148
100
AcDbEntity
  8
寸法
370
              -2
  6
Continuous
 62
               0
100
AcDbLine
 10
65.0
 20
141.0
 30
0.0
 11
71.349999999999994
 21
141.0
 31
0.0
  0
LINE
  5
149
100
AcDbEntity
  8
寸法
370
              -2
  6
Continuous
 62
               0
100
AcDbLine
 10
-365.0
 20
141.0
 30
0.0
 11
65.0
 21
141.0
 31
0.0
  0
LINE
  5
14A
100
AcDbEntity
  8
寸法
370
              20
  6
Continuous
 62
               0
100
AcDbLine
 10
-360.50987193946543
 20
145.49012806053457
 30
0.0
 11
-369.49012806053457
 21
136.50987193946543
 31
0.0
  0
LINE
  5
14B
100
AcDbEntity
  8
寸法
370
              20
  6
Continuous
 62
               0
100
AcDbLine
 10
60.509871939465427
 20
136.50987193946543
 30
0.0
 11
69.490128060534573
 21
145.49012806053457
 31
0.0
  0
MTEXT
  5
14C
100
AcDbEntity
  8
寸法
 62
               0
100
AcDbMText
 10
-162.27666639751857
 20
161.46111111111114
 30
0.0
 40
11.28888888888889
 41
0.0
 71
               1
 72
               1
  1
430
  7
HGSｺﾞｼｯｸM
 73
               1
 44
1.0
  0
POINT
  5
14D
100
AcDbEntity
  8
Defpoints
370
               0
 62
               0
100
AcDbPoint
 10
65.0
 20
114.0
 30
0.0
  0
POINT
  5
14E
100
AcDbEntity
  8
Defpoints
370
               0
 62
               0
100
AcDbPoint
 10
-365.0
 20
114.0
 30
0.0
  0
POINT
  5
14F
100
AcDbEntity
  8
Defpoints
370
               0
 62
               0
100
AcDbPoint
 10
-365.0
 20
141.0
 30
0.0
  0
ENDBLK
  5
150
100
AcDbEntity
  8
寸法
100
AcDbBlockEnd
  0
BLOCK
  5
151
100
AcDbEntity
  8
寸法
100
AcDbBlockBegin
  2
*D12
 70
               1
 10
0.0
 20
0.0
 30
0.0
  3
*D12
  1

  0
LINE
  5
152
100
AcDbEntity
  8
寸法
370
              -2
  6
Continuous
 62
               0
100
AcDbLine
 10
-365.0
 20
-102.34999999999999
 30
0.0
 11
-365.0
 21
-136.69999999999999
 31
0.0
  0
LINE
  5
153
100
AcDbEntity
  8
寸法
370
              -2
  6
Continuous
 62
               0
100
AcDbLine
 10
65.0
 20
-108.34999999999999
 30
0.0
 11
65.0
 21
-136.69999999999999
 31
0.0
  0
LINE
  5
154
100
AcDbEntity
  8
寸法
370
              -2
  6
Continuous
 62
               0
100
AcDbLine
 10
-371.35000000000002
 20
-124.0
 30
0.0
 11
-365.0
 21
-124.0
 31
0.0
  0
LINE
  5
155
100
AcDbEntity
  8
寸法
370
              -2
  6
Continuous
 62
               0
100
AcDbLine
 10
65.0
 20
-124.0
 30
0.0
 11
71.349999999999994
 21
-124.0
 31
0.0
  0
LINE
  5
156
100
AcDbEntity
  8
寸法
370
              -2
  6
Continuous
 62
               0
100
AcDbLine
 10
-365.0
 20
-124.0
 30
0.0
 11
65.0
 21
-124.0
 31
0.0
  0
LINE
  5
157
100
AcDbEntity
  8
寸法
370
              20
  6
Continuous
 62
               0
100
AcDbLine
 10
-360.50987193946543
 20
-119.50987193946543
 30
0.0
 11
-369.49012806053457
 21
-128.49012806053457
 31
0.0
  0
LINE
  5
158
100
AcDbEntity
  8
寸法
370
              20
  6
Continuous
 62
               0
100
AcDbLine
 10
60.509871939465427
 20
-128.49012806053457
 30
0.0
 11
69.490128060534573
 21
-119.50987193946543
 31
0.0
  0
MTEXT
  5
159
100
AcDbEntity
  8
寸法
 62
               0
100
AcDbMText
 10
-162.27666639751857
 20
-103.53888888888889
 30
0.0
 40
11.28888888888889
 41
0.0
 71
               1
 72
               1
  1
430
  7
HGSｺﾞｼｯｸM
 73
               1
 44
1.0
  0
POINT
  5
15A
100
AcDbEntity
  8
Defpoints
370
               0
 62
               0
100
AcDbPoint
 10
65.0
 20
-102.0
 30
0.0
  0
POINT
  5
15B
100
AcDbEntity
  8
Defpoints
370
               0
 62
               0
100
AcDbPoint
 10
-365.0
 20
-96.0
 30
0.0
  0
POINT
  5
15C
100
AcDbEntity
  8
Defpoints
370
               0
 62
               0
100
AcDbPoint
 10
-365.0
 20
-124.0
 30
0.0
  0
ENDBLK
  5
15D
100
AcDbEntity
  8
寸法
100
AcDbBlockEnd
  0
BLOCK
  5
15E
100
AcDbEntity
  8
寸法
100
AcDbBlockBegin
  2
*D13
 70
               1
 10
0.0
 20
0.0
 30
0.0
  3
*D13
  1

  0
LINE
  5
15F
100
AcDbEntity
  8
寸法
370
              -2
  6
Continuous
 62
               0
100
AcDbLine
 10
65.0
 20
-117.65000000000001
 30
0.0
 11
65.0
 21
-111.3
 31
0.0
  0
LINE
  5
160
100
AcDbEntity
  8
寸法
370
              -2
  6
Continuous
 62
               0
100
AcDbLine
 10
91.0
 20
-117.65000000000001
 30
0.0
 11
91.0
 21
-111.3
 31
0.0
  0
LINE
  5
161
100
AcDbEntity
  8
寸法
370
              -2
  6
Continuous
 62
               0
100
AcDbLine
 10
58.649999999999999
 20
-124.0
 30
0.0
 11
65.0
 21
-124.0
 31
0.0
  0
LINE
  5
162
100
AcDbEntity
  8
寸法
370
              -2
  6
Continuous
 62
               0
100
AcDbLine
 10
91.0
 20
-124.0
 30
0.0
 11
97.349999999999994
 21
-124.0
 31
0.0
  0
LINE
  5
163
100
AcDbEntity
  8
寸法
370
              -2
  6
Continuous
 62
               0
100
AcDbLine
 10
65.0
 20
-124.0
 30
0.0
 11
91.0
 21
-124.0
 31
0.0
  0
LINE
  5
164
100
AcDbEntity
  8
寸法
370
              20
  6
Continuous
 62
               0
100
AcDbLine
 10
69.490128060534573
 20
-119.50987193946543
 30
0.0
 11
60.509871939465427
 21
-128.49012806053457
 31
0.0
  0
LINE
  5
165
100
AcDbEntity
  8
寸法
370
              20
  6
Continuous
 62
               0
100
AcDbLine
 10
86.509871939465427
 20
-128.49012806053457
 30
0.0
 11
95.490128060534573
 21
-119.50987193946543
 31
0.0
  0
MTEXT
  5
166
100
AcDbEntity
  8
寸法
 62
               0
100
AcDbMText
 10
69.815555286407474
 20
-103.53888888888889
 30
0.0
 40
11.28888888888889
 41
0.0
 71
               1
 72
               1
  1
26
  7
HGSｺﾞｼｯｸM
 73
               1
 44
1.0
  0
POINT
  5
167
100
AcDbEntity
  8
Defpoints
370
               0
 62
               0
100
AcDbPoint
 10
91.0
 20
-124.0
 30
0.0
  0
POINT
  5
168
100
AcDbEntity
  8
Defpoints
370
               0
 62
               0
100
AcDbPoint
 10
65.0
 20
-124.0
 30
0.0
  0
POINT
  5
169
100
AcDbEntity
  8
Defpoints
370
               0
 62
               0
100
AcDbPoint
 10
65.0
 20
-124.0
 30
0.0
  0
ENDBLK
  5
16A
100
AcDbEntity
  8
寸法
100
AcDbBlockEnd
  0
BLOCK
  5
16B
100
AcDbEntity
  8
寸法
100
AcDbBlockBegin
  2
*D14
 70
               1
 10
0.0
 20
0.0
 30
0.0
  3
*D14
  1

  0
LINE
  5
16C
100
AcDbEntity
  8
寸法
370
              -2
  6
Continuous
 62
               0
100
AcDbLine
 10
-365.0
 20
-108.69999999999999
 30
0.0
 11
-365.0
 21
-136.69999999999999
 31
0.0
  0
LINE
  5
16D
100
AcDbEntity
  8
寸法
370
              -2
  6
Continuous
 62
               0
100
AcDbLine
 10
-391.0
 20
-108.69999999999999
 30
0.0
 11
-391.0
 21
-136.69999999999999
 31
0.0
  0
LINE
  5
16E
100
AcDbEntity
  8
寸法
370
              -2
  6
Continuous
 62
               0
100
AcDbLine
 10
-358.64999999999998
 20
-124.0
 30
0.0
 11
-365.0
 21
-124.0
 31
0.0
  0
LINE
  5
16F
100
AcDbEntity
  8
寸法
370
              -2
  6
Continuous
 62
               0
100
AcDbLine
 10
-391.0
 20
-124.0
 30
0.0
 11
-397.35000000000002
 21
-124.0
 31
0.0
  0
LINE
  5
170
100
AcDbEntity
  8
寸法
370
              -2
  6
Continuous
 62
               0
100
AcDbLine
 10
-365.0
 20
-124.0
 30
0.0
 11
-391.0
 21
-124.0
 31
0.0
  0
LINE
  5
171
100
AcDbEntity
  8
寸法
370
              20
  6
Continuous
 62
               0
100
AcDbLine
 10
-369.49012806053457
 20
-128.49012806053457
 30
0.0
 11
-360.50987193946543
 21
-119.50987193946543
 31
0.0
  0
LINE
  5
172
100
AcDbEntity
  8
寸法
370
              20
  6
Continuous
 62
               0
100
AcDbLine
 10
-386.50987193946543
 20
-119.50987193946543
 30
0.0
 11
-395.49012806053457
 21
-128.49012806053457
 31
0.0
  0
MTEXT
  5
173
100
AcDbEntity
  8
寸法
 62
               0
100
AcDbMText
 10
-386.18444471359254
 20
-103.53888888888889
 30
0.0
 40
11.28888888888889
 41
0.0
 71
               1
 72
               1
  1
26
  7
HGSｺﾞｼｯｸM
 73
               1
 44
1.0
  0
POINT
  5
174
100
AcDbEntity
  8
Defpoints
370
               0
 62
               0
100
AcDbPoint
 10
-391.0
 20
-102.34999999999999
 30
0.0
  0
POINT
  5
175
100
AcDbEntity
  8
Defpoints
370
               0
 62
               0
100
AcDbPoint
 10
-365.0
 20
-102.34999999999999
 30
0.0
  0
POINT
  5
176
100
AcDbEntity
  8
Defpoints
370
               0
 62
               0
100
AcDbPoint
 10
-365.0
 20
-124.0
 30
0.0
  0
ENDBLK
  5
177
100
AcDbEntity
  8
寸法
100
AcDbBlockEnd
  0
BLOCK
  5
178
100
AcDbEntity
  8
寸法
100
AcDbBlockBegin
  2
*D15
 70
               1
 10
0.0
 20
0.0
 30
0.0
  3
*D15
  1

  0
LINE
  5
179
100
AcDbEntity
  8
寸法
370
              -2
  6
Continuous
 62
               0
100
AcDbLine
 10
-393.18700000000001
 20
274.35000000000002
 30
0.0
 11
-393.18700000000001
 21
310.69999999999999
 31
0.0
  0
LINE
  5
17A
100
AcDbEntity
  8
寸法
370
              -2
  6
Continuous
 62
               0
100
AcDbLine
 10
88.812999999999988
 20
274.35000000000002
 30
0.0
 11
88.812999999999988
 21
310.69999999999999
 31
0.0
  0
LINE
  5
17B
100
AcDbEntity
  8
寸法
370
              -2
  6
Continuous
 62
               0
100
AcDbLine
 10
-399.53700000000003
 20
298.0
 30
0.0
 11
-393.18700000000001
 21
298.0
 31
0.0
  0
LINE
  5
17C
100
AcDbEntity
  8
寸法
370
              -2
  6
Continuous
 62
               0
100
AcDbLine
 10
88.812999999999988
 20
298.0
 30
0.0
 11
95.162999999999982
 21
298.0
 31
0.0
  0
LINE
  5
17D
100
AcDbEntity
  8
寸法
370
              -2
  6
Continuous
 62
               0
100
AcDbLine
 10
-393.18700000000001
 20
298.0
 30
0.0
 11
88.812999999999988
 21
298.0
 31
0.0
  0
LINE
  5
17E
100
AcDbEntity
  8
寸法
370
              20
  6
Continuous
 62
               0
100
AcDbLine
 10
-388.69687193946544
 20
302.49012806053457
 30
0.0
 11
-397.67712806053459
 21
293.50987193946543
 31
0.0
  0
LINE
  5
17F
100
AcDbEntity
  8
寸法
370
              20
  6
Continuous
 62
               0
100
AcDbLine
 10
84.322871939465415
 20
293.50987193946543
 30
0.0
 11
93.303128060534561
 21
302.49012806053457
 31
0.0
  0
MTEXT
  5
180
100
AcDbEntity
  8
寸法
 62
               0
100
AcDbMText
 10
-164.46366639751858
 20
318.46111111111111
 30
0.0
 40
11.28888888888889
 41
0.0
 71
               1
 72
               1
  1
482
  7
HGSｺﾞｼｯｸM
 73
               1
 44
1.0
  0
POINT
  5
181
100
AcDbEntity
  8
Defpoints
370
               0
 62
               0
100
AcDbPoint
 10
88.812999999999988
 20
268.0
 30
0.0
  0
POINT
  5
182
100
AcDbEntity
  8
Defpoints
370
               0
 62
               0
100
AcDbPoint
 10
-393.18700000000001
 20
268.0
 30
0.0
  0
POINT
  5
183
100
AcDbEntity
  8
Defpoints
370
               0
 62
               0
100
AcDbPoint
 10
-393.18700000000001
 20
298.0
 30
0.0
  0
ENDBLK
  5
184
100
AcDbEntity
  8
寸法
100
AcDbBlockEnd
  0
BLOCK
  5
185
100
AcDbEntity
  8
寸法
100
AcDbBlockBegin
  2
*D16
 70
               1
 10
0.0
 20
0.0
 30
0.0
  3
*D16
  1

  0
LINE
  5
186
100
AcDbEntity
  8
寸法
370
              -2
  6
Continuous
 62
               0
100
AcDbLine
 10
114.5
 20
242.81099999999998
 30
0.0
 11
150.39402781814999
 21
242.81099999999998
 31
0.0
  0
LINE
  5
187
100
AcDbEntity
  8
寸法
370
              -2
  6
Continuous
 62
               0
100
AcDbLine
 10
114.5
 20
198.81099999999998
 30
0.0
 11
150.39402781814999
 21
198.81099999999998
 31
0.0
  0
LINE
  5
188
100
AcDbEntity
  8
寸法
370
              -2
  6
Continuous
 62
               0
100
AcDbLine
 10
137.69402781815
 20
249.16099999999997
 30
0.0
 11
137.69402781815
 21
242.81099999999998
 31
0.0
  0
LINE
  5
189
100
AcDbEntity
  8
寸法
370
              -2
  6
Continuous
 62
               0
100
AcDbLine
 10
137.69402781815
 20
198.81099999999998
 30
0.0
 11
137.69402781815
 21
192.46099999999998
 31
0.0
  0
LINE
  5
18A
100
AcDbEntity
  8
寸法
370
              -2
  6
Continuous
 62
               0
100
AcDbLine
 10
137.69402781815
 20
242.81099999999998
 30
0.0
 11
137.69402781815
 21
198.81099999999998
 31
0.0
  0
LINE
  5
18B
100
AcDbEntity
  8
寸法
370
              20
  6
Continuous
 62
               0
100
AcDbLine
 10
142.18415587868458
 20
238.32087193946541
 30
0.0
 11
133.20389975761543
 21
247.30112806053455
 31
0.0
  0
LINE
  5
18C
100
AcDbEntity
  8
寸法
370
              20
  6
Continuous
 62
               0
100
AcDbLine
 10
133.20389975761543
 20
203.30112806053455
 30
0.0
 11
142.18415587868458
 21
194.32087193946541
 31
0.0
  0
MTEXT
  5
18D
100
AcDbEntity
  8
寸法
 62
               0
100
AcDbMText
 10
117.2329167070389
 20
212.62655528640747
 30
0.0
 40
11.28888888888889
 41
0.0
 71
               1
 72
               1
  1
44
  7
HGSｺﾞｼｯｸM
 11
0.0
 21
1.0
 31
0.0
 73
               1
 44
1.0
  0
POINT
  5
18E
100
AcDbEntity
  8
Defpoints
370
               0
 62
               0
100
AcDbPoint
 10
108.15000000000001
 20
198.81099999999998
 30
0.0
  0
POINT
  5
18F
100
AcDbEntity
  8
Defpoints
370
               0
 62
               0
100
AcDbPoint
 10
108.15000000000001
 20
242.81099999999998
 30
0.0
  0
POINT
  5
190
100
AcDbEntity
  8
Defpoints
370
               0
 62
               0
100
AcDbPoint
 10
137.69402781815
 20
242.81099999999998
 30
0.0
  0
ENDBLK
  5
191
100
AcDbEntity
  8
寸法
100
AcDbBlockEnd
  0
BLOCK
  5
192
100
AcDbEntity
  8
一般
100
AcDbBlockBegin
  2
*U17
 70
               1
 10
0.0
 20
0.0
 30
0.0
  3
*U17
  1

  0
LINE
  5
193
100
AcDbEntity
  8
一般
370
               9
  6
Continuous
 62
               7
100
AcDbLine
 10
-383.18700000000001
 20
208.81068680790136
 30
0.0
 11
-387.18700000000001
 21
208.81068680790136
 31
0.0
  0
LINE
  5
194
100
AcDbEntity
  8
一般
370
               9
  6
Continuous
 62
               7
100
AcDbLine
 10
-383.18700000000001
 20
202.810284132346
 30
0.0
 11
-387.18700000000001
 21
202.810284132346
 31
0.0
  0
SPLINE
  5
195
100
AcDbEntity
  8
一般
370
               9
  6
Continuous
 62
               7
100
AcDbSpline
210
0.0
220
0.0
230
1.0
 70
               8
 71
               2
 72
              16
 73
              13
 74
               0
 42
0.000001
 43
0.000001
 40
0.0
 40
0.0
 40
0.0
 40
0.167752198201235
 40
0.167752198201235
 40
0.3344210930063444
 40
0.3344210930063444
 40
0.5000001976174855
 40
0.5000001976174855
 40
0.6655792002892856
 40
0.6655792002892856
 40
0.8322478975406764
 40
0.8322478975406764
 40
1.0
 40
1.0
 40
1.0
 10
-387.18700000000001
 20
208.81068680790136
 30
0.0
 10
-388.0037091385301
 20
208.81068680790136
 30
0.0
 10
-388.71100000000001
 20
208.40873604510722
 30
0.0
 10
-389.41829086146993
 20
208.00678528231307
 30
0.0
 10
-389.82664543073497
 20
207.31058613901251
 30
0.0
 10
-390.23500000000001
 20
206.61438699571198
 30
0.0
 10
-390.23500000000001
 20
205.81048547012369
 30
0.0
 10
-390.23500000000001
 20
205.00658394453538
 30
0.0
 10
-389.82664543073497
 20
204.31038480123485
 30
0.0
 10
-389.41829086146993
 20
203.61418565793431
 30
0.0
 10
-388.71100000000001
 20
203.21223489514017
 30
0.0
 10
-388.0037091385301
 20
202.810284132346
 30
0.0
 10
-387.18700000000001
 20
202.810284132346
 30
0.0
  0
SPLINE
  5
196
100
AcDbEntity
  8
一般
370
               9
  6
Continuous
 62
               7
100
AcDbSpline
210
0.0
220
0.0
230
1.0
 70
               8
 71
               2
 72
              16
 73
              13
 74
               0
 42
0.000001
 43
0.000001
 40
0.0
 40
0.0
 40
0.0
 40
0.167752198201236
 40
0.167752198201236
 40
0.3344210930063432
 40
0.3344210930063432
 40
0.5000001976174872
 40
0.5000001976174872
 40
0.6655792002892844
 40
0.6655792002892844
 40
0.8322478975406772
 40
0.8322478975406772
 40
1.0
 40
1.0
 40
1.0
 10
-383.18700000000001
 20
202.810284132346
 30
0.0
 10
-382.37029086146993
 20
202.810284132346
 30
0.0
 10
-381.66300000000001
 20
203.21223489514017
 30
0.0
 10
-380.9557091385301
 20
203.61418565793431
 30
0.0
 10
-380.54735456926505
 20
204.31038480123485
 30
0.0
 10
-380.13900000000001
 20
205.00658394453538
 30
0.0
 10
-380.13900000000001
 20
205.81048547012369
 30
0.0
 10
-380.13900000000001
 20
206.61438699571198
 30
0.0
 10
-380.54735456926505
 20
207.31058613901251
 30
0.0
 10
-380.9557091385301
 20
208.00678528231307
 30
0.0
 10
-381.66300000000001
 20
208.40873604510722
 30
0.0
 10
-382.37029086146993
 20
208.81068680790136
 30
0.0
 10
-383.18700000000001
 20
208.81068680790136
 30
0.0
  0
ENDBLK
  5
197
100
AcDbEntity
  8
一般
100
AcDbBlockEnd
  0
BLOCK
  5
198
100
AcDbEntity
  8
一般
100
AcDbBlockBegin
  2
*U18
 70
               1
 10
0.0
 20
0.0
 30
0.0
  3
*U18
  1

  0
LINE
  5
199
100
AcDbEntity
  8
一般
370
               9
  6
Continuous
 62
               7
100
AcDbLine
 10
-383.18700000000001
 20
238.81171586765396
 30
0.0
 11
-387.18700000000001
 21
238.81171586765396
 31
0.0
  0
LINE
  5
19A
100
AcDbEntity
  8
一般
370
               9
  6
Continuous
 62
               7
100
AcDbLine
 10
-383.18700000000001
 20
232.81131319209859
 30
0.0
 11
-387.18700000000001
 21
232.81131319209859
 31
0.0
  0
SPLINE
  5
19B
100
AcDbEntity
  8
一般
370
               9
  6
Continuous
 62
               7
100
AcDbSpline
210
0.0
220
0.0
230
1.0
 70
               8
 71
               2
 72
              16
 73
              13
 74
               0
 42
0.000001
 43
0.000001
 40
0.0
 40
0.0
 40
0.0
 40
0.1677521982012346
 40
0.1677521982012346
 40
0.3344210930063418
 40
0.3344210930063418
 40
0.5000001976174884
 40
0.5000001976174884
 40
0.6655792002892853
 40
0.6655792002892853
 40
0.8322478975406777
 40
0.8322478975406777
 40
1.0
 40
1.0
 40
1.0
 10
-387.18700000000001
 20
238.81171586765396
 30
0.0
 10
-388.0037091385301
 20
238.81171586765396
 30
0.0
 10
-388.71100000000001
 20
238.40976510485982
 30
0.0
 10
-389.41829086146993
 20
238.00781434206567
 30
0.0
 10
-389.82664543073497
 20
237.31161519876514
 30
0.0
 10
-390.23500000000001
 20
236.61541605546458
 30
0.0
 10
-390.23500000000001
 20
235.81151452987626
 30
0.0
 10
-390.23500000000001
 20
235.00761300428798
 30
0.0
 10
-389.82664543073497
 20
234.31141386098744
 30
0.0
 10
-389.41829086146993
 20
233.61521471768688
 30
0.0
 10
-388.71100000000001
 20
233.21326395489274
 30
0.0
 10
-388.0037091385301
 20
232.81131319209859
 30
0.0
 10
-387.18700000000001
 20
232.81131319209859
 30
0.0
  0
SPLINE
  5
19C
100
AcDbEntity
  8
一般
370
               9
  6
Continuous
 62
               7
100
AcDbSpline
210
0.0
220
0.0
230
1.0
 70
               8
 71
               2
 72
              16
 73
              13
 74
               0
 42
0.000001
 43
0.000001
 40
0.0
 40
0.0
 40
0.0
 40
0.1677521982012347
 40
0.1677521982012347
 40
0.3344210930063437
 40
0.3344210930063437
 40
0.5000001976174845
 40
0.5000001976174845
 40
0.6655792002892871
 40
0.6655792002892871
 40
0.8322478975406777
 40
0.8322478975406777
 40
1.0
 40
1.0
 40
1.0
 10
-383.18700000000001
 20
232.81131319209859
 30
0.0
 10
-382.37029086146993
 20
232.81131319209859
 30
0.0
 10
-381.66300000000001
 20
233.21326395489274
 30
0.0
 10
-380.9557091385301
 20
233.61521471768688
 30
0.0
 10
-380.54735456926505
 20
234.31141386098744
 30
0.0
 10
-380.13900000000001
 20
235.00761300428798
 30
0.0
 10
-380.13900000000001
 20
235.81151452987626
 30
0.0
 10
-380.13900000000001
 20
236.61541605546458
 30
0.0
 10
-380.54735456926505
 20
237.31161519876514
 30
0.0
 10
-380.9557091385301
 20
238.00781434206567
 30
0.0
 10
-381.66300000000001
 20
238.40976510485982
 30
0.0
 10
-382.37029086146993
 20
238.81171586765396
 30
0.0
 10
-383.18700000000001
 20
238.81171586765396
 30
0.0
  0
ENDBLK
  5
19D
100
AcDbEntity
  8
一般
100
AcDbBlockEnd
  0
BLOCK
  5
19E
100
AcDbEntity
  8
一般
100
AcDbBlockBegin
  2
*U19
 70
               1
 10
0.0
 20
0.0
 30
0.0
  3
*U19
  1

  0
LINE
  5
19F
100
AcDbEntity
  8
一般
370
               9
  6
Continuous
 62
               7
100
AcDbLine
 10
82.812999999999988
 20
208.81068680790136
 30
0.0
 11
78.812999999999988
 21
208.81068680790136
 31
0.0
  0
LINE
  5
1A0
100
AcDbEntity
  8
一般
370
               9
  6
Continuous
 62
               7
100
AcDbLine
 10
82.812999999999988
 20
202.810284132346
 30
0.0
 11
78.812999999999988
 21
202.810284132346
 31
0.0
  0
SPLINE
  5
1A1
100
AcDbEntity
  8
一般
370
               9
  6
Continuous
 62
               7
100
AcDbSpline
210
0.0
220
0.0
230
1.0
 70
               8
 71
               2
 72
              16
 73
              13
 74
               0
 42
0.000001
 43
0.000001
 40
0.0
 40
0.0
 40
0.0
 40
0.1677521982012349
 40
0.1677521982012349
 40
0.3344210930063458
 40
0.3344210930063458
 40
0.5000001976174855
 40
0.5000001976174855
 40
0.6655792002892843
 40
0.6655792002892843
 40
0.8322478975406764
 40
0.8322478975406764
 40
1.0
 40
1.0
 40
1.0
 10
78.812999999999988
 20
208.81068680790136
 30
0.0
 10
77.99629086146993
 20
208.81068680790136
 30
0.0
 10
77.288999999999987
 20
208.40873604510722
 30
0.0
 10
76.581709138530044
 20
208.00678528231307
 30
0.0
 10
76.173354569265015
 20
207.31058613901251
 30
0.0
 10
75.764999999999986
 20
206.61438699571198
 30
0.0
 10
75.764999999999986
 20
205.81048547012369
 30
0.0
 10
75.764999999999986
 20
205.00658394453538
 30
0.0
 10
76.173354569265015
 20
204.31038480123485
 30
0.0
 10
76.581709138530044
 20
203.61418565793431
 30
0.0
 10
77.288999999999987
 20
203.21223489514017
 30
0.0
 10
77.99629086146993
 20
202.810284132346
 30
0.0
 10
78.812999999999988
 20
202.810284132346
 30
0.0
  0
SPLINE
  5
1A2
100
AcDbEntity
  8
一般
370
               9
  6
Continuous
 62
               7
100
AcDbSpline
210
0.0
220
0.0
230
1.0
 70
               8
 71
               2
 72
              16
 73
              13
 74
               0
 42
0.000001
 43
0.000001
 40
0.0
 40
0.0
 40
0.0
 40
0.1677521982012359
 40
0.1677521982012359
 40
0.3344210930063447
 40
0.3344210930063447
 40
0.5000001976174874
 40
0.5000001976174874
 40
0.6655792002892834
 40
0.6655792002892834
 40
0.8322478975406775
 40
0.8322478975406775
 40
1.0
 40
1.0
 40
1.0
 10
82.812999999999988
 20
202.810284132346
 30
0.0
 10
83.629709138530046
 20
202.810284132346
 30
0.0
 10
84.336999999999989
 20
203.21223489514017
 30
0.0
 10
85.044290861469932
 20
203.61418565793431
 30
0.0
 10
85.452645430734961
 20
204.31038480123485
 30
0.0
 10
85.86099999999999
 20
205.00658394453538
 30
0.0
 10
85.86099999999999
 20
205.81048547012369
 30
0.0
 10
85.86099999999999
 20
206.61438699571198
 30
0.0
 10
85.452645430734961
 20
207.31058613901251
 30
0.0
 10
85.044290861469932
 20
208.00678528231307
 30
0.0
 10
84.336999999999989
 20
208.40873604510722
 30
0.0
 10
83.629709138530046
 20
208.81068680790136
 30
0.0
 10
82.812999999999988
 20
208.81068680790136
 30
0.0
  0
ENDBLK
  5
1A3
100
AcDbEntity
  8
一般
100
AcDbBlockEnd
  0
BLOCK
  5
1A4
100
AcDbEntity
  8
一般
100
AcDbBlockBegin
  2
*U20
 70
               1
 10
0.0
 20
0.0
 30
0.0
  3
*U20
  1

  0
LINE
  5
1A5
100
AcDbEntity
  8
一般
370
               9
  6
Continuous
 62
               7
100
AcDbLine
 10
82.812999999999988
 20
238.81171586765396
 30
0.0
 11
78.812999999999988
 21
238.81171586765396
 31
0.0
  0
LINE
  5
1A6
100
AcDbEntity
  8
一般
370
               9
  6
Continuous
 62
               7
100
AcDbLine
 10
82.812999999999988
 20
232.81131319209859
 30
0.0
 11
78.812999999999988
 21
232.81131319209859
 31
0.0
  0
SPLINE
  5
1A7
100
AcDbEntity
  8
一般
370
               9
  6
Continuous
 62
               7
100
AcDbSpline
210
0.0
220
0.0
230
1.0
 70
               8
 71
               2
 72
              16
 73
              13
 74
               0
 42
0.000001
 43
0.000001
 40
0.0
 40
0.0
 40
0.0
 40
0.1677521982012345
 40
0.1677521982012345
 40
0.3344210930063433
 40
0.3344210930063433
 40
0.5000001976174884
 40
0.5000001976174884
 40
0.665579200289284
 40
0.665579200289284
 40
0.8322478975406777
 40
0.8322478975406777
 40
1.0
 40
1.0
 40
1.0
 10
78.812999999999988
 20
238.81171586765396
 30
0.0
 10
77.99629086146993
 20
238.81171586765396
 30
0.0
 10
77.288999999999987
 20
238.40976510485982
 30
0.0
 10
76.581709138530044
 20
238.00781434206567
 30
0.0
 10
76.173354569265015
 20
237.31161519876514
 30
0.0
 10
75.764999999999986
 20
236.61541605546458
 30
0.0
 10
75.764999999999986
 20
235.81151452987626
 30
0.0
 10
75.764999999999986
 20
235.00761300428798
 30
0.0
 10
76.173354569265015
 20
234.31141386098744
 30
0.0
 10
76.581709138530044
 20
233.61521471768688
 30
0.0
 10
77.288999999999987
 20
233.21326395489274
 30
0.0
 10
77.99629086146993
 20
232.81131319209859
 30
0.0
 10
78.812999999999988
 20
232.81131319209859
 30
0.0
  0
SPLINE
  5
1A8
100
AcDbEntity
  8
一般
370
               9
  6
Continuous
 62
               7
100
AcDbSpline
210
0.0
220
0.0
230
1.0
 70
               8
 71
               2
 72
              16
 73
              13
 74
               0
 42
0.000001
 43
0.000001
 40
0.0
 40
0.0
 40
0.0
 40
0.1677521982012346
 40
0.1677521982012346
 40
0.3344210930063451
 40
0.3344210930063451
 40
0.5000001976174845
 40
0.5000001976174845
 40
0.6655792002892857
 40
0.6655792002892857
 40
0.8322478975406777
 40
0.8322478975406777
 40
1.0
 40
1.0
 40
1.0
 10
82.812999999999988
 20
232.81131319209859
 30
0.0
 10
83.629709138530046
 20
232.81131319209859
 30
0.0
 10
84.336999999999989
 20
233.21326395489274
 30
0.0
 10
85.044290861469932
 20
233.61521471768688
 30
0.0
 10
85.452645430734961
 20
234.31141386098744
 30
0.0
 10
85.86099999999999
 20
235.00761300428798
 30
0.0
 10
85.86099999999999
 20
235.81151452987626
 30
0.0
 10
85.86099999999999
 20
236.61541605546458
 30
0.0
 10
85.452645430734961
 20
237.31161519876514
 30
0.0
 10
85.044290861469932
 20
238.00781434206567
 30
0.0
 10
84.336999999999989
 20
238.40976510485982
 30
0.0
 10
83.629709138530046
 20
238.81171586765396
 30
0.0
 10
82.812999999999988
 20
238.81171586765396
 30
0.0
  0
ENDBLK
  5
1A9
100
AcDbEntity
  8
一般
100
AcDbBlockEnd
  0
BLOCK
  5
1AA
100
AcDbEntity
  8
一般
100
AcDbBlockBegin
  2
*U21
 70
               1
 10
0.0
 20
0.0
 30
0.0
  3
*U21
  1

  0
INSERT
  5
1AB
100
AcDbEntity
  8
一般
 62
               7
100
AcDbBlockReference
  2
*U17
 10
0.0
 20
0.0
 30
0.0
  0
INSERT
  5
1AC
100
AcDbEntity
  8
一般
 62
               7
100
AcDbBlockReference
  2
*U18
 10
0.0
 20
0.0
 30
0.0
  0
INSERT
  5
1AD
100
AcDbEntity
  8
一般
 62
               7
100
AcDbBlockReference
  2
*U19
 10
0.0
 20
0.0
 30
0.0
  0
INSERT
  5
1AE
100
AcDbEntity
  8
一般
 62
               7
100
AcDbBlockReference
  2
*U20
 10
0.0
 20
0.0
 30
0.0
  0
POINT
  5
1AF
100
AcDbEntity
  8
一般
370
               5
  6
Continuous
 62
               7
100
AcDbPoint
 10
88.812999999999988
 20
242.81099999999998
 30
0.0
  0
ENDBLK
  5
1B0
100
AcDbEntity
  8
一般
100
AcDbBlockEnd
  0
BLOCK
  5
1B1
100
AcDbEntity
  8
一般
100
AcDbBlockBegin
  2
*U22
 70
               1
 10
0.0
 20
0.0
 30
0.0
  3
*U22
  1

  0
POLYLINE
  5
1B2
100
AcDbEntity
  8
一般
370
               9
  6
Continuous
 62
               7
100
AcDb2dPolyline
 66
               1
 10
0.0
 20
0.0
 30
0.0
 70
               1
 75
               5
  0
VERTEX
  5
1B3
100
AcDbEntity
  8
一般
370
               9
  6
Continuous
 62
               7
100
AcDbVertex
100
AcDb2dVertex
 10
36.312999999999988
 20
228.31691709357733
 30
0.0
  0
VERTEX
  5
1B4
100
AcDbEntity
  8
一般
370
               9
  6
Continuous
 62
               7
100
AcDbVertex
100
AcDb2dVertex
 10
49.331999999999994
 20
228.31691709357733
 30
0.0
  0
VERTEX
  5
1B5
100
AcDbEntity
  8
一般
370
               9
  6
Continuous
 62
               7
100
AcDbVertex
100
AcDb2dVertex
 10
49.331999999999994
 20
206.12054564774834
 30
0.0
  0
VERTEX
  5
1B6
100
AcDbEntity
  8
一般
370
               9
  6
Continuous
 62
               7
100
AcDbVertex
100
AcDb2dVertex
 10
36.312999999999988
 20
206.12054564774834
 30
0.0
  0
SEQEND
  5
1B7
100
AcDbEntity
  8
一般
370
               9
  6
Continuous
 62
               7
  0
POLYLINE
  5
1B8
100
AcDbEntity
  8
一般
370
               9
  6
Continuous
 62
               7
100
AcDb2dPolyline
 66
               1
 10
0.0
 20
0.0
 30
0.0
 70
               1
 75
               5
  0
VERTEX
  5
1B9
100
AcDbEntity
  8
一般
370
               9
  6
Continuous
 62
               7
100
AcDbVertex
100
AcDb2dVertex
 10
38.5
 20
224.53910451667747
 30
0.0
  0
VERTEX
  5
1BA
100
AcDbEntity
  8
一般
370
               9
  6
Continuous
 62
               7
100
AcDbVertex
100
AcDb2dVertex
 10
47.144999999999982
 20
224.53910451667747
 30
0.0
  0
VERTEX
  5
1BB
100
AcDbEntity
  8
一般
370
               9
  6
Continuous
 62
               7
100
AcDbVertex
100
AcDb2dVertex
 10
47.144999999999982
 20
221.61075839466673
 30
0.0
  0
VERTEX
  5
1BC
100
AcDbEntity
  8
一般
370
               9
  6
Continuous
 62
               7
100
AcDbVertex
100
AcDb2dVertex
 10
38.5
 20
221.61075839466673
 30
0.0
  0
SEQEND
  5
1BD
100
AcDbEntity
  8
一般
370
               9
  6
Continuous
 62
               7
  0
POLYLINE
  5
1BE
100
AcDbEntity
  8
一般
370
               9
  6
Continuous
 62
               7
100
AcDb2dPolyline
 66
               1
 10
0.0
 20
0.0
 30
0.0
 70
               1
 75
               5
  0
VERTEX
  5
1BF
100
AcDbEntity
  8
一般
370
               9
  6
Continuous
 62
               7
100
AcDbVertex
100
AcDb2dVertex
 10
38.5
 20
212.82670434665889
 30
0.0
  0
VERTEX
  5
1C0
100
AcDbEntity
  8
一般
370
               9
  6
Continuous
 62
               7
100
AcDbVertex
100
AcDb2dVertex
 10
47.144999999999982
 20
212.82670434665889
 30
0.0
  0
VERTEX
  5
1C1
100
AcDbEntity
  8
一般
370
               9
  6
Continuous
 62
               7
100
AcDbVertex
100
AcDb2dVertex
 10
47.144999999999982
 20
209.89835822464815
 30
0.0
  0
VERTEX
  5
1C2
100
AcDbEntity
  8
一般
370
               9
  6
Continuous
 62
               7
100
AcDbVertex
100
AcDb2dVertex
 10
38.5
 20
209.89835822464815
 30
0.0
  0
SEQEND
  5
1C3
100
AcDbEntity
  8
一般
370
               9
  6
Continuous
 62
               7
  0
ENDBLK
  5
1C4
100
AcDbEntity
  8
一般
100
AcDbBlockEnd
  0
BLOCK
  5
1C5
100
AcDbEntity
  8
一般
100
AcDbBlockBegin
  2
*U23
 70
               1
 10
0.0
 20
0.0
 30
0.0
  3
*U23
  1

  0
POLYLINE
  5
1C6
100
AcDbEntity
  8
一般
370
               9
  6
Continuous
 62
               7
100
AcDb2dPolyline
 66
               1
 10
0.0
 20
0.0
 30
0.0
 70
               1
 75
               5
  0
VERTEX
  5
1C7
100
AcDbEntity
  8
一般
370
               9
  6
Continuous
 62
               7
100
AcDbVertex
100
AcDb2dVertex
 10
17.612999999999943
 20
228.31691709357733
 30
0.0
  0
VERTEX
  5
1C8
100
AcDbEntity
  8
一般
370
               9
  6
Continuous
 62
               7
100
AcDbVertex
100
AcDb2dVertex
 10
30.631999999999948
 20
228.31691709357733
 30
0.0
  0
VERTEX
  5
1C9
100
AcDbEntity
  8
一般
370
               9
  6
Continuous
 62
               7
100
AcDbVertex
100
AcDb2dVertex
 10
30.631999999999948
 20
206.12054564774834
 30
0.0
  0
VERTEX
  5
1CA
100
AcDbEntity
  8
一般
370
               9
  6
Continuous
 62
               7
100
AcDbVertex
100
AcDb2dVertex
 10
17.612999999999943
 20
206.12054564774834
 30
0.0
  0
SEQEND
  5
1CB
100
AcDbEntity
  8
一般
370
               9
  6
Continuous
 62
               7
  0
POLYLINE
  5
1CC
100
AcDbEntity
  8
一般
370
               9
  6
Continuous
 62
               7
100
AcDb2dPolyline
 66
               1
 10
0.0
 20
0.0
 30
0.0
 70
               1
 75
               5
  0
VERTEX
  5
1CD
100
AcDbEntity
  8
一般
370
               9
  6
Continuous
 62
               7
100
AcDbVertex
100
AcDb2dVertex
 10
19.799999999999955
 20
224.53910451667747
 30
0.0
  0
VERTEX
  5
1CE
100
AcDbEntity
  8
一般
370
               9
  6
Continuous
 62
               7
100
AcDbVertex
100
AcDb2dVertex
 10
28.444999999999936
 20
224.53910451667747
 30
0.0
  0
VERTEX
  5
1CF
100
AcDbEntity
  8
一般
370
               9
  6
Continuous
 62
               7
100
AcDbVertex
100
AcDb2dVertex
 10
28.444999999999936
 20
221.61075839466673
 30
0.0
  0
VERTEX
  5
1D0
100
AcDbEntity
  8
一般
370
               9
  6
Continuous
 62
               7
100
AcDbVertex
100
AcDb2dVertex
 10
19.799999999999955
 20
221.61075839466673
 30
0.0
  0
SEQEND
  5
1D1
100
AcDbEntity
  8
一般
370
               9
  6
Continuous
 62
               7
  0
POLYLINE
  5
1D2
100
AcDbEntity
  8
一般
370
               9
  6
Continuous
 62
               7
100
AcDb2dPolyline
 66
               1
 10
0.0
 20
0.0
 30
0.0
 70
               1
 75
               5
  0
VERTEX
  5
1D3
100
AcDbEntity
  8
一般
370
               9
  6
Continuous
 62
               7
100
AcDbVertex
100
AcDb2dVertex
 10
19.799999999999955
 20
212.82670434665889
 30
0.0
  0
VERTEX
  5
1D4
100
AcDbEntity
  8
一般
370
               9
  6
Continuous
 62
               7
100
AcDbVertex
100
AcDb2dVertex
 10
28.444999999999936
 20
212.82670434665889
 30
0.0
  0
VERTEX
  5
1D5
100
AcDbEntity
  8
一般
370
               9
  6
Continuous
 62
               7
100
AcDbVertex
100
AcDb2dVertex
 10
28.444999999999936
 20
209.89835822464815
 30
0.0
  0
VERTEX
  5
1D6
100
AcDbEntity
  8
一般
370
               9
  6
Continuous
 62
               7
100
AcDbVertex
100
AcDb2dVertex
 10
19.799999999999955
 20
209.89835822464815
 30
0.0
  0
SEQEND
  5
1D7
100
AcDbEntity
  8
一般
370
               9
  6
Continuous
 62
               7
  0
ENDBLK
  5
1D8
100
AcDbEntity
  8
一般
100
AcDbBlockEnd
  0
BLOCK
  5
1D9
100
AcDbEntity
  8
一般
100
AcDbBlockBegin
  2
*U24
 70
               1
 10
0.0
 20
0.0
 30
0.0
  3
*U24
  1

  0
POLYLINE
  5
1DA
100
AcDbEntity
  8
一般
370
               9
  6
Continuous
 62
               7
100
AcDb2dPolyline
 66
               1
 10
0.0
 20
0.0
 30
0.0
 70
               1
 75
               5
  0
VERTEX
  5
1DB
100
AcDbEntity
  8
一般
370
               9
  6
Continuous
 62
               7
100
AcDbVertex
100
AcDb2dVertex
 10
-1.0869999999999891
 20
228.31691709357733
 30
0.0
  0
VERTEX
  5
1DC
100
AcDbEntity
  8
一般
370
               9
  6
Continuous
 62
               7
100
AcDbVertex
100
AcDb2dVertex
 10
11.932000000000016
 20
228.31691709357733
 30
0.0
  0
VERTEX
  5
1DD
100
AcDbEntity
  8
一般
370
               9
  6
Continuous
 62
               7
100
AcDbVertex
100
AcDb2dVertex
 10
11.932000000000016
 20
206.12054564774834
 30
0.0
  0
VERTEX
  5
1DE
100
AcDbEntity
  8
一般
370
               9
  6
Continuous
 62
               7
100
AcDbVertex
100
AcDb2dVertex
 10
-1.0869999999999891
 20
206.12054564774834
 30
0.0
  0
SEQEND
  5
1DF
100
AcDbEntity
  8
一般
370
               9
  6
Continuous
 62
               7
  0
POLYLINE
  5
1E0
100
AcDbEntity
  8
一般
370
               9
  6
Continuous
 62
               7
100
AcDb2dPolyline
 66
               1
 10
0.0
 20
0.0
 30
0.0
 70
               1
 75
               5
  0
VERTEX
  5
1E1
100
AcDbEntity
  8
一般
370
               9
  6
Continuous
 62
               7
100
AcDbVertex
100
AcDb2dVertex
 10
1.1000000000000227
 20
224.53910451667747
 30
0.0
  0
VERTEX
  5
1E2
100
AcDbEntity
  8
一般
370
               9
  6
Continuous
 62
               7
100
AcDbVertex
100
AcDb2dVertex
 10
9.7450000000000045
 20
224.53910451667747
 30
0.0
  0
VERTEX
  5
1E3
100
AcDbEntity
  8
一般
370
               9
  6
Continuous
 62
               7
100
AcDbVertex
100
AcDb2dVertex
 10
9.7450000000000045
 20
221.61075839466673
 30
0.0
  0
VERTEX
  5
1E4
100
AcDbEntity
  8
一般
370
               9
  6
Continuous
 62
               7
100
AcDbVertex
100
AcDb2dVertex
 10
1.1000000000000227
 20
221.61075839466673
 30
0.0
  0
SEQEND
  5
1E5
100
AcDbEntity
  8
一般
370
               9
  6
Continuous
 62
               7
  0
POLYLINE
  5
1E6
100
AcDbEntity
  8
一般
370
               9
  6
Continuous
 62
               7
100
AcDb2dPolyline
 66
               1
 10
0.0
 20
0.0
 30
0.0
 70
               1
 75
               5
  0
VERTEX
  5
1E7
100
AcDbEntity
  8
一般
370
               9
  6
Continuous
 62
               7
100
AcDbVertex
100
AcDb2dVertex
 10
1.1000000000000227
 20
212.82670434665889
 30
0.0
  0
VERTEX
  5
1E8
100
AcDbEntity
  8
一般
370
               9
  6
Continuous
 62
               7
100
AcDbVertex
100
AcDb2dVertex
 10
9.7450000000000045
 20
212.82670434665889
 30
0.0
  0
VERTEX
  5
1E9
100
AcDbEntity
  8
一般
370
               9
  6
Continuous
 62
               7
100
AcDbVertex
100
AcDb2dVertex
 10
9.7450000000000045
 20
209.89835822464815
 30
0.0
  0
VERTEX
  5
1EA
100
AcDbEntity
  8
一般
370
               9
  6
Continuous
 62
               7
100
AcDbVertex
100
AcDb2dVertex
 10
1.1000000000000227
 20
209.89835822464815
 30
0.0
  0
SEQEND
  5
1EB
100
AcDbEntity
  8
一般
370
               9
  6
Continuous
 62
               7
  0
ENDBLK
  5
1EC
100
AcDbEntity
  8
一般
100
AcDbBlockEnd
  0
BLOCK
  5
1ED
100
AcDbEntity
  8
一般
100
AcDbBlockBegin
  2
*U25
 70
               1
 10
0.0
 20
0.0
 30
0.0
  3
*U25
  1

  0
POLYLINE
  5
1EE
100
AcDbEntity
  8
一般
370
               9
  6
Continuous
 62
               7
100
AcDb2dPolyline
 66
               1
 10
0.0
 20
0.0
 30
0.0
 70
               1
 75
               5
  0
VERTEX
  5
1EF
100
AcDbEntity
  8
一般
370
               9
  6
Continuous
 62
               7
100
AcDbVertex
100
AcDb2dVertex
 10
-19.787000000000035
 20
228.31691709357733
 30
0.0
  0
VERTEX
  5
1F0
100
AcDbEntity
  8
一般
370
               9
  6
Continuous
 62
               7
100
AcDbVertex
100
AcDb2dVertex
 10
-6.7680000000000291
 20
228.31691709357733
 30
0.0
  0
VERTEX
  5
1F1
100
AcDbEntity
  8
一般
370
               9
  6
Continuous
 62
               7
100
AcDbVertex
100
AcDb2dVertex
 10
-6.7680000000000291
 20
206.12054564774834
 30
0.0
  0
VERTEX
  5
1F2
100
AcDbEntity
  8
一般
370
               9
  6
Continuous
 62
               7
100
AcDbVertex
100
AcDb2dVertex
 10
-19.787000000000035
 20
206.12054564774834
 30
0.0
  0
SEQEND
  5
1F3
100
AcDbEntity
  8
一般
370
               9
  6
Continuous
 62
               7
  0
POLYLINE
  5
1F4
100
AcDbEntity
  8
一般
370
               9
  6
Continuous
 62
               7
100
AcDb2dPolyline
 66
               1
 10
0.0
 20
0.0
 30
0.0
 70
               1
 75
               5
  0
VERTEX
  5
1F5
100
AcDbEntity
  8
一般
370
               9
  6
Continuous
 62
               7
100
AcDbVertex
100
AcDb2dVertex
 10
-17.600000000000023
 20
224.53910451667747
 30
0.0
  0
VERTEX
  5
1F6
100
AcDbEntity
  8
一般
370
               9
  6
Continuous
 62
               7
100
AcDbVertex
100
AcDb2dVertex
 10
-8.9550000000000409
 20
224.53910451667747
 30
0.0
  0
VERTEX
  5
1F7
100
AcDbEntity
  8
一般
370
               9
  6
Continuous
 62
               7
100
AcDbVertex
100
AcDb2dVertex
 10
-8.9550000000000409
 20
221.61075839466673
 30
0.0
  0
VERTEX
  5
1F8
100
AcDbEntity
  8
一般
370
               9
  6
Continuous
 62
               7
100
AcDbVertex
100
AcDb2dVertex
 10
-17.600000000000023
 20
221.61075839466673
 30
0.0
  0
SEQEND
  5
1F9
100
AcDbEntity
  8
一般
370
               9
  6
Continuous
 62
               7
  0
POLYLINE
  5
1FA
100
AcDbEntity
  8
一般
370
               9
  6
Continuous
 62
               7
100
AcDb2dPolyline
 66
               1
 10
0.0
 20
0.0
 30
0.0
 70
               1
 75
               5
  0
VERTEX
  5
1FB
100
AcDbEntity
  8
一般
370
               9
  6
Continuous
 62
               7
100
AcDbVertex
100
AcDb2dVertex
 10
-17.600000000000023
 20
212.82670434665889
 30
0.0
  0
VERTEX
  5
1FC
100
AcDbEntity
  8
一般
370
               9
  6
Continuous
 62
               7
100
AcDbVertex
100
AcDb2dVertex
 10
-8.9550000000000409
 20
212.82670434665889
 30
0.0
  0
VERTEX
  5
1FD
100
AcDbEntity
  8
一般
370
               9
  6
Continuous
 62
               7
100
AcDbVertex
100
AcDb2dVertex
 10
-8.9550000000000409
 20
209.89835822464815
 30
0.0
  0
VERTEX
  5
1FE
100
AcDbEntity
  8
一般
370
               9
  6
Continuous
 62
               7
100
AcDbVertex
100
AcDb2dVertex
 10
-17.600000000000023
 20
209.89835822464815
 30
0.0
  0
SEQEND
  5
1FF
100
AcDbEntity
  8
一般
370
               9
  6
Continuous
 62
               7
  0
ENDBLK
  5
200
100
AcDbEntity
  8
一般
100
AcDbBlockEnd
  0
BLOCK
  5
201
100
AcDbEntity
  8
一般
100
AcDbBlockBegin
  2
*U26
 70
               1
 10
0.0
 20
0.0
 30
0.0
  3
*U26
  1

  0
POLYLINE
  5
202
100
AcDbEntity
  8
一般
370
               9
  6
Continuous
 62
               7
100
AcDb2dPolyline
 66
               1
 10
0.0
 20
0.0
 30
0.0
 70
               1
 75
               5
  0
VERTEX
  5
203
100
AcDbEntity
  8
一般
370
               9
  6
Continuous
 62
               7
100
AcDbVertex
100
AcDb2dVertex
 10
-38.48700000000008
 20
228.31691709357733
 30
0.0
  0
VERTEX
  5
204
100
AcDbEntity
  8
一般
370
               9
  6
Continuous
 62
               7
100
AcDbVertex
100
AcDb2dVertex
 10
-25.468000000000131
 20
228.31691709357733
 30
0.0
  0
VERTEX
  5
205
100
AcDbEntity
  8
一般
370
               9
  6
Continuous
 62
               7
100
AcDbVertex
100
AcDb2dVertex
 10
-25.468000000000131
 20
206.12054564774834
 30
0.0
  0
VERTEX
  5
206
100
AcDbEntity
  8
一般
370
               9
  6
Continuous
 62
               7
100
AcDbVertex
100
AcDb2dVertex
 10
-38.48700000000008
 20
206.12054564774834
 30
0.0
  0
SEQEND
  5
207
100
AcDbEntity
  8
一般
370
               9
  6
Continuous
 62
               7
  0
POLYLINE
  5
208
100
AcDbEntity
  8
一般
370
               9
  6
Continuous
 62
               7
100
AcDb2dPolyline
 66
               1
 10
0.0
 20
0.0
 30
0.0
 70
               1
 75
               5
  0
VERTEX
  5
209
100
AcDbEntity
  8
一般
370
               9
  6
Continuous
 62
               7
100
AcDbVertex
100
AcDb2dVertex
 10
-36.300000000000125
 20
224.53910451667747
 30
0.0
  0
VERTEX
  5
20A
100
AcDbEntity
  8
一般
370
               9
  6
Continuous
 62
               7
100
AcDbVertex
100
AcDb2dVertex
 10
-27.655000000000086
 20
224.53910451667747
 30
0.0
  0
VERTEX
  5
20B
100
AcDbEntity
  8
一般
370
               9
  6
Continuous
 62
               7
100
AcDbVertex
100
AcDb2dVertex
 10
-27.655000000000086
 20
221.61075839466673
 30
0.0
  0
VERTEX
  5
20C
100
AcDbEntity
  8
一般
370
               9
  6
Continuous
 62
               7
100
AcDbVertex
100
AcDb2dVertex
 10
-36.300000000000125
 20
221.61075839466673
 30
0.0
  0
SEQEND
  5
20D
100
AcDbEntity
  8
一般
370
               9
  6
Continuous
 62
               7
  0
POLYLINE
  5
20E
100
AcDbEntity
  8
一般
370
               9
  6
Continuous
 62
               7
100
AcDb2dPolyline
 66
               1
 10
0.0
 20
0.0
 30
0.0
 70
               1
 75
               5
  0
VERTEX
  5
20F
100
AcDbEntity
  8
一般
370
               9
  6
Continuous
 62
               7
100
AcDbVertex
100
AcDb2dVertex
 10
-36.300000000000125
 20
212.82670434665889
 30
0.0
  0
VERTEX
  5
210
100
AcDbEntity
  8
一般
370
               9
  6
Continuous
 62
               7
100
AcDbVertex
100
AcDb2dVertex
 10
-27.655000000000086
 20
212.82670434665889
 30
0.0
  0
VERTEX
  5
211
100
AcDbEntity
  8
一般
370
               9
  6
Continuous
 62
               7
100
AcDbVertex
100
AcDb2dVertex
 10
-27.655000000000086
 20
209.89835822464815
 30
0.0
  0
VERTEX
  5
212
100
AcDbEntity
  8
一般
370
               9
  6
Continuous
 62
               7
100
AcDbVertex
100
AcDb2dVertex
 10
-36.300000000000125
 20
209.89835822464815
 30
0.0
  0
SEQEND
  5
213
100
AcDbEntity
  8
一般
370
               9
  6
Continuous
 62
               7
  0
ENDBLK
  5
214
100
AcDbEntity
  8
一般
100
AcDbBlockEnd
  0
BLOCK
  5
215
100
AcDbEntity
  8
一般
100
AcDbBlockBegin
  2
*U27
 70
               1
 10
0.0
 20
0.0
 30
0.0
  3
*U27
  1

  0
POLYLINE
  5
216
100
AcDbEntity
  8
一般
370
               9
  6
Continuous
 62
               7
100
AcDb2dPolyline
 66
               1
 10
0.0
 20
0.0
 30
0.0
 70
               1
 75
               5
  0
VERTEX
  5
217
100
AcDbEntity
  8
一般
370
               9
  6
Continuous
 62
               7
100
AcDbVertex
100
AcDb2dVertex
 10
-57.187000000000012
 20
228.31691709357733
 30
0.0
  0
VERTEX
  5
218
100
AcDbEntity
  8
一般
370
               9
  6
Continuous
 62
               7
100
AcDbVertex
100
AcDb2dVertex
 10
-44.168000000000006
 20
228.31691709357733
 30
0.0
  0
VERTEX
  5
219
100
AcDbEntity
  8
一般
370
               9
  6
Continuous
 62
               7
100
AcDbVertex
100
AcDb2dVertex
 10
-44.168000000000006
 20
206.12054564774834
 30
0.0
  0
VERTEX
  5
21A
100
AcDbEntity
  8
一般
370
               9
  6
Continuous
 62
               7
100
AcDbVertex
100
AcDb2dVertex
 10
-57.187000000000012
 20
206.12054564774834
 30
0.0
  0
SEQEND
  5
21B
100
AcDbEntity
  8
一般
370
               9
  6
Continuous
 62
               7
  0
POLYLINE
  5
21C
100
AcDbEntity
  8
一般
370
               9
  6
Continuous
 62
               7
100
AcDb2dPolyline
 66
               1
 10
0.0
 20
0.0
 30
0.0
 70
               1
 75
               5
  0
VERTEX
  5
21D
100
AcDbEntity
  8
一般
370
               9
  6
Continuous
 62
               7
100
AcDbVertex
100
AcDb2dVertex
 10
-55.0
 20
224.53910451667747
 30
0.0
  0
VERTEX
  5
21E
100
AcDbEntity
  8
一般
370
               9
  6
Continuous
 62
               7
100
AcDbVertex
100
AcDb2dVertex
 10
-46.355000000000018
 20
224.53910451667747
 30
0.0
  0
VERTEX
  5
21F
100
AcDbEntity
  8
一般
370
               9
  6
Continuous
 62
               7
100
AcDbVertex
100
AcDb2dVertex
 10
-46.355000000000018
 20
221.61075839466673
 30
0.0
  0
VERTEX
  5
220
100
AcDbEntity
  8
一般
370
               9
  6
Continuous
 62
               7
100
AcDbVertex
100
AcDb2dVertex
 10
-55.0
 20
221.61075839466673
 30
0.0
  0
SEQEND
  5
221
100
AcDbEntity
  8
一般
370
               9
  6
Continuous
 62
               7
  0
POLYLINE
  5
222
100
AcDbEntity
  8
一般
370
               9
  6
Continuous
 62
               7
100
AcDb2dPolyline
 66
               1
 10
0.0
 20
0.0
 30
0.0
 70
               1
 75
               5
  0
VERTEX
  5
223
100
AcDbEntity
  8
一般
370
               9
  6
Continuous
 62
               7
100
AcDbVertex
100
AcDb2dVertex
 10
-55.0
 20
212.82670434665889
 30
0.0
  0
VERTEX
  5
224
100
AcDbEntity
  8
一般
370
               9
  6
Continuous
 62
               7
100
AcDbVertex
100
AcDb2dVertex
 10
-46.355000000000018
 20
212.82670434665889
 30
0.0
  0
VERTEX
  5
225
100
AcDbEntity
  8
一般
370
               9
  6
Continuous
 62
               7
100
AcDbVertex
100
AcDb2dVertex
 10
-46.355000000000018
 20
209.89835822464815
 30
0.0
  0
VERTEX
  5
226
100
AcDbEntity
  8
一般
370
               9
  6
Continuous
 62
               7
100
AcDbVertex
100
AcDb2dVertex
 10
-55.0
 20
209.89835822464815
 30
0.0
  0
SEQEND
  5
227
100
AcDbEntity
  8
一般
370
               9
  6
Continuous
 62
               7
  0
ENDBLK
  5
228
100
AcDbEntity
  8
一般
100
AcDbBlockEnd
  0
BLOCK
  5
229
100
AcDbEntity
  8
一般
100
AcDbBlockBegin
  2
*U28
 70
               1
 10
0.0
 20
0.0
 30
0.0
  3
*U28
  1

  0
POLYLINE
  5
22A
100
AcDbEntity
  8
一般
370
               9
  6
Continuous
 62
               7
100
AcDb2dPolyline
 66
               1
 10
0.0
 20
0.0
 30
0.0
 70
               1
 75
               5
  0
VERTEX
  5
22B
100
AcDbEntity
  8
一般
370
               9
  6
Continuous
 62
               7
100
AcDbVertex
100
AcDb2dVertex
 10
-75.887
 20
228.31691709357733
 30
0.0
  0
VERTEX
  5
22C
100
AcDbEntity
  8
一般
370
               9
  6
Continuous
 62
               7
100
AcDbVertex
100
AcDb2dVertex
 10
-62.868000000000052
 20
228.31691709357733
 30
0.0
  0
VERTEX
  5
22D
100
AcDbEntity
  8
一般
370
               9
  6
Continuous
 62
               7
100
AcDbVertex
100
AcDb2dVertex
 10
-62.868000000000052
 20
206.12054564774834
 30
0.0
  0
VERTEX
  5
22E
100
AcDbEntity
  8
一般
370
               9
  6
Continuous
 62
               7
100
AcDbVertex
100
AcDb2dVertex
 10
-75.887
 20
206.12054564774834
 30
0.0
  0
SEQEND
  5
22F
100
AcDbEntity
  8
一般
370
               9
  6
Continuous
 62
               7
  0
POLYLINE
  5
230
100
AcDbEntity
  8
一般
370
               9
  6
Continuous
 62
               7
100
AcDb2dPolyline
 66
               1
 10
0.0
 20
0.0
 30
0.0
 70
               1
 75
               5
  0
VERTEX
  5
231
100
AcDbEntity
  8
一般
370
               9
  6
Continuous
 62
               7
100
AcDbVertex
100
AcDb2dVertex
 10
-73.699999999999989
 20
224.53910451667747
 30
0.0
  0
VERTEX
  5
232
100
AcDbEntity
  8
一般
370
               9
  6
Continuous
 62
               7
100
AcDbVertex
100
AcDb2dVertex
 10
-65.055000000000007
 20
224.53910451667747
 30
0.0
  0
VERTEX
  5
233
100
AcDbEntity
  8
一般
370
               9
  6
Continuous
 62
               7
100
AcDbVertex
100
AcDb2dVertex
 10
-65.055000000000007
 20
221.61075839466673
 30
0.0
  0
VERTEX
  5
234
100
AcDbEntity
  8
一般
370
               9
  6
Continuous
 62
               7
100
AcDbVertex
100
AcDb2dVertex
 10
-73.699999999999989
 20
221.61075839466673
 30
0.0
  0
SEQEND
  5
235
100
AcDbEntity
  8
一般
370
               9
  6
Continuous
 62
               7
  0
POLYLINE
  5
236
100
AcDbEntity
  8
一般
370
               9
  6
Continuous
 62
               7
100
AcDb2dPolyline
 66
               1
 10
0.0
 20
0.0
 30
0.0
 70
               1
 75
               5
  0
VERTEX
  5
237
100
AcDbEntity
  8
一般
370
               9
  6
Continuous
 62
               7
100
AcDbVertex
100
AcDb2dVertex
 10
-73.699999999999989
 20
212.82670434665889
 30
0.0
  0
VERTEX
  5
238
100
AcDbEntity
  8
一般
370
               9
  6
Continuous
 62
               7
100
AcDbVertex
100
AcDb2dVertex
 10
-65.055000000000007
 20
212.82670434665889
 30
0.0
  0
VERTEX
  5
239
100
AcDbEntity
  8
一般
370
               9
  6
Continuous
 62
               7
100
AcDbVertex
100
AcDb2dVertex
 10
-65.055000000000007
 20
209.89835822464815
 30
0.0
  0
VERTEX
  5
23A
100
AcDbEntity
  8
一般
370
               9
  6
Continuous
 62
               7
100
AcDbVertex
100
AcDb2dVertex
 10
-73.699999999999989
 20
209.89835822464815
 30
0.0
  0
SEQEND
  5
23B
100
AcDbEntity
  8
一般
370
               9
  6
Continuous
 62
               7
  0
ENDBLK
  5
23C
100
AcDbEntity
  8
一般
100
AcDbBlockEnd
  0
BLOCK
  5
23D
100
AcDbEntity
  8
一般
100
AcDbBlockBegin
  2
*U29
 70
               1
 10
0.0
 20
0.0
 30
0.0
  3
*U29
  1

  0
POLYLINE
  5
23E
100
AcDbEntity
  8
一般
370
               9
  6
Continuous
 62
               7
100
AcDb2dPolyline
 66
               1
 10
0.0
 20
0.0
 30
0.0
 70
               1
 75
               5
  0
VERTEX
  5
23F
100
AcDbEntity
  8
一般
370
               9
  6
Continuous
 62
               7
100
AcDbVertex
100
AcDb2dVertex
 10
-94.587000000000046
 20
228.31691709357733
 30
0.0
  0
VERTEX
  5
240
100
AcDbEntity
  8
一般
370
               9
  6
Continuous
 62
               7
100
AcDbVertex
100
AcDb2dVertex
 10
-81.56800000000004
 20
228.31691709357733
 30
0.0
  0
VERTEX
  5
241
100
AcDbEntity
  8
一般
370
               9
  6
Continuous
 62
               7
100
AcDbVertex
100
AcDb2dVertex
 10
-81.56800000000004
 20
206.12054564774834
 30
0.0
  0
VERTEX
  5
242
100
AcDbEntity
  8
一般
370
               9
  6
Continuous
 62
               7
100
AcDbVertex
100
AcDb2dVertex
 10
-94.587000000000046
 20
206.12054564774834
 30
0.0
  0
SEQEND
  5
243
100
AcDbEntity
  8
一般
370
               9
  6
Continuous
 62
               7
  0
POLYLINE
  5
244
100
AcDbEntity
  8
一般
370
               9
  6
Continuous
 62
               7
100
AcDb2dPolyline
 66
               1
 10
0.0
 20
0.0
 30
0.0
 70
               1
 75
               5
  0
VERTEX
  5
245
100
AcDbEntity
  8
一般
370
               9
  6
Continuous
 62
               7
100
AcDbVertex
100
AcDb2dVertex
 10
-92.400000000000034
 20
224.53910451667747
 30
0.0
  0
VERTEX
  5
246
100
AcDbEntity
  8
一般
370
               9
  6
Continuous
 62
               7
100
AcDbVertex
100
AcDb2dVertex
 10
-83.755000000000052
 20
224.53910451667747
 30
0.0
  0
VERTEX
  5
247
100
AcDbEntity
  8
一般
370
               9
  6
Continuous
 62
               7
100
AcDbVertex
100
AcDb2dVertex
 10
-83.755000000000052
 20
221.61075839466673
 30
0.0
  0
VERTEX
  5
248
100
AcDbEntity
  8
一般
370
               9
  6
Continuous
 62
               7
100
AcDbVertex
100
AcDb2dVertex
 10
-92.400000000000034
 20
221.61075839466673
 30
0.0
  0
SEQEND
  5
249
100
AcDbEntity
  8
一般
370
               9
  6
Continuous
 62
               7
  0
POLYLINE
  5
24A
100
AcDbEntity
  8
一般
370
               9
  6
Continuous
 62
               7
100
AcDb2dPolyline
 66
               1
 10
0.0
 20
0.0
 30
0.0
 70
               1
 75
               5
  0
VERTEX
  5
24B
100
AcDbEntity
  8
一般
370
               9
  6
Continuous
 62
               7
100
AcDbVertex
100
AcDb2dVertex
 10
-92.400000000000034
 20
212.82670434665889
 30
0.0
  0
VERTEX
  5
24C
100
AcDbEntity
  8
一般
370
               9
  6
Continuous
 62
               7
100
AcDbVertex
100
AcDb2dVertex
 10
-83.755000000000052
 20
212.82670434665889
 30
0.0
  0
VERTEX
  5
24D
100
AcDbEntity
  8
一般
370
               9
  6
Continuous
 62
               7
100
AcDbVertex
100
AcDb2dVertex
 10
-83.755000000000052
 20
209.89835822464815
 30
0.0
  0
VERTEX
  5
24E
100
AcDbEntity
  8
一般
370
               9
  6
Continuous
 62
               7
100
AcDbVertex
100
AcDb2dVertex
 10
-92.400000000000034
 20
209.89835822464815
 30
0.0
  0
SEQEND
  5
24F
100
AcDbEntity
  8
一般
370
               9
  6
Continuous
 62
               7
  0
ENDBLK
  5
250
100
AcDbEntity
  8
一般
100
AcDbBlockEnd
  0
BLOCK
  5
251
100
AcDbEntity
  8
一般
100
AcDbBlockBegin
  2
*U30
 70
               1
 10
0.0
 20
0.0
 30
0.0
  3
*U30
  1

  0
POLYLINE
  5
252
100
AcDbEntity
  8
一般
370
               9
  6
Continuous
 62
               7
100
AcDb2dPolyline
 66
               1
 10
0.0
 20
0.0
 30
0.0
 70
               1
 75
               5
  0
VERTEX
  5
253
100
AcDbEntity
  8
一般
370
               9
  6
Continuous
 62
               7
100
AcDbVertex
100
AcDb2dVertex
 10
-113.28700000000003
 20
228.31691709357733
 30
0.0
  0
VERTEX
  5
254
100
AcDbEntity
  8
一般
370
               9
  6
Continuous
 62
               7
100
AcDbVertex
100
AcDb2dVertex
 10
-100.26800000000003
 20
228.31691709357733
 30
0.0
  0
VERTEX
  5
255
100
AcDbEntity
  8
一般
370
               9
  6
Continuous
 62
               7
100
AcDbVertex
100
AcDb2dVertex
 10
-100.26800000000003
 20
206.12054564774834
 30
0.0
  0
VERTEX
  5
256
100
AcDbEntity
  8
一般
370
               9
  6
Continuous
 62
               7
100
AcDbVertex
100
AcDb2dVertex
 10
-113.28700000000003
 20
206.12054564774834
 30
0.0
  0
SEQEND
  5
257
100
AcDbEntity
  8
一般
370
               9
  6
Continuous
 62
               7
  0
POLYLINE
  5
258
100
AcDbEntity
  8
一般
370
               9
  6
Continuous
 62
               7
100
AcDb2dPolyline
 66
               1
 10
0.0
 20
0.0
 30
0.0
 70
               1
 75
               5
  0
VERTEX
  5
259
100
AcDbEntity
  8
一般
370
               9
  6
Continuous
 62
               7
100
AcDbVertex
100
AcDb2dVertex
 10
-111.10000000000002
 20
224.53910451667747
 30
0.0
  0
VERTEX
  5
25A
100
AcDbEntity
  8
一般
370
               9
  6
Continuous
 62
               7
100
AcDbVertex
100
AcDb2dVertex
 10
-102.45500000000004
 20
224.53910451667747
 30
0.0
  0
VERTEX
  5
25B
100
AcDbEntity
  8
一般
370
               9
  6
Continuous
 62
               7
100
AcDbVertex
100
AcDb2dVertex
 10
-102.45500000000004
 20
221.61075839466673
 30
0.0
  0
VERTEX
  5
25C
100
AcDbEntity
  8
一般
370
               9
  6
Continuous
 62
               7
100
AcDbVertex
100
AcDb2dVertex
 10
-111.10000000000002
 20
221.61075839466673
 30
0.0
  0
SEQEND
  5
25D
100
AcDbEntity
  8
一般
370
               9
  6
Continuous
 62
               7
  0
POLYLINE
  5
25E
100
AcDbEntity
  8
一般
370
               9
  6
Continuous
 62
               7
100
AcDb2dPolyline
 66
               1
 10
0.0
 20
0.0
 30
0.0
 70
               1
 75
               5
  0
VERTEX
  5
25F
100
AcDbEntity
  8
一般
370
               9
  6
Continuous
 62
               7
100
AcDbVertex
100
AcDb2dVertex
 10
-111.10000000000002
 20
212.82670434665889
 30
0.0
  0
VERTEX
  5
260
100
AcDbEntity
  8
一般
370
               9
  6
Continuous
 62
               7
100
AcDbVertex
100
AcDb2dVertex
 10
-102.45500000000004
 20
212.82670434665889
 30
0.0
  0
VERTEX
  5
261
100
AcDbEntity
  8
一般
370
               9
  6
Continuous
 62
               7
100
AcDbVertex
100
AcDb2dVertex
 10
-102.45500000000004
 20
209.89835822464815
 30
0.0
  0
VERTEX
  5
262
100
AcDbEntity
  8
一般
370
               9
  6
Continuous
 62
               7
100
AcDbVertex
100
AcDb2dVertex
 10
-111.10000000000002
 20
209.89835822464815
 30
0.0
  0
SEQEND
  5
263
100
AcDbEntity
  8
一般
370
               9
  6
Continuous
 62
               7
  0
ENDBLK
  5
264
100
AcDbEntity
  8
一般
100
AcDbBlockEnd
  0
BLOCK
  5
265
100
AcDbEntity
  8
一般
100
AcDbBlockBegin
  2
*U31
 70
               1
 10
0.0
 20
0.0
 30
0.0
  3
*U31
  1

  0
POLYLINE
  5
266
100
AcDbEntity
  8
一般
370
               9
  6
Continuous
 62
               7
100
AcDb2dPolyline
 66
               1
 10
0.0
 20
0.0
 30
0.0
 70
               1
 75
               5
  0
VERTEX
  5
267
100
AcDbEntity
  8
一般
370
               9
  6
Continuous
 62
               7
100
AcDbVertex
100
AcDb2dVertex
 10
-131.98700000000002
 20
228.31691709357733
 30
0.0
  0
VERTEX
  5
268
100
AcDbEntity
  8
一般
370
               9
  6
Continuous
 62
               7
100
AcDbVertex
100
AcDb2dVertex
 10
-118.96800000000002
 20
228.31691709357733
 30
0.0
  0
VERTEX
  5
269
100
AcDbEntity
  8
一般
370
               9
  6
Continuous
 62
               7
100
AcDbVertex
100
AcDb2dVertex
 10
-118.96800000000002
 20
206.12054564774834
 30
0.0
  0
VERTEX
  5
26A
100
AcDbEntity
  8
一般
370
               9
  6
Continuous
 62
               7
100
AcDbVertex
100
AcDb2dVertex
 10
-131.98700000000002
 20
206.12054564774834
 30
0.0
  0
SEQEND
  5
26B
100
AcDbEntity
  8
一般
370
               9
  6
Continuous
 62
               7
  0
POLYLINE
  5
26C
100
AcDbEntity
  8
一般
370
               9
  6
Continuous
 62
               7
100
AcDb2dPolyline
 66
               1
 10
0.0
 20
0.0
 30
0.0
 70
               1
 75
               5
  0
VERTEX
  5
26D
100
AcDbEntity
  8
一般
370
               9
  6
Continuous
 62
               7
100
AcDbVertex
100
AcDb2dVertex
 10
-129.80000000000001
 20
224.53910451667747
 30
0.0
  0
VERTEX
  5
26E
100
AcDbEntity
  8
一般
370
               9
  6
Continuous
 62
               7
100
AcDbVertex
100
AcDb2dVertex
 10
-121.15500000000003
 20
224.53910451667747
 30
0.0
  0
VERTEX
  5
26F
100
AcDbEntity
  8
一般
370
               9
  6
Continuous
 62
               7
100
AcDbVertex
100
AcDb2dVertex
 10
-121.15500000000003
 20
221.61075839466673
 30
0.0
  0
VERTEX
  5
270
100
AcDbEntity
  8
一般
370
               9
  6
Continuous
 62
               7
100
AcDbVertex
100
AcDb2dVertex
 10
-129.80000000000001
 20
221.61075839466673
 30
0.0
  0
SEQEND
  5
271
100
AcDbEntity
  8
一般
370
               9
  6
Continuous
 62
               7
  0
POLYLINE
  5
272
100
AcDbEntity
  8
一般
370
               9
  6
Continuous
 62
               7
100
AcDb2dPolyline
 66
               1
 10
0.0
 20
0.0
 30
0.0
 70
               1
 75
               5
  0
VERTEX
  5
273
100
AcDbEntity
  8
一般
370
               9
  6
Continuous
 62
               7
100
AcDbVertex
100
AcDb2dVertex
 10
-129.80000000000001
 20
212.82670434665889
 30
0.0
  0
VERTEX
  5
274
100
AcDbEntity
  8
一般
370
               9
  6
Continuous
 62
               7
100
AcDbVertex
100
AcDb2dVertex
 10
-121.15500000000003
 20
212.82670434665889
 30
0.0
  0
VERTEX
  5
275
100
AcDbEntity
  8
一般
370
               9
  6
Continuous
 62
               7
100
AcDbVertex
100
AcDb2dVertex
 10
-121.15500000000003
 20
209.89835822464815
 30
0.0
  0
VERTEX
  5
276
100
AcDbEntity
  8
一般
370
               9
  6
Continuous
 62
               7
100
AcDbVertex
100
AcDb2dVertex
 10
-129.80000000000001
 20
209.89835822464815
 30
0.0
  0
SEQEND
  5
277
100
AcDbEntity
  8
一般
370
               9
  6
Continuous
 62
               7
  0
ENDBLK
  5
278
100
AcDbEntity
  8
一般
100
AcDbBlockEnd
  0
BLOCK
  5
279
100
AcDbEntity
  8
一般
100
AcDbBlockBegin
  2
*U32
 70
               1
 10
0.0
 20
0.0
 30
0.0
  3
*U32
  1

  0
POLYLINE
  5
27A
100
AcDbEntity
  8
一般
370
               9
  6
Continuous
 62
               7
100
AcDb2dPolyline
 66
               1
 10
0.0
 20
0.0
 30
0.0
 70
               1
 75
               5
  0
VERTEX
  5
27B
100
AcDbEntity
  8
一般
370
               9
  6
Continuous
 62
               7
100
AcDbVertex
100
AcDb2dVertex
 10
-150.68700000000001
 20
228.31691709357733
 30
0.0
  0
VERTEX
  5
27C
100
AcDbEntity
  8
一般
370
               9
  6
Continuous
 62
               7
100
AcDbVertex
100
AcDb2dVertex
 10
-137.66800000000001
 20
228.31691709357733
 30
0.0
  0
VERTEX
  5
27D
100
AcDbEntity
  8
一般
370
               9
  6
Continuous
 62
               7
100
AcDbVertex
100
AcDb2dVertex
 10
-137.66800000000001
 20
206.12054564774834
 30
0.0
  0
VERTEX
  5
27E
100
AcDbEntity
  8
一般
370
               9
  6
Continuous
 62
               7
100
AcDbVertex
100
AcDb2dVertex
 10
-150.68700000000001
 20
206.12054564774834
 30
0.0
  0
SEQEND
  5
27F
100
AcDbEntity
  8
一般
370
               9
  6
Continuous
 62
               7
  0
POLYLINE
  5
280
100
AcDbEntity
  8
一般
370
               9
  6
Continuous
 62
               7
100
AcDb2dPolyline
 66
               1
 10
0.0
 20
0.0
 30
0.0
 70
               1
 75
               5
  0
VERTEX
  5
281
100
AcDbEntity
  8
一般
370
               9
  6
Continuous
 62
               7
100
AcDbVertex
100
AcDb2dVertex
 10
-148.50000000000006
 20
224.53910451667747
 30
0.0
  0
VERTEX
  5
282
100
AcDbEntity
  8
一般
370
               9
  6
Continuous
 62
               7
100
AcDbVertex
100
AcDb2dVertex
 10
-139.85500000000002
 20
224.53910451667747
 30
0.0
  0
VERTEX
  5
283
100
AcDbEntity
  8
一般
370
               9
  6
Continuous
 62
               7
100
AcDbVertex
100
AcDb2dVertex
 10
-139.85500000000002
 20
221.61075839466673
 30
0.0
  0
VERTEX
  5
284
100
AcDbEntity
  8
一般
370
               9
  6
Continuous
 62
               7
100
AcDbVertex
100
AcDb2dVertex
 10
-148.50000000000006
 20
221.61075839466673
 30
0.0
  0
SEQEND
  5
285
100
AcDbEntity
  8
一般
370
               9
  6
Continuous
 62
               7
  0
POLYLINE
  5
286
100
AcDbEntity
  8
一般
370
               9
  6
Continuous
 62
               7
100
AcDb2dPolyline
 66
               1
 10
0.0
 20
0.0
 30
0.0
 70
               1
 75
               5
  0
VERTEX
  5
287
100
AcDbEntity
  8
一般
370
               9
  6
Continuous
 62
               7
100
AcDbVertex
100
AcDb2dVertex
 10
-148.50000000000006
 20
212.82670434665889
 30
0.0
  0
VERTEX
  5
288
100
AcDbEntity
  8
一般
370
               9
  6
Continuous
 62
               7
100
AcDbVertex
100
AcDb2dVertex
 10
-139.85500000000002
 20
212.82670434665889
 30
0.0
  0
VERTEX
  5
289
100
AcDbEntity
  8
一般
370
               9
  6
Continuous
 62
               7
100
AcDbVertex
100
AcDb2dVertex
 10
-139.85500000000002
 20
209.89835822464815
 30
0.0
  0
VERTEX
  5
28A
100
AcDbEntity
  8
一般
370
               9
  6
Continuous
 62
               7
100
AcDbVertex
100
AcDb2dVertex
 10
-148.50000000000006
 20
209.89835822464815
 30
0.0
  0
SEQEND
  5
28B
100
AcDbEntity
  8
一般
370
               9
  6
Continuous
 62
               7
  0
ENDBLK
  5
28C
100
AcDbEntity
  8
一般
100
AcDbBlockEnd
  0
BLOCK
  5
28D
100
AcDbEntity
  8
一般
100
AcDbBlockBegin
  2
*U33
 70
               1
 10
0.0
 20
0.0
 30
0.0
  3
*U33
  1

  0
POLYLINE
  5
28E
100
AcDbEntity
  8
一般
370
               9
  6
Continuous
 62
               7
100
AcDb2dPolyline
 66
               1
 10
0.0
 20
0.0
 30
0.0
 70
               1
 75
               5
  0
VERTEX
  5
28F
100
AcDbEntity
  8
一般
370
               9
  6
Continuous
 62
               7
100
AcDbVertex
100
AcDb2dVertex
 10
-169.38700000000006
 20
228.31691709357733
 30
0.0
  0
VERTEX
  5
290
100
AcDbEntity
  8
一般
370
               9
  6
Continuous
 62
               7
100
AcDbVertex
100
AcDb2dVertex
 10
-156.36800000000005
 20
228.31691709357733
 30
0.0
  0
VERTEX
  5
291
100
AcDbEntity
  8
一般
370
               9
  6
Continuous
 62
               7
100
AcDbVertex
100
AcDb2dVertex
 10
-156.36800000000005
 20
206.12054564774834
 30
0.0
  0
VERTEX
  5
292
100
AcDbEntity
  8
一般
370
               9
  6
Continuous
 62
               7
100
AcDbVertex
100
AcDb2dVertex
 10
-169.38700000000006
 20
206.12054564774834
 30
0.0
  0
SEQEND
  5
293
100
AcDbEntity
  8
一般
370
               9
  6
Continuous
 62
               7
  0
POLYLINE
  5
294
100
AcDbEntity
  8
一般
370
               9
  6
Continuous
 62
               7
100
AcDb2dPolyline
 66
               1
 10
0.0
 20
0.0
 30
0.0
 70
               1
 75
               5
  0
VERTEX
  5
295
100
AcDbEntity
  8
一般
370
               9
  6
Continuous
 62
               7
100
AcDbVertex
100
AcDb2dVertex
 10
-167.20000000000005
 20
224.53910451667747
 30
0.0
  0
VERTEX
  5
296
100
AcDbEntity
  8
一般
370
               9
  6
Continuous
 62
               7
100
AcDbVertex
100
AcDb2dVertex
 10
-158.55500000000001
 20
224.53910451667747
 30
0.0
  0
VERTEX
  5
297
100
AcDbEntity
  8
一般
370
               9
  6
Continuous
 62
               7
100
AcDbVertex
100
AcDb2dVertex
 10
-158.55500000000001
 20
221.61075839466673
 30
0.0
  0
VERTEX
  5
298
100
AcDbEntity
  8
一般
370
               9
  6
Continuous
 62
               7
100
AcDbVertex
100
AcDb2dVertex
 10
-167.20000000000005
 20
221.61075839466673
 30
0.0
  0
SEQEND
  5
299
100
AcDbEntity
  8
一般
370
               9
  6
Continuous
 62
               7
  0
POLYLINE
  5
29A
100
AcDbEntity
  8
一般
370
               9
  6
Continuous
 62
               7
100
AcDb2dPolyline
 66
               1
 10
0.0
 20
0.0
 30
0.0
 70
               1
 75
               5
  0
VERTEX
  5
29B
100
AcDbEntity
  8
一般
370
               9
  6
Continuous
 62
               7
100
AcDbVertex
100
AcDb2dVertex
 10
-167.20000000000005
 20
212.82670434665889
 30
0.0
  0
VERTEX
  5
29C
100
AcDbEntity
  8
一般
370
               9
  6
Continuous
 62
               7
100
AcDbVertex
100
AcDb2dVertex
 10
-158.55500000000001
 20
212.82670434665889
 30
0.0
  0
VERTEX
  5
29D
100
AcDbEntity
  8
一般
370
               9
  6
Continuous
 62
               7
100
AcDbVertex
100
AcDb2dVertex
 10
-158.55500000000001
 20
209.89835822464815
 30
0.0
  0
VERTEX
  5
29E
100
AcDbEntity
  8
一般
370
               9
  6
Continuous
 62
               7
100
AcDbVertex
100
AcDb2dVertex
 10
-167.20000000000005
 20
209.89835822464815
 30
0.0
  0
SEQEND
  5
29F
100
AcDbEntity
  8
一般
370
               9
  6
Continuous
 62
               7
  0
ENDBLK
  5
2A0
100
AcDbEntity
  8
一般
100
AcDbBlockEnd
  0
BLOCK
  5
2A1
100
AcDbEntity
  8
一般
100
AcDbBlockBegin
  2
*U34
 70
               1
 10
0.0
 20
0.0
 30
0.0
  3
*U34
  1

  0
POLYLINE
  5
2A2
100
AcDbEntity
  8
一般
370
               9
  6
Continuous
 62
               7
100
AcDb2dPolyline
 66
               1
 10
0.0
 20
0.0
 30
0.0
 70
               1
 75
               5
  0
VERTEX
  5
2A3
100
AcDbEntity
  8
一般
370
               9
  6
Continuous
 62
               7
100
AcDbVertex
100
AcDb2dVertex
 10
-188.08700000000005
 20
228.31691709357733
 30
0.0
  0
VERTEX
  5
2A4
100
AcDbEntity
  8
一般
370
               9
  6
Continuous
 62
               7
100
AcDbVertex
100
AcDb2dVertex
 10
-175.06800000000004
 20
228.31691709357733
 30
0.0
  0
VERTEX
  5
2A5
100
AcDbEntity
  8
一般
370
               9
  6
Continuous
 62
               7
100
AcDbVertex
100
AcDb2dVertex
 10
-175.06800000000004
 20
206.12054564774834
 30
0.0
  0
VERTEX
  5
2A6
100
AcDbEntity
  8
一般
370
               9
  6
Continuous
 62
               7
100
AcDbVertex
100
AcDb2dVertex
 10
-188.08700000000005
 20
206.12054564774834
 30
0.0
  0
SEQEND
  5
2A7
100
AcDbEntity
  8
一般
370
               9
  6
Continuous
 62
               7
  0
POLYLINE
  5
2A8
100
AcDbEntity
  8
一般
370
               9
  6
Continuous
 62
               7
100
AcDb2dPolyline
 66
               1
 10
0.0
 20
0.0
 30
0.0
 70
               1
 75
               5
  0
VERTEX
  5
2A9
100
AcDbEntity
  8
一般
370
               9
  6
Continuous
 62
               7
100
AcDbVertex
100
AcDb2dVertex
 10
-185.90000000000003
 20
224.53910451667747
 30
0.0
  0
VERTEX
  5
2AA
100
AcDbEntity
  8
一般
370
               9
  6
Continuous
 62
               7
100
AcDbVertex
100
AcDb2dVertex
 10
-177.25500000000005
 20
224.53910451667747
 30
0.0
  0
VERTEX
  5
2AB
100
AcDbEntity
  8
一般
370
               9
  6
Continuous
 62
               7
100
AcDbVertex
100
AcDb2dVertex
 10
-177.25500000000005
 20
221.61075839466673
 30
0.0
  0
VERTEX
  5
2AC
100
AcDbEntity
  8
一般
370
               9
  6
Continuous
 62
               7
100
AcDbVertex
100
AcDb2dVertex
 10
-185.90000000000003
 20
221.61075839466673
 30
0.0
  0
SEQEND
  5
2AD
100
AcDbEntity
  8
一般
370
               9
  6
Continuous
 62
               7
  0
POLYLINE
  5
2AE
100
AcDbEntity
  8
一般
370
               9
  6
Continuous
 62
               7
100
AcDb2dPolyline
 66
               1
 10
0.0
 20
0.0
 30
0.0
 70
               1
 75
               5
  0
VERTEX
  5
2AF
100
AcDbEntity
  8
一般
370
               9
  6
Continuous
 62
               7
100
AcDbVertex
100
AcDb2dVertex
 10
-185.90000000000003
 20
212.82670434665889
 30
0.0
  0
VERTEX
  5
2B0
100
AcDbEntity
  8
一般
370
               9
  6
Continuous
 62
               7
100
AcDbVertex
100
AcDb2dVertex
 10
-177.25500000000005
 20
212.82670434665889
 30
0.0
  0
VERTEX
  5
2B1
100
AcDbEntity
  8
一般
370
               9
  6
Continuous
 62
               7
100
AcDbVertex
100
AcDb2dVertex
 10
-177.25500000000005
 20
209.89835822464815
 30
0.0
  0
VERTEX
  5
2B2
100
AcDbEntity
  8
一般
370
               9
  6
Continuous
 62
               7
100
AcDbVertex
100
AcDb2dVertex
 10
-185.90000000000003
 20
209.89835822464815
 30
0.0
  0
SEQEND
  5
2B3
100
AcDbEntity
  8
一般
370
               9
  6
Continuous
 62
               7
  0
ENDBLK
  5
2B4
100
AcDbEntity
  8
一般
100
AcDbBlockEnd
  0
BLOCK
  5
2B5
100
AcDbEntity
  8
一般
100
AcDbBlockBegin
  2
*U35
 70
               1
 10
0.0
 20
0.0
 30
0.0
  3
*U35
  1

  0
POLYLINE
  5
2B6
100
AcDbEntity
  8
一般
370
               9
  6
Continuous
 62
               7
100
AcDb2dPolyline
 66
               1
 10
0.0
 20
0.0
 30
0.0
 70
               1
 75
               5
  0
VERTEX
  5
2B7
100
AcDbEntity
  8
一般
370
               9
  6
Continuous
 62
               7
100
AcDbVertex
100
AcDb2dVertex
 10
-206.78700000000003
 20
228.31691709357733
 30
0.0
  0
VERTEX
  5
2B8
100
AcDbEntity
  8
一般
370
               9
  6
Continuous
 62
               7
100
AcDbVertex
100
AcDb2dVertex
 10
-193.76800000000003
 20
228.31691709357733
 30
0.0
  0
VERTEX
  5
2B9
100
AcDbEntity
  8
一般
370
               9
  6
Continuous
 62
               7
100
AcDbVertex
100
AcDb2dVertex
 10
-193.76800000000003
 20
206.12054564774834
 30
0.0
  0
VERTEX
  5
2BA
100
AcDbEntity
  8
一般
370
               9
  6
Continuous
 62
               7
100
AcDbVertex
100
AcDb2dVertex
 10
-206.78700000000003
 20
206.12054564774834
 30
0.0
  0
SEQEND
  5
2BB
100
AcDbEntity
  8
一般
370
               9
  6
Continuous
 62
               7
  0
POLYLINE
  5
2BC
100
AcDbEntity
  8
一般
370
               9
  6
Continuous
 62
               7
100
AcDb2dPolyline
 66
               1
 10
0.0
 20
0.0
 30
0.0
 70
               1
 75
               5
  0
VERTEX
  5
2BD
100
AcDbEntity
  8
一般
370
               9
  6
Continuous
 62
               7
100
AcDbVertex
100
AcDb2dVertex
 10
-204.60000000000002
 20
224.53910451667747
 30
0.0
  0
VERTEX
  5
2BE
100
AcDbEntity
  8
一般
370
               9
  6
Continuous
 62
               7
100
AcDbVertex
100
AcDb2dVertex
 10
-195.95500000000004
 20
224.53910451667747
 30
0.0
  0
VERTEX
  5
2BF
100
AcDbEntity
  8
一般
370
               9
  6
Continuous
 62
               7
100
AcDbVertex
100
AcDb2dVertex
 10
-195.95500000000004
 20
221.61075839466673
 30
0.0
  0
VERTEX
  5
2C0
100
AcDbEntity
  8
一般
370
               9
  6
Continuous
 62
               7
100
AcDbVertex
100
AcDb2dVertex
 10
-204.60000000000002
 20
221.61075839466673
 30
0.0
  0
SEQEND
  5
2C1
100
AcDbEntity
  8
一般
370
               9
  6
Continuous
 62
               7
  0
POLYLINE
  5
2C2
100
AcDbEntity
  8
一般
370
               9
  6
Continuous
 62
               7
100
AcDb2dPolyline
 66
               1
 10
0.0
 20
0.0
 30
0.0
 70
               1
 75
               5
  0
VERTEX
  5
2C3
100
AcDbEntity
  8
一般
370
               9
  6
Continuous
 62
               7
100
AcDbVertex
100
AcDb2dVertex
 10
-204.60000000000002
 20
212.82670434665889
 30
0.0
  0
VERTEX
  5
2C4
100
AcDbEntity
  8
一般
370
               9
  6
Continuous
 62
               7
100
AcDbVertex
100
AcDb2dVertex
 10
-195.95500000000004
 20
212.82670434665889
 30
0.0
  0
VERTEX
  5
2C5
100
AcDbEntity
  8
一般
370
               9
  6
Continuous
 62
               7
100
AcDbVertex
100
AcDb2dVertex
 10
-195.95500000000004
 20
209.89835822464815
 30
0.0
  0
VERTEX
  5
2C6
100
AcDbEntity
  8
一般
370
               9
  6
Continuous
 62
               7
100
AcDbVertex
100
AcDb2dVertex
 10
-204.60000000000002
 20
209.89835822464815
 30
0.0
  0
SEQEND
  5
2C7
100
AcDbEntity
  8
一般
370
               9
  6
Continuous
 62
               7
  0
ENDBLK
  5
2C8
100
AcDbEntity
  8
一般
100
AcDbBlockEnd
  0
BLOCK
  5
2C9
100
AcDbEntity
  8
一般
100
AcDbBlockBegin
  2
*U36
 70
               1
 10
0.0
 20
0.0
 30
0.0
  3
*U36
  1

  0
POLYLINE
  5
2CA
100
AcDbEntity
  8
一般
370
               9
  6
Continuous
 62
               7
100
AcDb2dPolyline
 66
               1
 10
0.0
 20
0.0
 30
0.0
 70
               1
 75
               5
  0
VERTEX
  5
2CB
100
AcDbEntity
  8
一般
370
               9
  6
Continuous
 62
               7
100
AcDbVertex
100
AcDb2dVertex
 10
-225.48700000000002
 20
228.31691709357733
 30
0.0
  0
VERTEX
  5
2CC
100
AcDbEntity
  8
一般
370
               9
  6
Continuous
 62
               7
100
AcDbVertex
100
AcDb2dVertex
 10
-212.46800000000002
 20
228.31691709357733
 30
0.0
  0
VERTEX
  5
2CD
100
AcDbEntity
  8
一般
370
               9
  6
Continuous
 62
               7
100
AcDbVertex
100
AcDb2dVertex
 10
-212.46800000000002
 20
206.12054564774834
 30
0.0
  0
VERTEX
  5
2CE
100
AcDbEntity
  8
一般
370
               9
  6
Continuous
 62
               7
100
AcDbVertex
100
AcDb2dVertex
 10
-225.48700000000002
 20
206.12054564774834
 30
0.0
  0
SEQEND
  5
2CF
100
AcDbEntity
  8
一般
370
               9
  6
Continuous
 62
               7
  0
POLYLINE
  5
2D0
100
AcDbEntity
  8
一般
370
               9
  6
Continuous
 62
               7
100
AcDb2dPolyline
 66
               1
 10
0.0
 20
0.0
 30
0.0
 70
               1
 75
               5
  0
VERTEX
  5
2D1
100
AcDbEntity
  8
一般
370
               9
  6
Continuous
 62
               7
100
AcDbVertex
100
AcDb2dVertex
 10
-223.30000000000001
 20
224.53910451667747
 30
0.0
  0
VERTEX
  5
2D2
100
AcDbEntity
  8
一般
370
               9
  6
Continuous
 62
               7
100
AcDbVertex
100
AcDb2dVertex
 10
-214.65499999999997
 20
224.53910451667747
 30
0.0
  0
VERTEX
  5
2D3
100
AcDbEntity
  8
一般
370
               9
  6
Continuous
 62
               7
100
AcDbVertex
100
AcDb2dVertex
 10
-214.65499999999997
 20
221.61075839466673
 30
0.0
  0
VERTEX
  5
2D4
100
AcDbEntity
  8
一般
370
               9
  6
Continuous
 62
               7
100
AcDbVertex
100
AcDb2dVertex
 10
-223.30000000000001
 20
221.61075839466673
 30
0.0
  0
SEQEND
  5
2D5
100
AcDbEntity
  8
一般
370
               9
  6
Continuous
 62
               7
  0
POLYLINE
  5
2D6
100
AcDbEntity
  8
一般
370
               9
  6
Continuous
 62
               7
100
AcDb2dPolyline
 66
               1
 10
0.0
 20
0.0
 30
0.0
 70
               1
 75
               5
  0
VERTEX
  5
2D7
100
AcDbEntity
  8
一般
370
               9
  6
Continuous
 62
               7
100
AcDbVertex
100
AcDb2dVertex
 10
-223.30000000000001
 20
212.82670434665889
 30
0.0
  0
VERTEX
  5
2D8
100
AcDbEntity
  8
一般
370
               9
  6
Continuous
 62
               7
100
AcDbVertex
100
AcDb2dVertex
 10
-214.65499999999997
 20
212.82670434665889
 30
0.0
  0
VERTEX
  5
2D9
100
AcDbEntity
  8
一般
370
               9
  6
Continuous
 62
               7
100
AcDbVertex
100
AcDb2dVertex
 10
-214.65499999999997
 20
209.89835822464815
 30
0.0
  0
VERTEX
  5
2DA
100
AcDbEntity
  8
一般
370
               9
  6
Continuous
 62
               7
100
AcDbVertex
100
AcDb2dVertex
 10
-223.30000000000001
 20
209.89835822464815
 30
0.0
  0
SEQEND
  5
2DB
100
AcDbEntity
  8
一般
370
               9
  6
Continuous
 62
               7
  0
ENDBLK
  5
2DC
100
AcDbEntity
  8
一般
100
AcDbBlockEnd
  0
BLOCK
  5
2DD
100
AcDbEntity
  8
一般
100
AcDbBlockBegin
  2
*U37
 70
               1
 10
0.0
 20
0.0
 30
0.0
  3
*U37
  1

  0
POLYLINE
  5
2DE
100
AcDbEntity
  8
一般
370
               9
  6
Continuous
 62
               7
100
AcDb2dPolyline
 66
               1
 10
0.0
 20
0.0
 30
0.0
 70
               1
 75
               5
  0
VERTEX
  5
2DF
100
AcDbEntity
  8
一般
370
               9
  6
Continuous
 62
               7
100
AcDbVertex
100
AcDb2dVertex
 10
-244.18699999999995
 20
228.31691709357733
 30
0.0
  0
VERTEX
  5
2E0
100
AcDbEntity
  8
一般
370
               9
  6
Continuous
 62
               7
100
AcDbVertex
100
AcDb2dVertex
 10
-231.16800000000001
 20
228.31691709357733
 30
0.0
  0
VERTEX
  5
2E1
100
AcDbEntity
  8
一般
370
               9
  6
Continuous
 62
               7
100
AcDbVertex
100
AcDb2dVertex
 10
-231.16800000000001
 20
206.12054564774834
 30
0.0
  0
VERTEX
  5
2E2
100
AcDbEntity
  8
一般
370
               9
  6
Continuous
 62
               7
100
AcDbVertex
100
AcDb2dVertex
 10
-244.18699999999995
 20
206.12054564774834
 30
0.0
  0
SEQEND
  5
2E3
100
AcDbEntity
  8
一般
370
               9
  6
Continuous
 62
               7
  0
POLYLINE
  5
2E4
100
AcDbEntity
  8
一般
370
               9
  6
Continuous
 62
               7
100
AcDb2dPolyline
 66
               1
 10
0.0
 20
0.0
 30
0.0
 70
               1
 75
               5
  0
VERTEX
  5
2E5
100
AcDbEntity
  8
一般
370
               9
  6
Continuous
 62
               7
100
AcDbVertex
100
AcDb2dVertex
 10
-242.0
 20
224.53910451667747
 30
0.0
  0
VERTEX
  5
2E6
100
AcDbEntity
  8
一般
370
               9
  6
Continuous
 62
               7
100
AcDbVertex
100
AcDb2dVertex
 10
-233.35499999999996
 20
224.53910451667747
 30
0.0
  0
VERTEX
  5
2E7
100
AcDbEntity
  8
一般
370
               9
  6
Continuous
 62
               7
100
AcDbVertex
100
AcDb2dVertex
 10
-233.35499999999996
 20
221.61075839466673
 30
0.0
  0
VERTEX
  5
2E8
100
AcDbEntity
  8
一般
370
               9
  6
Continuous
 62
               7
100
AcDbVertex
100
AcDb2dVertex
 10
-242.0
 20
221.61075839466673
 30
0.0
  0
SEQEND
  5
2E9
100
AcDbEntity
  8
一般
370
               9
  6
Continuous
 62
               7
  0
POLYLINE
  5
2EA
100
AcDbEntity
  8
一般
370
               9
  6
Continuous
 62
               7
100
AcDb2dPolyline
 66
               1
 10
0.0
 20
0.0
 30
0.0
 70
               1
 75
               5
  0
VERTEX
  5
2EB
100
AcDbEntity
  8
一般
370
               9
  6
Continuous
 62
               7
100
AcDbVertex
100
AcDb2dVertex
 10
-242.0
 20
212.82670434665889
 30
0.0
  0
VERTEX
  5
2EC
100
AcDbEntity
  8
一般
370
               9
  6
Continuous
 62
               7
100
AcDbVertex
100
AcDb2dVertex
 10
-233.35499999999996
 20
212.82670434665889
 30
0.0
  0
VERTEX
  5
2ED
100
AcDbEntity
  8
一般
370
               9
  6
Continuous
 62
               7
100
AcDbVertex
100
AcDb2dVertex
 10
-233.35499999999996
 20
209.89835822464815
 30
0.0
  0
VERTEX
  5
2EE
100
AcDbEntity
  8
一般
370
               9
  6
Continuous
 62
               7
100
AcDbVertex
100
AcDb2dVertex
 10
-242.0
 20
209.89835822464815
 30
0.0
  0
SEQEND
  5
2EF
100
AcDbEntity
  8
一般
370
               9
  6
Continuous
 62
               7
  0
ENDBLK
  5
2F0
100
AcDbEntity
  8
一般
100
AcDbBlockEnd
  0
BLOCK
  5
2F1
100
AcDbEntity
  8
一般
100
AcDbBlockBegin
  2
*U38
 70
               1
 10
0.0
 20
0.0
 30
0.0
  3
*U38
  1

  0
INSERT
  5
2F2
100
AcDbEntity
  8
一般
 62
               7
100
AcDbBlockReference
  2
*U22
 10
0.0
 20
0.0
 30
0.0
  0
INSERT
  5
2F3
100
AcDbEntity
  8
一般
 62
               7
100
AcDbBlockReference
  2
*U23
 10
0.0
 20
0.0
 30
0.0
  0
INSERT
  5
2F4
100
AcDbEntity
  8
一般
 62
               7
100
AcDbBlockReference
  2
*U24
 10
0.0
 20
0.0
 30
0.0
  0
INSERT
  5
2F5
100
AcDbEntity
  8
一般
 62
               7
100
AcDbBlockReference
  2
*U25
 10
0.0
 20
0.0
 30
0.0
  0
INSERT
  5
2F6
100
AcDbEntity
  8
一般
 62
               7
100
AcDbBlockReference
  2
*U26
 10
0.0
 20
0.0
 30
0.0
  0
INSERT
  5
2F7
100
AcDbEntity
  8
一般
 62
               7
100
AcDbBlockReference
  2
*U27
 10
0.0
 20
0.0
 30
0.0
  0
INSERT
  5
2F8
100
AcDbEntity
  8
一般
 62
               7
100
AcDbBlockReference
  2
*U28
 10
0.0
 20
0.0
 30
0.0
  0
INSERT
  5
2F9
100
AcDbEntity
  8
一般
 62
               7
100
AcDbBlockReference
  2
*U29
 10
0.0
 20
0.0
 30
0.0
  0
INSERT
  5
2FA
100
AcDbEntity
  8
一般
 62
               7
100
AcDbBlockReference
  2
*U30
 10
0.0
 20
0.0
 30
0.0
  0
INSERT
  5
2FB
100
AcDbEntity
  8
一般
 62
               7
100
AcDbBlockReference
  2
*U31
 10
0.0
 20
0.0
 30
0.0
  0
INSERT
  5
2FC
100
AcDbEntity
  8
一般
 62
               7
100
AcDbBlockReference
  2
*U32
 10
0.0
 20
0.0
 30
0.0
  0
INSERT
  5
2FD
100
AcDbEntity
  8
一般
 62
               7
100
AcDbBlockReference
  2
*U33
 10
0.0
 20
0.0
 30
0.0
  0
INSERT
  5
2FE
100
AcDbEntity
  8
一般
 62
               7
100
AcDbBlockReference
  2
*U34
 10
0.0
 20
0.0
 30
0.0
  0
INSERT
  5
2FF
100
AcDbEntity
  8
一般
 62
               7
100
AcDbBlockReference
  2
*U35
 10
0.0
 20
0.0
 30
0.0
  0
INSERT
  5
300
100
AcDbEntity
  8
一般
 62
               7
100
AcDbBlockReference
  2
*U36
 10
0.0
 20
0.0
 30
0.0
  0
INSERT
  5
301
100
AcDbEntity
  8
一般
 62
               7
100
AcDbBlockReference
  2
*U37
 10
0.0
 20
0.0
 30
0.0
  0
ENDBLK
  5
302
100
AcDbEntity
  8
一般
100
AcDbBlockEnd
  0
BLOCK
  5
303
100
AcDbEntity
  8
一般
100
AcDbBlockBegin
  2
*U39
 70
               1
 10
0.0
 20
0.0
 30
0.0
  3
*U39
  1

  0
LINE
  5
304
100
AcDbEntity
  8
一般
370
               9
  6
Continuous
 62
               7
100
AcDbLine
 10
-20.98700000000008
 20
205.75142638867138
 30
0.0
 11
-20.98700000000008
 21
210.47221563275986
 31
0.0
  0
LINE
  5
305
100
AcDbEntity
  8
一般
370
               9
  6
Continuous
 62
               7
100
AcDbLine
 10
-24.287000000000035
 20
210.47221563275986
 30
0.0
 11
-24.287000000000035
 21
205.75142638867138
 31
0.0
  0
SPLINE
  5
306
100
AcDbEntity
  8
一般
370
               9
  6
Continuous
 62
               7
100
AcDbSpline
210
0.0
220
0.0
230
1.0
 70
               8
 71
               2
 72
              16
 73
              13
 74
               0
 42
0.000001
 43
0.000001
 40
0.0
 40
0.0
 40
0.0
 40
0.1655790026718025
 40
0.1655790026718025
 40
0.332247699923191
 40
0.332247699923191
 40
0.4999998023825135
 40
0.4999998023825135
 40
0.6677520005837485
 40
0.6677520005837485
 40
0.8344208953888537
 40
0.8344208953888537
 40
1.0
 40
1.0
 40
1.0
 10
-20.987000000000023
 20
210.47221563275986
 30
0.0
 10
-20.987000000000023
 20
210.90739854523386
 30
0.0
 10
-21.208058083755702
 20
211.28427800272925
 30
0.0
 10
-21.429116167511381
 20
211.66115746022462
 30
0.0
 10
-21.81200000000004
 20
211.8787489164616
 30
0.0
 10
-22.194883832488699
 20
212.09634037269859
 30
0.0
 10
-22.637000000000057
 20
212.09634037269859
 30
0.0
 10
-23.079116167511415
 20
212.09634037269859
 30
0.0
 10
-23.462000000000074
 20
211.8787489164616
 30
0.0
 10
-23.844883832488733
 20
211.66115746022462
 30
0.0
 10
-24.065941916244412
 20
211.28427800272925
 30
0.0
 10
-24.287000000000091
 20
210.90739854523386
 30
0.0
 10
-24.287000000000091
 20
210.47221563275986
 30
0.0
  0
SPLINE
  5
307
100
AcDbEntity
  8
一般
370
               9
  6
Continuous
 62
               7
100
AcDbSpline
210
0.0
220
0.0
230
1.0
 70
               8
 71
               2
 72
              16
 73
              13
 74
               0
 42
0.000001
 43
0.000001
 40
0.0
 40
0.0
 40
0.0
 40
0.1655790026718032
 40
0.1655790026718032
 40
0.3322476999231916
 40
0.3322476999231916
 40
0.4999998023825137
 40
0.4999998023825137
 40
0.6677520005837481
 40
0.6677520005837481
 40
0.834420895388853
 40
0.834420895388853
 40
1.0
 40
1.0
 40
1.0
 10
-24.287000000000035
 20
205.75142638867138
 30
0.0
 10
-24.287000000000035
 20
205.31624347619737
 30
0.0
 10
-24.065941916244363
 20
204.93936401870201
 30
0.0
 10
-23.844883832488691
 20
204.56248456120667
 30
0.0
 10
-23.462000000000046
 20
204.34489310496969
 30
0.0
 10
-23.079116167511401
 20
204.1273016487327
 30
0.0
 10
-22.637000000000057
 20
204.1273016487327
 30
0.0
 10
-22.194883832488713
 20
204.1273016487327
 30
0.0
 10
-21.812000000000069
 20
204.34489310496969
 30
0.0
 10
-21.429116167511424
 20
204.56248456120667
 30
0.0
 10
-21.208058083755752
 20
204.93936401870201
 30
0.0
 10
-20.98700000000008
 20
205.31624347619737
 30
0.0
 10
-20.98700000000008
 20
205.75142638867138
 30
0.0
  0
ENDBLK
  5
308
100
AcDbEntity
  8
一般
100
AcDbBlockEnd
  0
BLOCK
  5
309
100
AcDbEntity
  8
一般
100
AcDbBlockBegin
  2
*U40
 70
               1
 10
0.0
 20
0.0
 30
0.0
  3
*U40
  1

  0
LINE
  5
30A
100
AcDbEntity
  8
一般
370
               9
  6
Continuous
 62
               7
100
AcDbLine
 10
-250.18700000000001
 20
220.66384445538128
 30
0.0
 11
-312.68700000000001
 21
220.66384445538128
 31
0.0
  0
LINE
  5
30B
100
AcDbEntity
  8
一般
370
               9
  6
Continuous
 62
               7
100
AcDbLine
 10
-250.18700000000001
 20
220.66384445538128
 30
0.0
 11
-250.18700000000001
 21
236.90509185476833
 31
0.0
  0
LINE
  5
30C
100
AcDbEntity
  8
一般
370
               9
  6
Continuous
 62
               7
100
AcDbLine
 10
-250.18700000000001
 20
223.40320151674456
 30
0.0
 11
-312.68700000000001
 21
223.40320151674456
 31
0.0
  0
LINE
  5
30D
100
AcDbEntity
  8
一般
370
               9
  6
Continuous
 62
               7
100
AcDbLine
 10
-257.08500000000004
 20
223.40320151674456
 30
0.0
 11
-257.08500000000004
 21
236.90509185476833
 31
0.0
  0
LINE
  5
30E
100
AcDbEntity
  8
一般
370
               9
  6
Continuous
 62
               7
100
AcDbLine
 10
-258.13000000000005
 20
223.40320151674456
 30
0.0
 11
-258.13000000000005
 21
236.90509185476833
 31
0.0
  0
LINE
  5
30F
100
AcDbEntity
  8
一般
370
               9
  6
Continuous
 62
               7
100
AcDbLine
 10
-265.02800000000002
 20
223.40320151674456
 30
0.0
 11
-265.02800000000002
 21
236.90509185476833
 31
0.0
  0
LINE
  5
310
100
AcDbEntity
  8
一般
370
               9
  6
Continuous
 62
               7
100
AcDbLine
 10
-266.07300000000004
 20
223.40320151674456
 30
0.0
 11
-266.07300000000004
 21
236.90509185476833
 31
0.0
  0
LINE
  5
311
100
AcDbEntity
  8
一般
370
               9
  6
Continuous
 62
               7
100
AcDbLine
 10
-272.97100000000006
 20
223.40320151674456
 30
0.0
 11
-272.97100000000006
 21
236.90509185476833
 31
0.0
  0
LINE
  5
312
100
AcDbEntity
  8
一般
370
               9
  6
Continuous
 62
               7
100
AcDbLine
 10
-274.01600000000002
 20
223.40320151674456
 30
0.0
 11
-274.01600000000002
 21
236.90509185476833
 31
0.0
  0
LINE
  5
313
100
AcDbEntity
  8
一般
370
               9
  6
Continuous
 62
               7
100
AcDbLine
 10
-280.91400000000004
 20
223.40320151674456
 30
0.0
 11
-280.91400000000004
 21
236.90509185476833
 31
0.0
  0
LINE
  5
314
100
AcDbEntity
  8
一般
370
               9
  6
Continuous
 62
               7
100
AcDbLine
 10
-281.96000000000004
 20
223.40320151674456
 30
0.0
 11
-281.96000000000004
 21
236.90509185476833
 31
0.0
  0
LINE
  5
315
100
AcDbEntity
  8
一般
370
               9
  6
Continuous
 62
               7
100
AcDbLine
 10
-288.85800000000006
 20
223.40320151674456
 30
0.0
 11
-288.85800000000006
 21
236.90509185476833
 31
0.0
  0
LINE
  5
316
100
AcDbEntity
  8
一般
370
               9
  6
Continuous
 62
               7
100
AcDbLine
 10
-289.90300000000002
 20
223.40320151674456
 30
0.0
 11
-289.90300000000002
 21
236.90509185476833
 31
0.0
  0
LINE
  5
317
100
AcDbEntity
  8
一般
370
               9
  6
Continuous
 62
               7
100
AcDbLine
 10
-296.80100000000004
 20
223.40320151674456
 30
0.0
 11
-296.80100000000004
 21
236.90509185476833
 31
0.0
  0
LINE
  5
318
100
AcDbEntity
  8
一般
370
               9
  6
Continuous
 62
               7
100
AcDbLine
 10
-297.84600000000006
 20
223.40320151674456
 30
0.0
 11
-297.84600000000006
 21
236.90509185476833
 31
0.0
  0
LINE
  5
319
100
AcDbEntity
  8
一般
370
               9
  6
Continuous
 62
               7
100
AcDbLine
 10
-304.74400000000003
 20
223.40320151674456
 30
0.0
 11
-304.74400000000003
 21
236.90509185476833
 31
0.0
  0
LINE
  5
31A
100
AcDbEntity
  8
一般
370
               9
  6
Continuous
 62
               7
100
AcDbLine
 10
-305.78900000000004
 20
223.40320151674456
 30
0.0
 11
-305.78900000000004
 21
236.90509185476833
 31
0.0
  0
LINE
  5
31B
100
AcDbEntity
  8
一般
370
               9
  6
Continuous
 62
               7
100
AcDbLine
 10
-312.68700000000001
 20
220.66384445538128
 30
0.0
 11
-312.68700000000001
 21
236.90509185476833
 31
0.0
  0
ENDBLK
  5
31C
100
AcDbEntity
  8
一般
100
AcDbBlockEnd
  0
BLOCK
  5
31D
100
AcDbEntity
  8
一般
100
AcDbBlockBegin
  2
*U41
 70
               1
 10
0.0
 20
0.0
 30
0.0
  3
*U41
  1

  0
LINE
  5
31E
100
AcDbEntity
  8
一般
370
              25
  6
Continuous
 62
               7
100
AcDbLine
 10
88.812999999999988
 20
242.81099999999998
 30
0.0
 11
88.812999999999988
 21
198.81099999999998
 31
0.0
  0
LINE
  5
31F
100
AcDbEntity
  8
一般
370
              25
  6
Continuous
 62
               7
100
AcDbLine
 10
88.812999999999988
 20
198.81099999999998
 30
0.0
 11
-343.36500000000001
 21
198.81099999999998
 31
0.0
  0
LINE
  5
320
100
AcDbEntity
  8
一般
370
              25
  6
Continuous
 62
               7
100
AcDbLine
 10
-350.43400000000003
 20
198.81099999999998
 30
0.0
 11
-393.18700000000001
 21
198.81099999999998
 31
0.0
  0
LINE
  5
321
100
AcDbEntity
  8
一般
370
              25
  6
Continuous
 62
               7
100
AcDbLine
 10
-393.18700000000001
 20
242.81099999999998
 30
0.0
 11
-393.18700000000001
 21
198.81099999999998
 31
0.0
  0
LINE
  5
322
100
AcDbEntity
  8
一般
370
              25
  6
Continuous
 62
               7
100
AcDbLine
 10
-393.18700000000001
 20
242.81099999999998
 30
0.0
 11
88.812999999999988
 21
242.81099999999998
 31
0.0
  0
LINE
  5
323
100
AcDbEntity
  8
一般
370
               9
  6
Continuous
 62
               7
100
AcDbLine
 10
62.812999999999988
 20
242.46648869152816
 30
0.0
 11
62.812999999999988
 21
199.15649562649602
 31
0.0
  0
LINE
  5
324
100
AcDbEntity
  8
一般
370
               9
  6
Continuous
 62
               7
100
AcDbLine
 10
-367.18700000000001
 20
242.46648869152816
 30
0.0
 11
-367.18700000000001
 21
199.15649562649602
 31
0.0
  0
LINE
  5
325
100
AcDbEntity
  8
一般
370
               9
  6
Continuous
 62
               7
100
AcDbLine
 10
-367.18700000000001
 20
242.46648869152816
 30
0.0
 11
-367.18700000000001
 21
199.15649562649602
 31
0.0
  0
INSERT
  5
326
100
AcDbEntity
  8
一般
 62
               7
100
AcDbBlockReference
  2
*U21
 10
0.0
 20
0.0
 30
0.0
  0
LINE
  5
327
100
AcDbEntity
  8
一般
370
               9
  6
Continuous
 62
               7
100
AcDbLine
 10
62.812999999999988
 20
242.46648869152816
 30
0.0
 11
56.812999999999988
 21
236.56058054629651
 31
0.0
  0
LINE
  5
328
100
AcDbEntity
  8
一般
370
               9
  6
Continuous
 62
               7
100
AcDbLine
 10
56.812999999999988
 20
236.90509185476833
 30
0.0
 11
56.812999999999988
 21
199.15649562649602
 31
0.0
  0
LINE
  5
329
100
AcDbEntity
  8
一般
370
               9
  6
Continuous
 62
               7
100
AcDbLine
 10
-361.18700000000001
 20
236.90509185476833
 30
0.0
 11
56.812999999999988
 21
236.90509185476833
 31
0.0
  0
LINE
  5
32A
100
AcDbEntity
  8
一般
370
               9
  6
Continuous
 62
               7
100
AcDbLine
 10
-367.18700000000001
 20
242.46648869152816
 30
0.0
 11
-361.53700000000003
 21
236.90509185476833
 31
0.0
  0
LINE
  5
32B
100
AcDbEntity
  8
一般
370
               9
  6
Continuous
 62
               7
100
AcDbLine
 10
-361.18700000000001
 20
236.90509185476833
 30
0.0
 11
-361.18700000000001
 21
199.15649562649602
 31
0.0
  0
INSERT
  5
32C
100
AcDbEntity
  8
一般
 62
               7
100
AcDbBlockReference
  2
*U38
 10
0.0
 20
0.0
 30
0.0
  0
INSERT
  5
32D
100
AcDbEntity
  8
一般
 62
               7
100
AcDbBlockReference
  2
*U39
 10
0.0
 20
0.0
 30
0.0
  0
SPLINE
  5
32E
100
AcDbEntity
  8
一般
370
               9
  6
Continuous
 62
               7
100
AcDbSpline
210
0.0
220
0.0
230
1.0
 70
               9
 71
               2
 72
              36
 73
              33
 74
               0
 42
0.000001
 43
0.000001
 40
0.0
 40
0.0
 40
0.0
 40
0.0064860747118894
 40
0.0064860747118894
 40
0.012930263911468
 40
0.012930263911468
 40
0.0193323167891734
 40
0.0193323167891734
 40
0.1484335906105387
 40
0.1484335906105387
 40
0.1548356395467982
 40
0.1548356395467982
 40
0.1612798211080378
 40
0.1612798211080378
 40
0.1677658921181027
 40
0.1677658921181027
 40
0.4999999999999999
 40
0.4999999999999999
 40
0.5064860747118893
 40
0.5064860747118893
 40
0.512930263911468
 40
0.512930263911468
 40
0.5193323167891734
 40
0.5193323167891734
 40
0.6484335906105386
 40
0.6484335906105386
 40
0.6548356395467981
 40
0.6548356395467981
 40
0.6612798211080377
 40
0.6612798211080377
 40
0.6677658921181027
 40
0.6677658921181027
 40
1.0
 40
1.0
 40
1.0
 10
48.312999999999988
 20
234.1490013869936
 30
0.0
 10
48.982872981077797
 20
234.1490013869936
 30
0.0
 10
49.562999999999988
 20
233.8193173623921
 30
0.0
 10
50.143127018922179
 20
233.48963333779059
 30
0.0
 10
50.47806350946108
 20
232.91860385673701
 30
0.0
 10
50.812999999999988
 20
232.34757437568342
 30
0.0
 10
50.812999999999988
 20
231.68820632648041
 30
0.0
 10
50.812999999999988
 20
218.67060045636561
 30
0.0
 10
50.812999999999988
 20
205.65299458625083
 30
0.0
 10
50.812999999999988
 20
204.99362653704782
 30
0.0
 10
50.47806350946108
 20
204.42259705599423
 30
0.0
 10
50.143127018922179
 20
203.85156757494065
 30
0.0
 10
49.562999999999988
 20
203.52188355033914
 30
0.0
 10
48.982872981077797
 20
203.19219952573764
 30
0.0
 10
48.312999999999988
 20
203.19219952573764
 30
0.0
 10
14.812999999999988
 20
203.19219952573764
 30
0.0
 10
-18.687000000000012
 20
203.19219952573764
 30
0.0
 10
-19.356872981077817
 20
203.19219952573764
 30
0.0
 10
-19.937000000000012
 20
203.52188355033914
 30
0.0
 10
-20.517127018922203
 20
203.85156757494065
 30
0.0
 10
-20.852063509461107
 20
204.42259705599423
 30
0.0
 10
-21.187000000000012
 20
204.99362653704782
 30
0.0
 10
-21.187000000000012
 20
205.65299458625083
 30
0.0
 10
-21.187000000000012
 20
218.67060045636561
 30
0.0
 10
-21.187000000000012
 20
231.68820632648041
 30
0.0
 10
-21.187000000000012
 20
232.34757437568342
 30
0.0
 10
-20.852063509461111
 20
232.91860385673701
 30
0.0
 10
-20.517127018922206
 20
233.48963333779059
 30
0.0
 10
-19.937000000000012
 20
233.8193173623921
 30
0.0
 10
-19.356872981077821
 20
234.1490013869936
 30
0.0
 10
-18.687000000000012
 20
234.1490013869936
 30
0.0
 10
14.812999999999988
 20
234.1490013869936
 30
0.0
 10
48.312999999999988
 20
234.1490013869936
 30
0.0
  0
LINE
  5
32F
100
AcDbEntity
  8
一般
370
               9
  6
Continuous
 62
               7
100
AcDbLine
 10
-189.58700000000005
 20
205.65299458625083
 30
0.0
 11
-189.58700000000005
 21
232.18036533858304
 31
0.0
  0
LINE
  5
330
100
AcDbEntity
  8
一般
370
               9
  6
Continuous
 62
               7
100
AcDbLine
 10
-189.51900000000006
 20
204.96790924140399
 30
0.0
 11
-189.58700000000005
 21
205.65299458625083
 31
0.0
  0
LINE
  5
331
100
AcDbEntity
  8
一般
370
               9
  6
Continuous
 62
               7
100
AcDbLine
 10
-189.39700000000005
 20
204.71198655511054
 30
0.0
 11
-189.53900000000004
 21
205.17363170846289
 31
0.0
  0
LINE
  5
332
100
AcDbEntity
  8
一般
370
               9
  6
Continuous
 62
               7
100
AcDbLine
 10
-26.287000000000035
 20
203.19219952573764
 30
0.0
 11
-187.52800000000002
 21
203.19219952573764
 31
0.0
  0
LINE
  5
333
100
AcDbEntity
  8
一般
370
               9
  6
Continuous
 62
               7
100
AcDbLine
 10
-24.287000000000035
 20
232.18036533858304
 30
0.0
 11
-24.287000000000035
 21
205.16083557414817
 31
0.0
  0
LINE
  5
334
100
AcDbEntity
  8
一般
370
               9
  6
Continuous
 62
               7
100
AcDbLine
 10
-187.58700000000005
 20
234.1490013869936
 30
0.0
 11
-26.287000000000035
 21
234.1490013869936
 31
0.0
  0
LINE
  5
335
100
AcDbEntity
  8
一般
370
               9
  6
Continuous
 62
               7
100
AcDbLine
 10
-245.68700000000001
 20
205.16083557414817
 30
0.0
 11
-245.68700000000001
 21
232.18036533858304
 31
0.0
  0
LINE
  5
336
100
AcDbEntity
  8
一般
370
               9
  6
Continuous
 62
               7
100
AcDbLine
 10
-193.98700000000002
 20
203.19219952573764
 30
0.0
 11
-243.68700000000001
 21
203.19219952573764
 31
0.0
  0
LINE
  5
337
100
AcDbEntity
  8
一般
370
               9
  6
Continuous
 62
               7
100
AcDbLine
 10
-191.98700000000002
 20
232.18036533858304
 30
0.0
 11
-191.98700000000002
 21
205.16083557414817
 31
0.0
  0
LINE
  5
338
100
AcDbEntity
  8
一般
370
               9
  6
Continuous
 62
               7
100
AcDbLine
 10
-243.68700000000001
 20
234.1490013869936
 30
0.0
 11
-193.98700000000002
 21
234.1490013869936
 31
0.0
  0
SPLINE
  5
339
100
AcDbEntity
  8
一般
370
               9
  6
Continuous
 62
               7
100
AcDbSpline
210
0.0
220
0.0
230
1.0
 70
               8
 71
               2
 72
              10
 73
               7
 74
               0
 42
0.000001
 43
0.000001
 40
0.0
 40
0.0
 40
0.0
 40
0.3311581362288715
 40
0.3311581362288715
 40
0.6644956624783038
 40
0.6644956624783038
 40
1.0
 40
1.0
 40
1.0
 10
-191.98700000000002
 20
232.18036533858304
 30
0.0
 10
-191.98700000000002
 20
232.70785977794543
 30
0.0
 10
-192.25494919243116
 20
233.16468336278831
 30
0.0
 10
-192.52289838486229
 20
233.62150694763119
 30
0.0
 10
-192.98700000000002
 20
233.88525416731238
 30
0.0
 10
-193.45110161513776
 20
234.1490013869936
 30
0.0
 10
-193.98700000000002
 20
234.1490013869936
 30
0.0
  0
SPLINE
  5
33A
100
AcDbEntity
  8
一般
370
               9
  6
Continuous
 62
               7
100
AcDbSpline
210
0.0
220
0.0
230
1.0
 70
               8
 71
               2
 72
              10
 73
               7
 74
               0
 42
0.000001
 43
0.000001
 40
0.0
 40
0.0
 40
0.0
 40
0.3355042637994523
 40
0.3355042637994523
 40
0.6688419216629753
 40
0.6688419216629753
 40
1.0
 40
1.0
 40
1.0
 10
-243.68700000000001
 20
234.1490013869936
 30
0.0
 10
-244.22289838486222
 20
234.1490013869936
 30
0.0
 10
-244.68700000000001
 20
233.88525416731238
 30
0.0
 10
-245.1511016151378
 20
233.62150694763119
 30
0.0
 10
-245.41905080756891
 20
233.16468336278831
 30
0.0
 10
-245.68700000000001
 20
232.70785977794543
 30
0.0
 10
-245.68700000000001
 20
232.18036533858304
 30
0.0
  0
SPLINE
  5
33B
100
AcDbEntity
  8
一般
370
               9
  6
Continuous
 62
               7
100
AcDbSpline
210
0.0
220
0.0
230
1.0
 70
               8
 71
               2
 72
              10
 73
               7
 74
               0
 42
0.000001
 43
0.000001
 40
0.0
 40
0.0
 40
0.0
 40
0.3311581362288686
 40
0.3311581362288686
 40
0.6644956624783072
 40
0.6644956624783072
 40
1.0
 40
1.0
 40
1.0
 10
-245.68700000000001
 20
205.16083557414817
 30
0.0
 10
-245.68700000000001
 20
204.63334113478578
 30
0.0
 10
-245.41905080756891
 20
204.1765175499429
 30
0.0
 10
-245.1511016151378
 20
203.71969396510002
 30
0.0
 10
-244.68700000000001
 20
203.45594674541883
 30
0.0
 10
-244.22289838486222
 20
203.19219952573764
 30
0.0
 10
-243.68700000000001
 20
203.19219952573764
 30
0.0
  0
SPLINE
  5
33C
100
AcDbEntity
  8
一般
370
               9
  6
Continuous
 62
               7
100
AcDbSpline
210
0.0
220
0.0
230
1.0
 70
               8
 71
               2
 72
              10
 73
               7
 74
               0
 42
0.000001
 43
0.000001
 40
0.0
 40
0.0
 40
0.0
 40
0.3355042637994533
 40
0.3355042637994533
 40
0.6688419216629715
 40
0.6688419216629715
 40
1.0
 40
1.0
 40
1.0
 10
-193.98700000000002
 20
203.19219952573764
 30
0.0
 10
-193.45110161513776
 20
203.19219952573764
 30
0.0
 10
-192.98700000000002
 20
203.45594674541883
 30
0.0
 10
-192.52289838486229
 20
203.71969396510002
 30
0.0
 10
-192.25494919243116
 20
204.1765175499429
 30
0.0
 10
-191.98700000000002
 20
204.63334113478578
 30
0.0
 10
-191.98700000000002
 20
205.16083557414817
 30
0.0
  0
SPLINE
  5
33D
100
AcDbEntity
  8
一般
370
               9
  6
Continuous
 62
               7
100
AcDbSpline
210
0.0
220
0.0
230
1.0
 70
               8
 71
               2
 72
              10
 73
               7
 74
               0
 42
0.000001
 43
0.000001
 40
0.0
 40
0.0
 40
0.0
 40
0.3355042637994546
 40
0.3355042637994546
 40
0.6688419216629722
 40
0.6688419216629722
 40
1.0
 40
1.0
 40
1.0
 10
-187.58700000000005
 20
234.1490013869936
 30
0.0
 10
-188.12289838486231
 20
234.1490013869936
 30
0.0
 10
-188.58700000000005
 20
233.88525416731238
 30
0.0
 10
-189.05110161513778
 20
233.62150694763119
 30
0.0
 10
-189.31905080756891
 20
233.16468336278831
 30
0.0
 10
-189.58700000000005
 20
232.70785977794543
 30
0.0
 10
-189.58700000000005
 20
232.18036533858304
 30
0.0
  0
SPLINE
  5
33E
100
AcDbEntity
  8
一般
370
               9
  6
Continuous
 62
               7
100
AcDbSpline
210
0.0
220
0.0
230
1.0
 70
               8
 71
               2
 72
              10
 73
               7
 74
               0
 42
0.000001
 43
0.000001
 40
0.0
 40
0.0
 40
0.0
 40
0.3312080689462515
 40
0.3312080689462515
 40
0.6646185924264875
 40
0.6646185924264875
 40
1.0
 40
1.0
 40
1.0
 10
-189.51837309033778
 20
204.96791184971508
 30
0.0
 10
-189.4692776657588
 20
204.47716135109476
 30
0.0
 10
-189.19095296898269
 20
204.06714023361076
 30
0.0
 10
-188.91262827220658
 20
203.65711911612678
 30
0.0
 10
-188.4708043827597
 20
203.42465932093219
 30
0.0
 10
-188.02898049331282
 20
203.19219952573761
 30
0.0
 10
-187.52800000000002
 20
203.19219952573761
 30
0.0
  0
SPLINE
  5
33F
100
AcDbEntity
  8
一般
370
               9
  6
Continuous
 62
               7
100
AcDbSpline
210
0.0
220
0.0
230
1.0
 70
               8
 71
               2
 72
              10
 73
               7
 74
               0
 42
0.000001
 43
0.000001
 40
0.0
 40
0.0
 40
0.0
 40
0.3311581362288713
 40
0.3311581362288713
 40
0.6644956624783047
 40
0.6644956624783047
 40
1.0
 40
1.0
 40
1.0
 10
-24.287000000000035
 20
232.18036533858304
 30
0.0
 10
-24.287000000000035
 20
232.70785977794543
 30
0.0
 10
-24.55494919243116
 20
233.16468336278831
 30
0.0
 10
-24.822898384862285
 20
233.62150694763119
 30
0.0
 10
-25.287000000000035
 20
233.88525416731238
 30
0.0
 10
-25.751101615137785
 20
234.1490013869936
 30
0.0
 10
-26.287000000000035
 20
234.1490013869936
 30
0.0
  0
SPLINE
  5
340
100
AcDbEntity
  8
一般
370
               9
  6
Continuous
 62
               7
100
AcDbSpline
210
0.0
220
0.0
230
1.0
 70
               8
 71
               2
 72
              10
 73
               7
 74
               0
 42
0.000001
 43
0.000001
 40
0.0
 40
0.0
 40
0.0
 40
0.3355042637994508
 40
0.3355042637994508
 40
0.6688419216629717
 40
0.6688419216629717
 40
1.0
 40
1.0
 40
1.0
 10
-26.287000000000035
 20
203.19219952573764
 30
0.0
 10
-25.751101615137799
 20
203.19219952573764
 30
0.0
 10
-25.287000000000042
 20
203.45594674541883
 30
0.0
 10
-24.822898384862285
 20
203.71969396510002
 30
0.0
 10
-24.55494919243116
 20
204.1765175499429
 30
0.0
 10
-24.287000000000035
 20
204.63334113478578
 30
0.0
 10
-24.287000000000035
 20
205.16083557414817
 30
0.0
  0
INSERT
  5
341
100
AcDbEntity
  8
一般
 62
               7
100
AcDbBlockReference
  2
*U40
 10
0.0
 20
0.0
 30
0.0
  0
POLYLINE
  5
342
100
AcDbEntity
  8
一般
370
               9
  6
Continuous
 62
               7
100
AcDb2dPolyline
 66
               1
 10
0.0
 20
0.0
 30
0.0
 70
               1
 75
               5
  0
VERTEX
  5
343
100
AcDbEntity
  8
一般
370
               9
  6
Continuous
 62
               7
100
AcDbVertex
100
AcDb2dVertex
 10
-250.85900000000004
 20
230.11329748775194
 30
0.0
  0
VERTEX
  5
344
100
AcDbEntity
  8
一般
370
               9
  6
Continuous
 62
               7
100
AcDbVertex
100
AcDb2dVertex
 10
-253.68700000000001
 20
232.89694886020445
 30
0.0
  0
VERTEX
  5
345
100
AcDbEntity
  8
一般
370
               9
  6
Continuous
 62
               7
100
AcDbVertex
100
AcDb2dVertex
 10
-256.51500000000004
 20
230.11329748775194
 30
0.0
  0
VERTEX
  5
346
100
AcDbEntity
  8
一般
370
               9
  6
Continuous
 62
               7
100
AcDbVertex
100
AcDb2dVertex
 10
-253.68700000000001
 20
227.3286617972752
 30
0.0
  0
SEQEND
  5
347
100
AcDbEntity
  8
一般
370
               9
  6
Continuous
 62
               7
  0
SPLINE
  5
348
100
AcDbEntity
  8
一般
370
               9
  6
Continuous
 62
               7
100
AcDbSpline
210
0.0
220
0.0
230
1.0
 70
               9
 71
               2
 72
              28
 73
              25
 74
               0
 42
0.000001
 43
0.000001
 40
0.0
 40
0.0
 40
0.0
 40
0.0827895013358992
 40
0.0827895013358992
 40
0.1661238499615951
 40
0.1661238499615951
 40
0.2499999011912568
 40
0.2499999011912568
 40
0.3338760002918746
 40
0.3338760002918746
 40
0.4172104476944289
 40
0.4172104476944289
 40
0.5
 40
0.5
 40
0.5827895013358991
 40
0.5827895013358991
 40
0.6661238499615951
 40
0.6661238499615951
 40
0.7499999011912567
 40
0.7499999011912567
 40
0.8338760002918745
 40
0.8338760002918745
 40
0.9172104476944288
 40
0.9172104476944288
 40
1.0
 40
1.0
 40
1.0
 10
-264.58700000000005
 20
230.15365452674436
 30
0.0
 10
-264.58700000000005
 20
229.33603814573263
 30
0.0
 10
-264.1716787517318
 20
228.62796158922617
 30
0.0
 10
-263.75635750346356
 20
227.91988503271972
 30
0.0
 10
-263.03700000000003
 20
227.51107684221387
 30
0.0
 10
-262.31764249653651
 20
227.10226865170799
 30
0.0
 10
-261.48700000000002
 20
227.10226865170799
 30
0.0
 10
-260.65635750346354
 20
227.10226865170799
 30
0.0
 10
-259.93700000000001
 20
227.51107684221387
 30
0.0
 10
-259.21764249653648
 20
227.91988503271972
 30
0.0
 10
-258.80232124826824
 20
228.62796158922617
 30
0.0
 10
-258.387
 20
229.33603814573263
 30
0.0
 10
-258.387
 20
230.15365452674436
 30
0.0
 10
-258.387
 20
230.97127090775609
 30
0.0
 10
-258.80232124826824
 20
231.67934746426255
 30
0.0
 10
-259.21764249653648
 20
232.387424020769
 30
0.0
 10
-259.93700000000001
 20
232.79623221127486
 30
0.0
 10
-260.65635750346354
 20
233.20504040178074
 30
0.0
 10
-261.48700000000002
 20
233.20504040178074
 30
0.0
 10
-262.31764249653651
 20
233.20504040178074
 30
0.0
 10
-263.03700000000003
 20
232.79623221127486
 30
0.0
 10
-263.75635750346356
 20
232.387424020769
 30
0.0
 10
-264.1716787517318
 20
231.67934746426255
 30
0.0
 10
-264.58700000000005
 20
230.97127090775609
 30
0.0
 10
-264.58700000000005
 20
230.15365452674436
 30
0.0
  0
SPLINE
  5
349
100
AcDbEntity
  8
一般
370
               9
  6
Continuous
 62
               7
100
AcDbSpline
210
0.0
220
0.0
230
1.0
 70
               9
 71
               2
 72
              28
 73
              25
 74
               0
 42
0.000001
 43
0.000001
 40
0.0
 40
0.0
 40
0.0
 40
0.0827895013358994
 40
0.0827895013358994
 40
0.166123849961596
 40
0.166123849961596
 40
0.2499999011912566
 40
0.2499999011912566
 40
0.3338760002918734
 40
0.3338760002918734
 40
0.4172104476944294
 40
0.4172104476944294
 40
0.5000000000000009
 40
0.5000000000000009
 40
0.5827895013359004
 40
0.5827895013359004
 40
0.6661238499615969
 40
0.6661238499615969
 40
0.749999901191257
 40
0.749999901191257
 40
0.8338760002918738
 40
0.8338760002918738
 40
0.9172104476944288
 40
0.9172104476944288
 40
1.0
 40
1.0
 40
1.0
 10
-272.48700000000002
 20
230.15365452674436
 30
0.0
 10
-272.48700000000002
 20
229.33603814573263
 30
0.0
 10
-272.07167875173178
 20
228.6279615892262
 30
0.0
 10
-271.65635750346354
 20
227.91988503271978
 30
0.0
 10
-270.93700000000001
 20
227.51107684221392
 30
0.0
 10
-270.21764249653654
 20
227.10226865170804
 30
0.0
 10
-269.38700000000006
 20
227.10226865170804
 30
0.0
 10
-268.55635750346357
 20
227.10226865170804
 30
0.0
 10
-267.8370000000001
 20
227.51107684221392
 30
0.0
 10
-267.11764249653658
 20
227.91988503271978
 30
0.0
 10
-266.70232124826833
 20
228.62796158922623
 30
0.0
 10
-266.28700000000009
 20
229.33603814573266
 30
0.0
 10
-266.28700000000009
 20
230.15365452674439
 30
0.0
 10
-266.28700000000009
 20
230.97127090775609
 30
0.0
 10
-266.70232124826833
 20
231.67934746426255
 30
0.0
 10
-267.11764249653658
 20
232.38742402076898
 30
0.0
 10
-267.8370000000001
 20
232.79623221127483
 30
0.0
 10
-268.55635750346357
 20
233.20504040178068
 30
0.0
 10
-269.38700000000006
 20
233.20504040178068
 30
0.0
 10
-270.21764249653654
 20
233.20504040178068
 30
0.0
 10
-270.93700000000001
 20
232.7962322112748
 30
0.0
 10
-271.65635750346354
 20
232.38742402076895
 30
0.0
 10
-272.07167875173178
 20
231.67934746426252
 30
0.0
 10
-272.48700000000002
 20
230.97127090775609
 30
0.0
 10
-272.48700000000002
 20
230.15365452674436
 30
0.0
  0
SPLINE
  5
34A
100
AcDbEntity
  8
一般
370
               9
  6
Continuous
 62
               7
100
AcDbSpline
210
0.0
220
0.0
230
1.0
 70
               9
 71
               2
 72
              28
 73
              25
 74
               0
 42
0.000001
 43
0.000001
 40
0.0
 40
0.0
 40
0.0
 40
0.0827895013358991
 40
0.0827895013358991
 40
0.1661238499615954
 40
0.1661238499615954
 40
0.2499999011912568
 40
0.2499999011912568
 40
0.3338760002918744
 40
0.3338760002918744
 40
0.417210447694429
 40
0.417210447694429
 40
0.4999999999999999
 40
0.4999999999999999
 40
0.582789501335899
 40
0.582789501335899
 40
0.6661238499615952
 40
0.6661238499615952
 40
0.7499999011912567
 40
0.7499999011912567
 40
0.8338760002918744
 40
0.8338760002918744
 40
0.9172104476944289
 40
0.9172104476944289
 40
1.0
 40
1.0
 40
1.0
 10
-280.38700000000006
 20
230.15365452674436
 30
0.0
 10
-280.38700000000006
 20
229.33603814573263
 30
0.0
 10
-279.97167875173182
 20
228.62796158922617
 30
0.0
 10
-279.55635750346357
 20
227.91988503271972
 30
0.0
 10
-278.83700000000005
 20
227.51107684221387
 30
0.0
 10
-278.11764249653652
 20
227.10226865170799
 30
0.0
 10
-277.28700000000003
 20
227.10226865170799
 30
0.0
 10
-276.45635750346355
 20
227.10226865170799
 30
0.0
 10
-275.73700000000002
 20
227.51107684221387
 30
0.0
 10
-275.0176424965365
 20
227.91988503271972
 30
0.0
 10
-274.60232124826825
 20
228.62796158922617
 30
0.0
 10
-274.18700000000001
 20
229.33603814573263
 30
0.0
 10
-274.18700000000001
 20
230.15365452674436
 30
0.0
 10
-274.18700000000001
 20
230.97127090775609
 30
0.0
 10
-274.60232124826825
 20
231.67934746426255
 30
0.0
 10
-275.0176424965365
 20
232.387424020769
 30
0.0
 10
-275.73700000000002
 20
232.79623221127486
 30
0.0
 10
-276.45635750346355
 20
233.20504040178074
 30
0.0
 10
-277.28700000000003
 20
233.20504040178074
 30
0.0
 10
-278.11764249653652
 20
233.20504040178074
 30
0.0
 10
-278.83700000000005
 20
232.79623221127486
 30
0.0
 10
-279.55635750346357
 20
232.387424020769
 30
0.0
 10
-279.97167875173182
 20
231.67934746426255
 30
0.0
 10
-280.38700000000006
 20
230.97127090775609
 30
0.0
 10
-280.38700000000006
 20
230.15365452674436
 30
0.0
  0
SPLINE
  5
34B
100
AcDbEntity
  8
一般
370
               9
  6
Continuous
 62
               7
100
AcDbSpline
210
0.0
220
0.0
230
1.0
 70
               9
 71
               2
 72
              28
 73
              25
 74
               0
 42
0.000001
 43
0.000001
 40
0.0
 40
0.0
 40
0.0
 40
0.0827895013358991
 40
0.0827895013358991
 40
0.1661238499615954
 40
0.1661238499615954
 40
0.2499999011912568
 40
0.2499999011912568
 40
0.3338760002918744
 40
0.3338760002918744
 40
0.417210447694429
 40
0.417210447694429
 40
0.4999999999999999
 40
0.4999999999999999
 40
0.582789501335899
 40
0.582789501335899
 40
0.6661238499615952
 40
0.6661238499615952
 40
0.7499999011912567
 40
0.7499999011912567
 40
0.8338760002918744
 40
0.8338760002918744
 40
0.9172104476944289
 40
0.9172104476944289
 40
1.0
 40
1.0
 40
1.0
 10
-288.28700000000003
 20
230.15365452674436
 30
0.0
 10
-288.28700000000003
 20
229.33603814573263
 30
0.0
 10
-287.87167875173179
 20
228.62796158922617
 30
0.0
 10
-287.45635750346355
 20
227.91988503271972
 30
0.0
 10
-286.73700000000002
 20
227.51107684221387
 30
0.0
 10
-286.0176424965365
 20
227.10226865170799
 30
0.0
 10
-285.18700000000001
 20
227.10226865170799
 30
0.0
 10
-284.35635750346353
 20
227.10226865170799
 30
0.0
 10
-283.637
 20
227.51107684221387
 30
0.0
 10
-282.91764249653647
 20
227.91988503271972
 30
0.0
 10
-282.50232124826823
 20
228.62796158922617
 30
0.0
 10
-282.08699999999999
 20
229.33603814573263
 30
0.0
 10
-282.08699999999999
 20
230.15365452674436
 30
0.0
 10
-282.08699999999999
 20
230.97127090775609
 30
0.0
 10
-282.50232124826823
 20
231.67934746426255
 30
0.0
 10
-282.91764249653647
 20
232.387424020769
 30
0.0
 10
-283.637
 20
232.79623221127486
 30
0.0
 10
-284.35635750346353
 20
233.20504040178074
 30
0.0
 10
-285.18700000000001
 20
233.20504040178074
 30
0.0
 10
-286.0176424965365
 20
233.20504040178074
 30
0.0
 10
-286.73700000000002
 20
232.79623221127486
 30
0.0
 10
-287.45635750346355
 20
232.387424020769
 30
0.0
 10
-287.87167875173179
 20
231.67934746426255
 30
0.0
 10
-288.28700000000003
 20
230.97127090775609
 30
0.0
 10
-288.28700000000003
 20
230.15365452674436
 30
0.0
  0
SPLINE
  5
34C
100
AcDbEntity
  8
一般
370
               9
  6
Continuous
 62
               7
100
AcDbSpline
210
0.0
220
0.0
230
1.0
 70
               9
 71
               2
 72
              28
 73
              25
 74
               0
 42
0.000001
 43
0.000001
 40
0.0
 40
0.0
 40
0.0
 40
0.0827895013358993
 40
0.0827895013358993
 40
0.1661238499615935
 40
0.1661238499615935
 40
0.2499999011912567
 40
0.2499999011912567
 40
0.3338760002918761
 40
0.3338760002918761
 40
0.4172104476944297
 40
0.4172104476944297
 40
0.5000000000000009
 40
0.5000000000000009
 40
0.5827895013359001
 40
0.5827895013359001
 40
0.6661238499615942
 40
0.6661238499615942
 40
0.749999901191257
 40
0.749999901191257
 40
0.8338760002918765
 40
0.8338760002918765
 40
0.9172104476944291
 40
0.9172104476944291
 40
1.0
 40
1.0
 40
1.0
 10
-296.18700000000001
 20
230.15365452674436
 30
0.0
 10
-296.18700000000001
 20
229.33603814573263
 30
0.0
 10
-295.77167875173177
 20
228.6279615892262
 30
0.0
 10
-295.35635750346353
 20
227.91988503271978
 30
0.0
 10
-294.63700000000006
 20
227.51107684221392
 30
0.0
 10
-293.91764249653653
 20
227.10226865170804
 30
0.0
 10
-293.08700000000005
 20
227.10226865170804
 30
0.0
 10
-292.25635750346356
 20
227.10226865170804
 30
0.0
 10
-291.53700000000003
 20
227.51107684221392
 30
0.0
 10
-290.81764249653656
 20
227.91988503271978
 30
0.0
 10
-290.40232124826832
 20
228.62796158922623
 30
0.0
 10
-289.98700000000008
 20
229.33603814573266
 30
0.0
 10
-289.98700000000008
 20
230.15365452674439
 30
0.0
 10
-289.98700000000008
 20
230.97127090775609
 30
0.0
 10
-290.40232124826832
 20
231.67934746426255
 30
0.0
 10
-290.81764249653656
 20
232.38742402076898
 30
0.0
 10
-291.53700000000003
 20
232.79623221127483
 30
0.0
 10
-292.25635750346356
 20
233.20504040178068
 30
0.0
 10
-293.08700000000005
 20
233.20504040178068
 30
0.0
 10
-293.91764249653653
 20
233.20504040178068
 30
0.0
 10
-294.63700000000006
 20
232.7962322112748
 30
0.0
 10
-295.35635750346353
 20
232.38742402076895
 30
0.0
 10
-295.77167875173177
 20
231.67934746426252
 30
0.0
 10
-296.18700000000001
 20
230.97127090775609
 30
0.0
 10
-296.18700000000001
 20
230.15365452674436
 30
0.0
  0
SPLINE
  5
34D
100
AcDbEntity
  8
一般
370
               9
  6
Continuous
 62
               7
100
AcDbSpline
210
0.0
220
0.0
230
1.0
 70
               9
 71
               2
 72
              28
 73
              25
 74
               0
 42
0.000001
 43
0.000001
 40
0.0
 40
0.0
 40
0.0
 40
0.0827895013358992
 40
0.0827895013358992
 40
0.1661238499615951
 40
0.1661238499615951
 40
0.2499999011912568
 40
0.2499999011912568
 40
0.3338760002918746
 40
0.3338760002918746
 40
0.4172104476944289
 40
0.4172104476944289
 40
0.5
 40
0.5
 40
0.5827895013358991
 40
0.5827895013358991
 40
0.6661238499615951
 40
0.6661238499615951
 40
0.7499999011912567
 40
0.7499999011912567
 40
0.8338760002918745
 40
0.8338760002918745
 40
0.9172104476944288
 40
0.9172104476944288
 40
1.0
 40
1.0
 40
1.0
 10
-304.08700000000005
 20
230.15365452674436
 30
0.0
 10
-304.08700000000005
 20
229.33603814573263
 30
0.0
 10
-303.6716787517318
 20
228.62796158922617
 30
0.0
 10
-303.25635750346356
 20
227.91988503271972
 30
0.0
 10
-302.53700000000003
 20
227.51107684221387
 30
0.0
 10
-301.81764249653651
 20
227.10226865170799
 30
0.0
 10
-300.98700000000002
 20
227.10226865170799
 30
0.0
 10
-300.15635750346354
 20
227.10226865170799
 30
0.0
 10
-299.43700000000001
 20
227.51107684221387
 30
0.0
 10
-298.71764249653648
 20
227.91988503271972
 30
0.0
 10
-298.30232124826824
 20
228.62796158922617
 30
0.0
 10
-297.887
 20
229.33603814573263
 30
0.0
 10
-297.887
 20
230.15365452674436
 30
0.0
 10
-297.887
 20
230.97127090775609
 30
0.0
 10
-298.30232124826824
 20
231.67934746426255
 30
0.0
 10
-298.71764249653648
 20
232.387424020769
 30
0.0
 10
-299.43700000000001
 20
232.79623221127486
 30
0.0
 10
-300.15635750346354
 20
233.20504040178074
 30
0.0
 10
-300.98700000000002
 20
233.20504040178074
 30
0.0
 10
-301.81764249653651
 20
233.20504040178074
 30
0.0
 10
-302.53700000000003
 20
232.79623221127486
 30
0.0
 10
-303.25635750346356
 20
232.387424020769
 30
0.0
 10
-303.6716787517318
 20
231.67934746426255
 30
0.0
 10
-304.08700000000005
 20
230.97127090775609
 30
0.0
 10
-304.08700000000005
 20
230.15365452674436
 30
0.0
  0
POLYLINE
  5
34E
100
AcDbEntity
  8
一般
370
               9
  6
Continuous
 62
               7
100
AcDb2dPolyline
 66
               1
 10
0.0
 20
0.0
 30
0.0
 70
               1
 75
               5
  0
VERTEX
  5
34F
100
AcDbEntity
  8
一般
370
               9
  6
Continuous
 62
               7
100
AcDbVertex
100
AcDb2dVertex
 10
-312.01600000000002
 20
230.11329748775194
 30
0.0
  0
VERTEX
  5
350
100
AcDbEntity
  8
一般
370
               9
  6
Continuous
 62
               7
100
AcDbVertex
100
AcDb2dVertex
 10
-309.18700000000001
 20
232.89694886020445
 30
0.0
  0
VERTEX
  5
351
100
AcDbEntity
  8
一般
370
               9
  6
Continuous
 62
               7
100
AcDbVertex
100
AcDb2dVertex
 10
-306.35900000000004
 20
230.11329748775194
 30
0.0
  0
VERTEX
  5
352
100
AcDbEntity
  8
一般
370
               9
  6
Continuous
 62
               7
100
AcDbVertex
100
AcDb2dVertex
 10
-309.18700000000001
 20
227.3286617972752
 30
0.0
  0
SEQEND
  5
353
100
AcDbEntity
  8
一般
370
               9
  6
Continuous
 62
               7
  0
POLYLINE
  5
354
100
AcDbEntity
  8
一般
370
               9
  6
Continuous
 62
               7
100
AcDb2dPolyline
 66
               1
 10
0.0
 20
0.0
 30
0.0
 70
               1
 75
               5
  0
VERTEX
  5
355
100
AcDbEntity
  8
一般
370
               9
  6
Continuous
 62
               7
100
AcDbVertex
100
AcDb2dVertex
 10
-347.18700000000001
 20
235.4286148184604
 30
0.0
  0
VERTEX
  5
356
100
AcDbEntity
  8
一般
370
               9
  6
Continuous
 62
               7
100
AcDbVertex
100
AcDb2dVertex
 10
-319.18700000000001
 20
235.4286148184604
 30
0.0
  0
VERTEX
  5
357
100
AcDbEntity
  8
一般
370
               9
  6
Continuous
 62
               7
100
AcDbVertex
100
AcDb2dVertex
 10
-319.18700000000001
 20
224.60111655220237
 30
0.0
  0
VERTEX
  5
358
100
AcDbEntity
  8
一般
370
               9
  6
Continuous
 62
               7
100
AcDbVertex
100
AcDb2dVertex
 10
-347.18700000000001
 20
224.60111655220237
 30
0.0
  0
SEQEND
  5
359
100
AcDbEntity
  8
一般
370
               9
  6
Continuous
 62
               7
  0
LINE
  5
35A
100
AcDbEntity
  8
一般
370
               9
  6
Continuous
 62
               7
100
AcDbLine
 10
-330.68700000000001
 20
235.4286148184604
 30
0.0
 11
-330.68700000000001
 21
224.60111655220237
 31
0.0
  0
LINE
  5
35B
100
AcDbEntity
  8
一般
370
               9
  6
Continuous
 62
               7
100
AcDbLine
 10
-330.68700000000001
 20
228.04622963692083
 30
0.0
 11
-347.18700000000001
 21
228.04622963692083
 31
0.0
  0
SPLINE
  5
35C
100
AcDbEntity
  8
一般
370
               9
  6
Continuous
 62
               7
100
AcDbSpline
210
0.0
220
0.0
230
1.0
 70
               9
 71
               2
 72
              28
 73
              25
 74
               0
 42
0.000001
 43
0.000001
 40
0.0
 40
0.0
 40
0.0
 40
0.0837399495055636
 40
0.0837399495055636
 40
0.1676893337681404
 40
0.1676893337681404
 40
0.2512340852073635
 40
0.2512340852073635
 40
0.3341611454184065
 40
0.3341611454184065
 40
0.4168764362786885
 40
0.4168764362786885
 40
0.500000000000002
 40
0.500000000000002
 40
0.5837399495055644
 40
0.5837399495055644
 40
0.6676893337681409
 40
0.6676893337681409
 40
0.7512340852073655
 40
0.7512340852073655
 40
0.8341611454184085
 40
0.8341611454184085
 40
0.9168764362786881
 40
0.9168764362786881
 40
1.0
 40
1.0
 40
1.0
 10
-340.18700000000001
 20
230.40859289501356
 30
0.0
 10
-339.78507621135333
 20
230.07890887041205
 30
0.0
 10
-339.26953175473056
 20
229.99120454464614
 30
0.0
 10
-338.7539872981078
 20
229.90350021888023
 30
0.0
 10
-338.26296189432333
 20
230.08127589521166
 30
0.0
 10
-337.77193649053891
 20
230.25905157154307
 30
0.0
 10
-337.43700000000001
 20
230.65467240106486
 30
0.0
 10
-337.10206350946112
 20
231.05029323058665
 30
0.0
 10
-337.01296189432338
 20
231.55775293151956
 30
0.0
 10
-336.92386027918565
 20
232.06521263245247
 30
0.0
 10
-337.10446824526946
 20
232.54853778774017
 30
0.0
 10
-337.28507621135333
 20
233.03186294302787
 30
0.0
 10
-337.68700000000001
 20
233.36154696762938
 30
0.0
 10
-338.0889237886467
 20
233.69123099223089
 30
0.0
 10
-338.60446824526946
 20
233.77893531799677
 30
0.0
 10
-339.12001270189222
 20
233.86663964376265
 30
0.0
 10
-339.6110381056767
 20
233.68886396743125
 30
0.0
 10
-340.10206350946112
 20
233.51108829109984
 30
0.0
 10
-340.43700000000001
 20
233.11546746157802
 30
0.0
 10
-340.77193649053891
 20
232.71984663205623
 30
0.0
 10
-340.86103810567664
 20
232.21238693112332
 30
0.0
 10
-340.95013972081438
 20
231.70492723019044
 30
0.0
 10
-340.76953175473056
 20
231.22160207490273
 30
0.0
 10
-340.5889237886467
 20
230.73827691961503
 30
0.0
 10
-340.18700000000001
 20
230.40859289501356
 30
0.0
  0
LINE
  5
35D
100
AcDbEntity
  8
一般
370
               9
  6
Continuous
 62
               7
100
AcDbLine
 10
-342.18700000000001
 20
216.23441334645753
 30
0.0
 11
-351.58700000000005
 21
216.23441334645753
 31
0.0
  0
LINE
  5
35E
100
AcDbEntity
  8
一般
370
               9
  6
Continuous
 62
               7
100
AcDbLine
 10
-337.18700000000001
 20
206.68652851166638
 30
0.0
 11
-337.18700000000001
 21
211.31282322543115
 31
0.0
  0
LINE
  5
35F
100
AcDbEntity
  8
一般
370
               9
  6
Continuous
 62
               7
100
AcDbLine
 10
-351.58700000000005
 20
201.76493839064
 30
0.0
 11
-350.42000000000002
 21
201.76493839064
 31
0.0
  0
LINE
  5
360
100
AcDbEntity
  8
一般
370
               9
  6
Continuous
 62
               7
100
AcDbLine
 10
-343.37900000000002
 20
201.76493839064
 30
0.0
 11
-342.18700000000001
 21
201.76493839064
 31
0.0
  0
LINE
  5
361
100
AcDbEntity
  8
一般
370
               9
  6
Continuous
 62
               7
100
AcDbLine
 10
-356.58700000000005
 20
211.31282322543115
 30
0.0
 11
-356.58700000000005
 21
206.68652851166638
 31
0.0
  0
LINE
  5
362
100
AcDbEntity
  8
一般
370
               9
  6
Continuous
 62
               7
100
AcDbLine
 10
-337.18700000000001
 20
208.99967586854879
 30
0.0
 11
-343.38700000000006
 21
208.99967586854879
 31
0.0
  0
LINE
  5
363
100
AcDbEntity
  8
一般
370
               9
  6
Continuous
 62
               7
100
AcDbLine
 10
-352.38700000000006
 20
208.9858954162099
 30
0.0
 11
-356.58700000000005
 21
208.99967586854879
 31
0.0
  0
SPLINE
  5
364
100
AcDbEntity
  8
一般
370
               9
  6
Continuous
 62
               7
100
AcDbSpline
210
0.0
220
0.0
230
1.0
 70
               8
 71
               2
 72
              16
 73
              13
 74
               0
 42
0.000001
 43
0.000001
 40
0.0
 40
0.0
 40
0.0
 40
0.1655790026717981
 40
0.1655790026717981
 40
0.3322476999231905
 40
0.3322476999231905
 40
0.4999998023825135
 40
0.4999998023825135
 40
0.667752000583749
 40
0.667752000583749
 40
0.834420895388858
 40
0.834420895388858
 40
1.0
 40
1.0
 40
1.0
 10
-343.38700000000006
 20
208.99967586854879
 30
0.0
 10
-343.38700000000006
 20
209.92279113743299
 30
0.0
 10
-343.85591108675453
 20
210.72223241090802
 30
0.0
 10
-344.32482217350901
 20
211.52167368438305
 30
0.0
 10
-345.13700000000006
 20
211.98323131882515
 30
0.0
 10
-345.94917782649111
 20
212.44478895326725
 30
0.0
 10
-346.88700000000006
 20
212.44478895326725
 30
0.0
 10
-347.82482217350901
 20
212.44478895326725
 30
0.0
 10
-348.63700000000006
 20
211.98323131882515
 30
0.0
 10
-349.44917782649111
 20
211.52167368438305
 30
0.0
 10
-349.91808891324558
 20
210.72223241090802
 30
0.0
 10
-350.38700000000006
 20
209.92279113743302
 30
0.0
 10
-350.38700000000006
 20
208.99967586854879
 30
0.0
  0
LINE
  5
365
100
AcDbEntity
  8
一般
370
               9
  6
Continuous
 62
               7
100
AcDbLine
 10
-346.88700000000006
 20
212.44478895326725
 30
0.0
 11
-352.38700000000006
 21
212.44478895326725
 31
0.0
  0
LINE
  5
366
100
AcDbEntity
  8
一般
370
               9
  6
Continuous
 62
               7
100
AcDbLine
 10
-352.38700000000006
 20
212.44478895326725
 30
0.0
 11
-352.38700000000006
 21
208.9858954162099
 31
0.0
  0
SPLINE
  5
367
100
AcDbEntity
  8
一般
370
               9
  6
Continuous
 62
               7
100
AcDbSpline
210
0.0
220
0.0
230
1.0
 70
               8
 71
               2
 72
              10
 73
               7
 74
               0
 42
0.000001
 43
0.000001
 40
0.0
 40
0.0
 40
0.0
 40
0.3311581362288724
 40
0.3311581362288724
 40
0.6644956624783074
 40
0.6644956624783074
 40
1.0
 40
1.0
 40
1.0
 10
-337.18700000000001
 20
211.31282322543115
 30
0.0
 10
-337.18700000000001
 20
212.63155932383717
 30
0.0
 10
-337.8568729810778
 20
213.77361828594434
 30
0.0
 10
-338.52674596215564
 20
214.91567724805154
 30
0.0
 10
-339.68700000000001
 20
215.57504529725452
 30
0.0
 10
-340.84725403784438
 20
216.23441334645753
 30
0.0
 10
-342.18700000000001
 20
216.23441334645753
 30
0.0
  0
SPLINE
  5
368
100
AcDbEntity
  8
一般
370
               9
  6
Continuous
 62
               7
100
AcDbSpline
210
0.0
220
0.0
230
1.0
 70
               8
 71
               2
 72
              10
 73
               7
 74
               0
 42
0.000001
 43
0.000001
 40
0.0
 40
0.0
 40
0.0
 40
0.3355042637994534
 40
0.3355042637994534
 40
0.6688419216629689
 40
0.6688419216629689
 40
1.0
 40
1.0
 40
1.0
 10
-351.58700000000005
 20
216.23441334645753
 30
0.0
 10
-352.92674596215568
 20
216.23441334645753
 30
0.0
 10
-354.08700000000005
 20
215.57504529725452
 30
0.0
 10
-355.24725403784441
 20
214.91567724805154
 30
0.0
 10
-355.9171270189222
 20
213.77361828594434
 30
0.0
 10
-356.58700000000005
 20
212.63155932383717
 30
0.0
 10
-356.58700000000005
 20
211.31282322543115
 30
0.0
  0
SPLINE
  5
369
100
AcDbEntity
  8
一般
370
               9
  6
Continuous
 62
               7
100
AcDbSpline
210
0.0
220
0.0
230
1.0
 70
               8
 71
               2
 72
              10
 73
               7
 74
               0
 42
0.000001
 43
0.000001
 40
0.0
 40
0.0
 40
0.0
 40
0.3311581362288745
 40
0.3311581362288745
 40
0.6644956624783049
 40
0.6644956624783049
 40
1.0
 40
1.0
 40
1.0
 10
-356.58700000000005
 20
206.68652851166638
 30
0.0
 10
-356.58700000000005
 20
205.36779241326036
 30
0.0
 10
-355.9171270189222
 20
204.22573345115319
 30
0.0
 10
-355.24725403784441
 20
203.08367448904599
 30
0.0
 10
-354.08700000000005
 20
202.42430643984301
 30
0.0
 10
-352.92674596215568
 20
201.76493839064
 30
0.0
 10
-351.58700000000005
 20
201.76493839064
 30
0.0
  0
SPLINE
  5
36A
100
AcDbEntity
  8
一般
370
               9
  6
Continuous
 62
               7
100
AcDbSpline
210
0.0
220
0.0
230
1.0
 70
               8
 71
               2
 72
              10
 73
               7
 74
               0
 42
0.000001
 43
0.000001
 40
0.0
 40
0.0
 40
0.0
 40
0.335504263799451
 40
0.335504263799451
 40
0.6688419216629712
 40
0.6688419216629712
 40
1.0
 40
1.0
 40
1.0
 10
-342.18700000000001
 20
201.76493839064
 30
0.0
 10
-340.84725403784438
 20
201.76493839064
 30
0.0
 10
-339.68700000000001
 20
202.42430643984301
 30
0.0
 10
-338.52674596215564
 20
203.08367448904599
 30
0.0
 10
-337.8568729810778
 20
204.22573345115319
 30
0.0
 10
-337.18700000000001
 20
205.36779241326036
 30
0.0
 10
-337.18700000000001
 20
206.68652851166638
 30
0.0
  0
ENDBLK
  5
36B
100
AcDbEntity
  8
一般
100
AcDbBlockEnd
  0
BLOCK
  5
36C
100
AcDbEntity
  8
一般
100
AcDbBlockBegin
  2
*U42
 70
               1
 10
0.0
 20
0.0
 30
0.0
  3
*U42
  1

  0
LINE
  5
36D
100
AcDbEntity
  8
一般
370
               9
  6
Continuous
 62
               7
100
AcDbLine
 10
-343.38700000000006
 20
209.16199999999998
 30
0.0
 11
-343.32500000000005
 21
188.51199999999994
 31
0.0
  0
LINE
  5
36E
100
AcDbEntity
  8
一般
370
               9
  6
Continuous
 62
               7
100
AcDbLine
 10
-350.38700000000006
 20
209.16199999999998
 30
0.0
 11
-350.45700000000005
 21
188.11199999999997
 31
0.0
  0
INSERT
  5
36F
100
AcDbEntity
  8
一般
 62
               7
100
AcDbBlockReference
  2
*U41
 10
0.0
 20
0.0
 30
0.0
  0
ENDBLK
  5
370
100
AcDbEntity
  8
一般
100
AcDbBlockEnd
  0
BLOCK
  5
371
100
AcDbEntity
  8
寸法
100
AcDbBlockBegin
  2
*D43
 70
               1
 10
0.0
 20
0.0
 30
0.0
  3
*D43
  1

  0
LINE
  5
372
100
AcDbEntity
  8
寸法
370
              -2
  6
Continuous
 62
               0
100
AcDbLine
 10
411.35000000000002
 20
-174.05000000000001
 30
0.0
 11
459.69999999999999
 21
-174.05000000000001
 31
0.0
  0
LINE
  5
373
100
AcDbEntity
  8
寸法
370
              -2
  6
Continuous
 62
               0
100
AcDbLine
 10
411.35000000000002
 20
-218.05000000000001
 30
0.0
 11
459.69999999999999
 21
-218.05000000000001
 31
0.0
  0
LINE
  5
374
100
AcDbEntity
  8
寸法
370
              -2
  6
Continuous
 62
               0
100
AcDbLine
 10
447.0
 20
-167.70000000000002
 30
0.0
 11
447.0
 21
-174.05000000000001
 31
0.0
  0
LINE
  5
375
100
AcDbEntity
  8
寸法
370
              -2
  6
Continuous
 62
               0
100
AcDbLine
 10
447.0
 20
-218.05000000000001
 30
0.0
 11
447.0
 21
-224.40000000000001
 31
0.0
  0
LINE
  5
376
100
AcDbEntity
  8
寸法
370
              -2
  6
Continuous
 62
               0
100
AcDbLine
 10
447.0
 20
-174.05000000000001
 30
0.0
 11
447.0
 21
-218.05000000000001
 31
0.0
  0
LINE
  5
377
100
AcDbEntity
  8
寸法
370
              20
  6
Continuous
 62
               0
100
AcDbLine
 10
451.49012806053457
 20
-178.54012806053458
 30
0.0
 11
442.50987193946543
 21
-169.55987193946544
 31
0.0
  0
LINE
  5
378
100
AcDbEntity
  8
寸法
370
              20
  6
Continuous
 62
               0
100
AcDbLine
 10
442.50987193946543
 20
-213.55987193946544
 30
0.0
 11
451.49012806053457
 21
-222.54012806053458
 31
0.0
  0
MTEXT
  5
379
100
AcDbEntity
  8
寸法
 62
               0
100
AcDbMText
 10
426.53888888888889
 20
-204.23444471359252
 30
0.0
 40
11.28888888888889
 41
0.0
 71
               1
 72
               1
  1
44
  7
HGSｺﾞｼｯｸM
 11
0.0
 21
1.0
 31
0.0
 73
               1
 44
1.0
  0
POINT
  5
37A
100
AcDbEntity
  8
Defpoints
370
               0
 62
               0
100
AcDbPoint
 10
405.0
 20
-218.05000000000001
 30
0.0
  0
POINT
  5
37B
100
AcDbEntity
  8
Defpoints
370
               0
 62
               0
100
AcDbPoint
 10
405.0
 20
-174.05000000000001
 30
0.0
  0
POINT
  5
37C
100
AcDbEntity
  8
Defpoints
370
               0
 62
               0
100
AcDbPoint
 10
447.0
 20
-174.05000000000001
 30
0.0
  0
ENDBLK
  5
37D
100
AcDbEntity
  8
寸法
100
AcDbBlockEnd
  0
BLOCK
  5
37E
100
AcDbEntity
  8
一般
100
AcDbBlockBegin
  2
*U44
 70
               1
 10
0.0
 20
0.0
 30
0.0
  3
*U44
  1

  0
WIPEOUT
  5
37F
100
AcDbEntity
  8
一般
370
               5
  6
Continuous
 62
               7
 92
        0
100
AcDbWipeout
 90
        0
 10
-241.99999999999997
 20
91.0
 30
0.0
 11
13.019000000000005
 21
0.0
 31
0.0
 12
0.0
 22
13.019000000000005
 32
0.0
 13
1.0
 23
1.0
340
0
 70
               7
280
               1
281
              50
282
              50
283
               0
360
0
 71
               2
 91
        5
 14
-0.5
 24
0.5
 14
-0.3994162378062821
 24
0.2695675551117598
 14
0.3994162378062864
 24
0.2695675551117598
 14
0.5
 24
0.5
 14
-0.5
 24
0.5
  0
POLYLINE
  5
380
100
AcDbEntity
  8
一般
370
               5
  6
Continuous
 62
               7
100
AcDb2dPolyline
 66
               1
 10
0.0
 20
0.0
 30
0.0
 70
               1
 75
               5
  0
VERTEX
  5
381
100
AcDbEntity
  8
一般
370
               5
  6
Continuous
 62
               7
100
AcDbVertex
100
AcDb2dVertex
 10
-241.99999999999997
 20
91.0
 30
0.0
  0
VERTEX
  5
382
100
AcDbEntity
  8
一般
370
               5
  6
Continuous
 62
               7
100
AcDbVertex
100
AcDb2dVertex
 10
-240.69049999999996
 20
94.0
 30
0.0
  0
VERTEX
  5
383
100
AcDbEntity
  8
一般
370
               5
  6
Continuous
 62
               7
100
AcDbVertex
100
AcDb2dVertex
 10
-230.29049999999992
 20
94.0
 30
0.0
  0
VERTEX
  5
384
100
AcDbEntity
  8
一般
370
               5
  6
Continuous
 62
               7
100
AcDbVertex
100
AcDb2dVertex
 10
-228.98099999999997
 20
91.0
 30
0.0
  0
SEQEND
  5
385
100
AcDbEntity
  8
一般
370
               5
  6
Continuous
 62
               7
  0
WIPEOUT
  5
386
100
AcDbEntity
  8
一般
370
               5
  6
Continuous
 62
               7
 92
        0
100
AcDbWipeout
 90
        0
 10
-223.29999999999998
 20
91.0
 30
0.0
 11
13.018999999999949
 21
0.0
 31
0.0
 12
0.0
 22
13.018999999999949
 32
0.0
 13
1.0
 23
1.0
340
0
 70
               7
280
               1
281
              50
282
              50
283
               0
360
0
 71
               2
 91
        5
 14
-0.5
 24
0.5
 14
-0.3994162378062817
 24
0.2695675551117588
 14
0.399416237806286
 24
0.2695675551117588
 14
0.5
 24
0.5
 14
-0.5
 24
0.5
  0
POLYLINE
  5
387
100
AcDbEntity
  8
一般
370
               5
  6
Continuous
 62
               7
100
AcDb2dPolyline
 66
               1
 10
0.0
 20
0.0
 30
0.0
 70
               1
 75
               5
  0
VERTEX
  5
388
100
AcDbEntity
  8
一般
370
               5
  6
Continuous
 62
               7
100
AcDbVertex
100
AcDb2dVertex
 10
-223.29999999999998
 20
91.0
 30
0.0
  0
VERTEX
  5
389
100
AcDbEntity
  8
一般
370
               5
  6
Continuous
 62
               7
100
AcDbVertex
100
AcDb2dVertex
 10
-221.99049999999997
 20
94.0
 30
0.0
  0
VERTEX
  5
38A
100
AcDbEntity
  8
一般
370
               5
  6
Continuous
 62
               7
100
AcDbVertex
100
AcDb2dVertex
 10
-211.59049999999999
 20
94.0
 30
0.0
  0
VERTEX
  5
38B
100
AcDbEntity
  8
一般
370
               5
  6
Continuous
 62
               7
100
AcDbVertex
100
AcDb2dVertex
 10
-210.28100000000003
 20
91.0
 30
0.0
  0
SEQEND
  5
38C
100
AcDbEntity
  8
一般
370
               5
  6
Continuous
 62
               7
  0
WIPEOUT
  5
38D
100
AcDbEntity
  8
一般
370
               5
  6
Continuous
 62
               7
 92
        0
100
AcDbWipeout
 90
        0
 10
-204.59999999999999
 20
91.0
 30
0.0
 11
13.01899999999992
 21
0.0
 31
0.0
 12
0.0
 22
13.01899999999992
 32
0.0
 13
1.0
 23
1.0
340
0
 70
               7
280
               1
281
              50
282
              50
283
               0
360
0
 71
               2
 91
        5
 14
-0.5
 24
0.5
 14
-0.3994162378062858
 24
0.2695675551117583
 14
0.3994162378062858
 24
0.2695675551117583
 14
0.5
 24
0.5
 14
-0.5
 24
0.5
  0
POLYLINE
  5
38E
100
AcDbEntity
  8
一般
370
               5
  6
Continuous
 62
               7
100
AcDb2dPolyline
 66
               1
 10
0.0
 20
0.0
 30
0.0
 70
               1
 75
               5
  0
VERTEX
  5
38F
100
AcDbEntity
  8
一般
370
               5
  6
Continuous
 62
               7
100
AcDbVertex
100
AcDb2dVertex
 10
-204.59999999999999
 20
91.0
 30
0.0
  0
VERTEX
  5
390
100
AcDbEntity
  8
一般
370
               5
  6
Continuous
 62
               7
100
AcDbVertex
100
AcDb2dVertex
 10
-203.29050000000004
 20
94.0
 30
0.0
  0
VERTEX
  5
391
100
AcDbEntity
  8
一般
370
               5
  6
Continuous
 62
               7
100
AcDbVertex
100
AcDb2dVertex
 10
-192.89050000000003
 20
94.0
 30
0.0
  0
VERTEX
  5
392
100
AcDbEntity
  8
一般
370
               5
  6
Continuous
 62
               7
100
AcDbVertex
100
AcDb2dVertex
 10
-191.58100000000007
 20
91.0
 30
0.0
  0
SEQEND
  5
393
100
AcDbEntity
  8
一般
370
               5
  6
Continuous
 62
               7
  0
WIPEOUT
  5
394
100
AcDbEntity
  8
一般
370
               5
  6
Continuous
 62
               7
 92
        0
100
AcDbWipeout
 90
        0
 10
-185.90000000000001
 20
91.0
 30
0.0
 11
13.018999999999949
 21
0.0
 31
0.0
 12
0.0
 22
13.018999999999949
 32
0.0
 13
1.0
 23
1.0
340
0
 70
               7
280
               1
281
              50
282
              50
283
               0
360
0
 71
               2
 91
        5
 14
-0.5
 24
0.5
 14
-0.3994162378062838
 24
0.2695675551117588
 14
0.399416237806286
 24
0.2695675551117588
 14
0.5
 24
0.5
 14
-0.5
 24
0.5
  0
POLYLINE
  5
395
100
AcDbEntity
  8
一般
370
               5
  6
Continuous
 62
               7
100
AcDb2dPolyline
 66
               1
 10
0.0
 20
0.0
 30
0.0
 70
               1
 75
               5
  0
VERTEX
  5
396
100
AcDbEntity
  8
一般
370
               5
  6
Continuous
 62
               7
100
AcDbVertex
100
AcDb2dVertex
 10
-185.90000000000001
 20
91.0
 30
0.0
  0
VERTEX
  5
397
100
AcDbEntity
  8
一般
370
               5
  6
Continuous
 62
               7
100
AcDbVertex
100
AcDb2dVertex
 10
-184.59050000000002
 20
94.0
 30
0.0
  0
VERTEX
  5
398
100
AcDbEntity
  8
一般
370
               5
  6
Continuous
 62
               7
100
AcDbVertex
100
AcDb2dVertex
 10
-174.19050000000001
 20
94.0
 30
0.0
  0
VERTEX
  5
399
100
AcDbEntity
  8
一般
370
               5
  6
Continuous
 62
               7
100
AcDbVertex
100
AcDb2dVertex
 10
-172.88100000000006
 20
91.0
 30
0.0
  0
SEQEND
  5
39A
100
AcDbEntity
  8
一般
370
               5
  6
Continuous
 62
               7
  0
WIPEOUT
  5
39B
100
AcDbEntity
  8
一般
370
               5
  6
Continuous
 62
               7
 92
        0
100
AcDbWipeout
 90
        0
 10
-167.20000000000005
 20
91.0
 30
0.0
 11
13.018999999999949
 21
0.0
 31
0.0
 12
0.0
 22
13.018999999999949
 32
0.0
 13
1.0
 23
1.0
340
0
 70
               7
280
               1
281
              50
282
              50
283
               0
360
0
 71
               2
 91
        5
 14
-0.5
 24
0.5
 14
-0.3994162378062838
 24
0.2695675551117588
 14
0.399416237806286
 24
0.2695675551117588
 14
0.5
 24
0.5
 14
-0.5
 24
0.5
  0
POLYLINE
  5
39C
100
AcDbEntity
  8
一般
370
               5
  6
Continuous
 62
               7
100
AcDb2dPolyline
 66
               1
 10
0.0
 20
0.0
 30
0.0
 70
               1
 75
               5
  0
VERTEX
  5
39D
100
AcDbEntity
  8
一般
370
               5
  6
Continuous
 62
               7
100
AcDbVertex
100
AcDb2dVertex
 10
-167.20000000000005
 20
91.0
 30
0.0
  0
VERTEX
  5
39E
100
AcDbEntity
  8
一般
370
               5
  6
Continuous
 62
               7
100
AcDbVertex
100
AcDb2dVertex
 10
-165.89050000000006
 20
94.0
 30
0.0
  0
VERTEX
  5
39F
100
AcDbEntity
  8
一般
370
               5
  6
Continuous
 62
               7
100
AcDbVertex
100
AcDb2dVertex
 10
-155.49050000000005
 20
94.0
 30
0.0
  0
VERTEX
  5
3A0
100
AcDbEntity
  8
一般
370
               5
  6
Continuous
 62
               7
100
AcDbVertex
100
AcDb2dVertex
 10
-154.1810000000001
 20
91.0
 30
0.0
  0
SEQEND
  5
3A1
100
AcDbEntity
  8
一般
370
               5
  6
Continuous
 62
               7
  0
WIPEOUT
  5
3A2
100
AcDbEntity
  8
一般
370
               5
  6
Continuous
 62
               7
 92
        0
100
AcDbWipeout
 90
        0
 10
-148.50000000000009
 20
91.0
 30
0.0
 11
13.018999999999949
 21
0.0
 31
0.0
 12
0.0
 22
13.018999999999949
 32
0.0
 13
1.0
 23
1.0
340
0
 70
               7
280
               1
281
              50
282
              50
283
               0
360
0
 71
               2
 91
        5
 14
-0.5
 24
0.5
 14
-0.3994162378062838
 24
0.2695675551117588
 14
0.399416237806286
 24
0.2695675551117588
 14
0.5
 24
0.5
 14
-0.5
 24
0.5
  0
POLYLINE
  5
3A3
100
AcDbEntity
  8
一般
370
               5
  6
Continuous
 62
               7
100
AcDb2dPolyline
 66
               1
 10
0.0
 20
0.0
 30
0.0
 70
               1
 75
               5
  0
VERTEX
  5
3A4
100
AcDbEntity
  8
一般
370
               5
  6
Continuous
 62
               7
100
AcDbVertex
100
AcDb2dVertex
 10
-148.50000000000009
 20
91.0
 30
0.0
  0
VERTEX
  5
3A5
100
AcDbEntity
  8
一般
370
               5
  6
Continuous
 62
               7
100
AcDbVertex
100
AcDb2dVertex
 10
-147.1905000000001
 20
94.0
 30
0.0
  0
VERTEX
  5
3A6
100
AcDbEntity
  8
一般
370
               5
  6
Continuous
 62
               7
100
AcDbVertex
100
AcDb2dVertex
 10
-136.79050000000009
 20
94.0
 30
0.0
  0
VERTEX
  5
3A7
100
AcDbEntity
  8
一般
370
               5
  6
Continuous
 62
               7
100
AcDbVertex
100
AcDb2dVertex
 10
-135.48100000000014
 20
91.0
 30
0.0
  0
SEQEND
  5
3A8
100
AcDbEntity
  8
一般
370
               5
  6
Continuous
 62
               7
  0
WIPEOUT
  5
3A9
100
AcDbEntity
  8
一般
370
               5
  6
Continuous
 62
               7
 92
        0
100
AcDbWipeout
 90
        0
 10
-129.80000000000013
 20
91.0
 30
0.0
 11
13.018999999999949
 21
0.0
 31
0.0
 12
0.0
 22
13.018999999999949
 32
0.0
 13
1.0
 23
1.0
340
0
 70
               7
280
               1
281
              50
282
              50
283
               0
360
0
 71
               2
 91
        5
 14
-0.5
 24
0.5
 14
-0.3994162378062838
 24
0.2695675551117588
 14
0.399416237806286
 24
0.2695675551117588
 14
0.5
 24
0.5
 14
-0.5
 24
0.5
  0
POLYLINE
  5
3AA
100
AcDbEntity
  8
一般
370
               5
  6
Continuous
 62
               7
100
AcDb2dPolyline
 66
               1
 10
0.0
 20
0.0
 30
0.0
 70
               1
 75
               5
  0
VERTEX
  5
3AB
100
AcDbEntity
  8
一般
370
               5
  6
Continuous
 62
               7
100
AcDbVertex
100
AcDb2dVertex
 10
-129.80000000000013
 20
91.0
 30
0.0
  0
VERTEX
  5
3AC
100
AcDbEntity
  8
一般
370
               5
  6
Continuous
 62
               7
100
AcDbVertex
100
AcDb2dVertex
 10
-128.49050000000014
 20
94.0
 30
0.0
  0
VERTEX
  5
3AD
100
AcDbEntity
  8
一般
370
               5
  6
Continuous
 62
               7
100
AcDbVertex
100
AcDb2dVertex
 10
-118.09050000000013
 20
94.0
 30
0.0
  0
VERTEX
  5
3AE
100
AcDbEntity
  8
一般
370
               5
  6
Continuous
 62
               7
100
AcDbVertex
100
AcDb2dVertex
 10
-116.78100000000018
 20
91.0
 30
0.0
  0
SEQEND
  5
3AF
100
AcDbEntity
  8
一般
370
               5
  6
Continuous
 62
               7
  0
WIPEOUT
  5
3B0
100
AcDbEntity
  8
一般
370
               5
  6
Continuous
 62
               7
 92
        0
100
AcDbWipeout
 90
        0
 10
-111.10000000000016
 20
91.0
 30
0.0
 11
13.018999999999949
 21
0.0
 31
0.0
 12
0.0
 22
13.018999999999949
 32
0.0
 13
1.0
 23
1.0
340
0
 70
               7
280
               1
281
              50
282
              50
283
               0
360
0
 71
               2
 91
        5
 14
-0.5
 24
0.5
 14
-0.3994162378062838
 24
0.2695675551117588
 14
0.399416237806286
 24
0.2695675551117588
 14
0.5
 24
0.5
 14
-0.5
 24
0.5
  0
POLYLINE
  5
3B1
100
AcDbEntity
  8
一般
370
               5
  6
Continuous
 62
               7
100
AcDb2dPolyline
 66
               1
 10
0.0
 20
0.0
 30
0.0
 70
               1
 75
               5
  0
VERTEX
  5
3B2
100
AcDbEntity
  8
一般
370
               5
  6
Continuous
 62
               7
100
AcDbVertex
100
AcDb2dVertex
 10
-111.10000000000016
 20
91.0
 30
0.0
  0
VERTEX
  5
3B3
100
AcDbEntity
  8
一般
370
               5
  6
Continuous
 62
               7
100
AcDbVertex
100
AcDb2dVertex
 10
-109.79050000000018
 20
94.0
 30
0.0
  0
VERTEX
  5
3B4
100
AcDbEntity
  8
一般
370
               5
  6
Continuous
 62
               7
100
AcDbVertex
100
AcDb2dVertex
 10
-99.390500000000173
 20
94.0
 30
0.0
  0
VERTEX
  5
3B5
100
AcDbEntity
  8
一般
370
               5
  6
Continuous
 62
               7
100
AcDbVertex
100
AcDb2dVertex
 10
-98.081000000000216
 20
91.0
 30
0.0
  0
SEQEND
  5
3B6
100
AcDbEntity
  8
一般
370
               5
  6
Continuous
 62
               7
  0
WIPEOUT
  5
3B7
100
AcDbEntity
  8
一般
370
               5
  6
Continuous
 62
               7
 92
        0
100
AcDbWipeout
 90
        0
 10
-92.400000000000205
 20
91.0
 30
0.0
 11
13.018999999999949
 21
0.0
 31
0.0
 12
0.0
 22
13.018999999999949
 32
0.0
 13
1.0
 23
1.0
340
0
 70
               7
280
               1
281
              50
282
              50
283
               0
360
0
 71
               2
 91
        5
 14
-0.5
 24
0.5
 14
-0.3994162378062838
 24
0.2695675551117588
 14
0.399416237806286
 24
0.2695675551117588
 14
0.5
 24
0.5
 14
-0.5
 24
0.5
  0
POLYLINE
  5
3B8
100
AcDbEntity
  8
一般
370
               5
  6
Continuous
 62
               7
100
AcDb2dPolyline
 66
               1
 10
0.0
 20
0.0
 30
0.0
 70
               1
 75
               5
  0
VERTEX
  5
3B9
100
AcDbEntity
  8
一般
370
               5
  6
Continuous
 62
               7
100
AcDbVertex
100
AcDb2dVertex
 10
-92.400000000000205
 20
91.0
 30
0.0
  0
VERTEX
  5
3BA
100
AcDbEntity
  8
一般
370
               5
  6
Continuous
 62
               7
100
AcDbVertex
100
AcDb2dVertex
 10
-91.090500000000219
 20
94.0
 30
0.0
  0
VERTEX
  5
3BB
100
AcDbEntity
  8
一般
370
               5
  6
Continuous
 62
               7
100
AcDbVertex
100
AcDb2dVertex
 10
-80.690500000000213
 20
94.0
 30
0.0
  0
VERTEX
  5
3BC
100
AcDbEntity
  8
一般
370
               5
  6
Continuous
 62
               7
100
AcDbVertex
100
AcDb2dVertex
 10
-79.381000000000256
 20
91.0
 30
0.0
  0
SEQEND
  5
3BD
100
AcDbEntity
  8
一般
370
               5
  6
Continuous
 62
               7
  0
WIPEOUT
  5
3BE
100
AcDbEntity
  8
一般
370
               5
  6
Continuous
 62
               7
 92
        0
100
AcDbWipeout
 90
        0
 10
-73.700000000000244
 20
91.0
 30
0.0
 11
13.018999999999949
 21
0.0
 31
0.0
 12
0.0
 22
13.018999999999949
 32
0.0
 13
1.0
 23
1.0
340
0
 70
               7
280
               1
281
              50
282
              50
283
               0
360
0
 71
               2
 91
        5
 14
-0.5
 24
0.5
 14
-0.3994162378062838
 24
0.2695675551117588
 14
0.399416237806286
 24
0.2695675551117588
 14
0.5
 24
0.5
 14
-0.5
 24
0.5
  0
POLYLINE
  5
3BF
100
AcDbEntity
  8
一般
370
               5
  6
Continuous
 62
               7
100
AcDb2dPolyline
 66
               1
 10
0.0
 20
0.0
 30
0.0
 70
               1
 75
               5
  0
VERTEX
  5
3C0
100
AcDbEntity
  8
一般
370
               5
  6
Continuous
 62
               7
100
AcDbVertex
100
AcDb2dVertex
 10
-73.700000000000244
 20
91.0
 30
0.0
  0
VERTEX
  5
3C1
100
AcDbEntity
  8
一般
370
               5
  6
Continuous
 62
               7
100
AcDbVertex
100
AcDb2dVertex
 10
-72.390500000000259
 20
94.0
 30
0.0
  0
VERTEX
  5
3C2
100
AcDbEntity
  8
一般
370
               5
  6
Continuous
 62
               7
100
AcDbVertex
100
AcDb2dVertex
 10
-61.990500000000253
 20
94.0
 30
0.0
  0
VERTEX
  5
3C3
100
AcDbEntity
  8
一般
370
               5
  6
Continuous
 62
               7
100
AcDbVertex
100
AcDb2dVertex
 10
-60.681000000000296
 20
91.0
 30
0.0
  0
SEQEND
  5
3C4
100
AcDbEntity
  8
一般
370
               5
  6
Continuous
 62
               7
  0
WIPEOUT
  5
3C5
100
AcDbEntity
  8
一般
370
               5
  6
Continuous
 62
               7
 92
        0
100
AcDbWipeout
 90
        0
 10
-55.000000000000284
 20
91.0
 30
0.0
 11
13.018999999999949
 21
0.0
 31
0.0
 12
0.0
 22
13.018999999999949
 32
0.0
 13
1.0
 23
1.0
340
0
 70
               7
280
               1
281
              50
282
              50
283
               0
360
0
 71
               2
 91
        5
 14
-0.5
 24
0.5
 14
-0.3994162378062838
 24
0.2695675551117588
 14
0.399416237806286
 24
0.2695675551117588
 14
0.5
 24
0.5
 14
-0.5
 24
0.5
  0
POLYLINE
  5
3C6
100
AcDbEntity
  8
一般
370
               5
  6
Continuous
 62
               7
100
AcDb2dPolyline
 66
               1
 10
0.0
 20
0.0
 30
0.0
 70
               1
 75
               5
  0
VERTEX
  5
3C7
100
AcDbEntity
  8
一般
370
               5
  6
Continuous
 62
               7
100
AcDbVertex
100
AcDb2dVertex
 10
-55.000000000000284
 20
91.0
 30
0.0
  0
VERTEX
  5
3C8
100
AcDbEntity
  8
一般
370
               5
  6
Continuous
 62
               7
100
AcDbVertex
100
AcDb2dVertex
 10
-53.690500000000299
 20
94.0
 30
0.0
  0
VERTEX
  5
3C9
100
AcDbEntity
  8
一般
370
               5
  6
Continuous
 62
               7
100
AcDbVertex
100
AcDb2dVertex
 10
-43.290500000000293
 20
94.0
 30
0.0
  0
VERTEX
  5
3CA
100
AcDbEntity
  8
一般
370
               5
  6
Continuous
 62
               7
100
AcDbVertex
100
AcDb2dVertex
 10
-41.981000000000336
 20
91.0
 30
0.0
  0
SEQEND
  5
3CB
100
AcDbEntity
  8
一般
370
               5
  6
Continuous
 62
               7
  0
WIPEOUT
  5
3CC
100
AcDbEntity
  8
一般
370
               5
  6
Continuous
 62
               7
 92
        0
100
AcDbWipeout
 90
        0
 10
-36.300000000000324
 20
91.0
 30
0.0
 11
13.018999999999949
 21
0.0
 31
0.0
 12
0.0
 22
13.018999999999949
 32
0.0
 13
1.0
 23
1.0
340
0
 70
               7
280
               1
281
              50
282
              50
283
               0
360
0
 71
               2
 91
        5
 14
-0.5
 24
0.5
 14
-0.3994162378062838
 24
0.2695675551117588
 14
0.399416237806286
 24
0.2695675551117588
 14
0.5
 24
0.5
 14
-0.5
 24
0.5
  0
POLYLINE
  5
3CD
100
AcDbEntity
  8
一般
370
               5
  6
Continuous
 62
               7
100
AcDb2dPolyline
 66
               1
 10
0.0
 20
0.0
 30
0.0
 70
               1
 75
               5
  0
VERTEX
  5
3CE
100
AcDbEntity
  8
一般
370
               5
  6
Continuous
 62
               7
100
AcDbVertex
100
AcDb2dVertex
 10
-36.300000000000324
 20
91.0
 30
0.0
  0
VERTEX
  5
3CF
100
AcDbEntity
  8
一般
370
               5
  6
Continuous
 62
               7
100
AcDbVertex
100
AcDb2dVertex
 10
-34.990500000000338
 20
94.0
 30
0.0
  0
VERTEX
  5
3D0
100
AcDbEntity
  8
一般
370
               5
  6
Continuous
 62
               7
100
AcDbVertex
100
AcDb2dVertex
 10
-24.590500000000333
 20
94.0
 30
0.0
  0
VERTEX
  5
3D1
100
AcDbEntity
  8
一般
370
               5
  6
Continuous
 62
               7
100
AcDbVertex
100
AcDb2dVertex
 10
-23.281000000000375
 20
91.0
 30
0.0
  0
SEQEND
  5
3D2
100
AcDbEntity
  8
一般
370
               5
  6
Continuous
 62
               7
  0
WIPEOUT
  5
3D3
100
AcDbEntity
  8
一般
370
               5
  6
Continuous
 62
               7
 92
        0
100
AcDbWipeout
 90
        0
 10
-17.600000000000364
 20
91.0
 30
0.0
 11
13.018999999999949
 21
0.0
 31
0.0
 12
0.0
 22
13.018999999999949
 32
0.0
 13
1.0
 23
1.0
340
0
 70
               7
280
               1
281
              50
282
              50
283
               0
360
0
 71
               2
 91
        5
 14
-0.5
 24
0.5
 14
-0.3994162378062838
 24
0.2695675551117588
 14
0.399416237806286
 24
0.2695675551117588
 14
0.5
 24
0.5
 14
-0.5
 24
0.5
  0
POLYLINE
  5
3D4
100
AcDbEntity
  8
一般
370
               5
  6
Continuous
 62
               7
100
AcDb2dPolyline
 66
               1
 10
0.0
 20
0.0
 30
0.0
 70
               1
 75
               5
  0
VERTEX
  5
3D5
100
AcDbEntity
  8
一般
370
               5
  6
Continuous
 62
               7
100
AcDbVertex
100
AcDb2dVertex
 10
-17.600000000000364
 20
91.0
 30
0.0
  0
VERTEX
  5
3D6
100
AcDbEntity
  8
一般
370
               5
  6
Continuous
 62
               7
100
AcDbVertex
100
AcDb2dVertex
 10
-16.290500000000378
 20
94.0
 30
0.0
  0
VERTEX
  5
3D7
100
AcDbEntity
  8
一般
370
               5
  6
Continuous
 62
               7
100
AcDbVertex
100
AcDb2dVertex
 10
-5.8905000000003724
 20
94.0
 30
0.0
  0
VERTEX
  5
3D8
100
AcDbEntity
  8
一般
370
               5
  6
Continuous
 62
               7
100
AcDbVertex
100
AcDb2dVertex
 10
-4.5810000000004152
 20
91.0
 30
0.0
  0
SEQEND
  5
3D9
100
AcDbEntity
  8
一般
370
               5
  6
Continuous
 62
               7
  0
WIPEOUT
  5
3DA
100
AcDbEntity
  8
一般
370
               5
  6
Continuous
 62
               7
 92
        0
100
AcDbWipeout
 90
        0
 10
1.0999999999995964
 20
91.0
 30
0.0
 11
13.018999999999949
 21
0.0
 31
0.0
 12
0.0
 22
13.018999999999949
 32
0.0
 13
1.0
 23
1.0
340
0
 70
               7
280
               1
281
              50
282
              50
283
               0
360
0
 71
               2
 91
        5
 14
-0.5
 24
0.5
 14
-0.3994162378062838
 24
0.2695675551117588
 14
0.399416237806286
 24
0.2695675551117588
 14
0.5
 24
0.5
 14
-0.5
 24
0.5
  0
POLYLINE
  5
3DB
100
AcDbEntity
  8
一般
370
               5
  6
Continuous
 62
               7
100
AcDb2dPolyline
 66
               1
 10
0.0
 20
0.0
 30
0.0
 70
               1
 75
               5
  0
VERTEX
  5
3DC
100
AcDbEntity
  8
一般
370
               5
  6
Continuous
 62
               7
100
AcDbVertex
100
AcDb2dVertex
 10
1.0999999999995964
 20
91.0
 30
0.0
  0
VERTEX
  5
3DD
100
AcDbEntity
  8
一般
370
               5
  6
Continuous
 62
               7
100
AcDbVertex
100
AcDb2dVertex
 10
2.4094999999995821
 20
94.0
 30
0.0
  0
VERTEX
  5
3DE
100
AcDbEntity
  8
一般
370
               5
  6
Continuous
 62
               7
100
AcDbVertex
100
AcDb2dVertex
 10
12.809499999999588
 20
94.0
 30
0.0
  0
VERTEX
  5
3DF
100
AcDbEntity
  8
一般
370
               5
  6
Continuous
 62
               7
100
AcDbVertex
100
AcDb2dVertex
 10
14.118999999999545
 20
91.0
 30
0.0
  0
SEQEND
  5
3E0
100
AcDbEntity
  8
一般
370
               5
  6
Continuous
 62
               7
  0
WIPEOUT
  5
3E1
100
AcDbEntity
  8
一般
370
               5
  6
Continuous
 62
               7
 92
        0
100
AcDbWipeout
 90
        0
 10
19.799999999999557
 20
91.0
 30
0.0
 11
13.018999999999949
 21
0.0
 31
0.0
 12
0.0
 22
13.018999999999949
 32
0.0
 13
1.0
 23
1.0
340
0
 70
               7
280
               1
281
              50
282
              50
283
               0
360
0
 71
               2
 91
        5
 14
-0.5
 24
0.5
 14
-0.3994162378062838
 24
0.2695675551117588
 14
0.399416237806286
 24
0.2695675551117588
 14
0.5
 24
0.5
 14
-0.5
 24
0.5
  0
POLYLINE
  5
3E2
100
AcDbEntity
  8
一般
370
               5
  6
Continuous
 62
               7
100
AcDb2dPolyline
 66
               1
 10
0.0
 20
0.0
 30
0.0
 70
               1
 75
               5
  0
VERTEX
  5
3E3
100
AcDbEntity
  8
一般
370
               5
  6
Continuous
 62
               7
100
AcDbVertex
100
AcDb2dVertex
 10
19.799999999999557
 20
91.0
 30
0.0
  0
VERTEX
  5
3E4
100
AcDbEntity
  8
一般
370
               5
  6
Continuous
 62
               7
100
AcDbVertex
100
AcDb2dVertex
 10
21.109499999999542
 20
94.0
 30
0.0
  0
VERTEX
  5
3E5
100
AcDbEntity
  8
一般
370
               5
  6
Continuous
 62
               7
100
AcDbVertex
100
AcDb2dVertex
 10
31.509499999999548
 20
94.0
 30
0.0
  0
VERTEX
  5
3E6
100
AcDbEntity
  8
一般
370
               5
  6
Continuous
 62
               7
100
AcDbVertex
100
AcDb2dVertex
 10
32.818999999999505
 20
91.0
 30
0.0
  0
SEQEND
  5
3E7
100
AcDbEntity
  8
一般
370
               5
  6
Continuous
 62
               7
  0
WIPEOUT
  5
3E8
100
AcDbEntity
  8
一般
370
               5
  6
Continuous
 62
               7
 92
        0
100
AcDbWipeout
 90
        0
 10
38.499999999999517
 20
91.0
 30
0.0
 11
13.018999999999949
 21
0.0
 31
0.0
 12
0.0
 22
13.018999999999949
 32
0.0
 13
1.0
 23
1.0
340
0
 70
               7
280
               1
281
              50
282
              50
283
               0
360
0
 71
               2
 91
        5
 14
-0.5
 24
0.5
 14
-0.3994162378062838
 24
0.2695675551117588
 14
0.399416237806286
 24
0.2695675551117588
 14
0.5
 24
0.5
 14
-0.5
 24
0.5
  0
POLYLINE
  5
3E9
100
AcDbEntity
  8
一般
370
               5
  6
Continuous
 62
               7
100
AcDb2dPolyline
 66
               1
 10
0.0
 20
0.0
 30
0.0
 70
               1
 75
               5
  0
VERTEX
  5
3EA
100
AcDbEntity
  8
一般
370
               5
  6
Continuous
 62
               7
100
AcDbVertex
100
AcDb2dVertex
 10
38.499999999999517
 20
91.0
 30
0.0
  0
VERTEX
  5
3EB
100
AcDbEntity
  8
一般
370
               5
  6
Continuous
 62
               7
100
AcDbVertex
100
AcDb2dVertex
 10
39.809499999999503
 20
94.0
 30
0.0
  0
VERTEX
  5
3EC
100
AcDbEntity
  8
一般
370
               5
  6
Continuous
 62
               7
100
AcDbVertex
100
AcDb2dVertex
 10
50.209499999999508
 20
94.0
 30
0.0
  0
VERTEX
  5
3ED
100
AcDbEntity
  8
一般
370
               5
  6
Continuous
 62
               7
100
AcDbVertex
100
AcDb2dVertex
 10
51.518999999999465
 20
91.0
 30
0.0
  0
SEQEND
  5
3EE
100
AcDbEntity
  8
一般
370
               5
  6
Continuous
 62
               7
  0
ENDBLK
  5
3EF
100
AcDbEntity
  8
一般
100
AcDbBlockEnd
  0
BLOCK
  5
3F0
100
AcDbEntity
  8
一般
100
AcDbBlockBegin
  2
*U45
 70
               1
 10
0.0
 20
0.0
 30
0.0
  3
*U45
  1

  0
WIPEOUT
  5
3F1
100
AcDbEntity
  8
一般
370
               5
  6
Continuous
 62
               7
 92
        0
100
AcDbWipeout
 90
        0
 10
-310.5
 20
91.0
 30
0.0
 11
62.5
 21
0.0
 31
0.0
 12
0.0
 22
62.5
 32
0.0
 13
1.0
 23
1.0
340
0
 70
               7
280
               1
281
              50
282
              50
283
               0
360
0
 71
               2
 91
        5
 14
-0.5
 24
0.4037662895603617
 14
0.5
 24
0.4037662895603617
 14
0.5
 24
0.5
 14
-0.5
 24
0.5
 14
-0.5
 24
0.4037662895603617
  0
POLYLINE
  5
3F2
100
AcDbEntity
  8
一般
370
               5
  6
Continuous
 62
               7
100
AcDb2dPolyline
 66
               1
 10
0.0
 20
0.0
 30
0.0
 70
               1
 75
               5
  0
VERTEX
  5
3F3
100
AcDbEntity
  8
一般
370
               5
  6
Continuous
 62
               7
100
AcDbVertex
100
AcDb2dVertex
 10
-310.5
 20
97.014606902477396
 30
0.0
  0
VERTEX
  5
3F4
100
AcDbEntity
  8
一般
370
               5
  6
Continuous
 62
               7
100
AcDbVertex
100
AcDb2dVertex
 10
-248.0
 20
97.014606902477396
 30
0.0
  0
VERTEX
  5
3F5
100
AcDbEntity
  8
一般
370
               5
  6
Continuous
 62
               7
100
AcDbVertex
100
AcDb2dVertex
 10
-248.0
 20
91.0
 30
0.0
  0
VERTEX
  5
3F6
100
AcDbEntity
  8
一般
370
               5
  6
Continuous
 62
               7
100
AcDbVertex
100
AcDb2dVertex
 10
-310.5
 20
91.0
 30
0.0
  0
SEQEND
  5
3F7
100
AcDbEntity
  8
一般
370
               5
  6
Continuous
 62
               7
  0
WIPEOUT
  5
3F8
100
AcDbEntity
  8
一般
370
               5
  6
Continuous
 62
               7
 92
        0
100
AcDbWipeout
 90
        0
 10
-303.60200000000003
 20
97.014606902477396
 30
0.0
 11
3.9853930975226035
 21
0.0
 31
0.0
 12
0.0
 22
3.9853930975226035
 32
0.0
 13
1.0
 23
1.0
340
0
 70
               7
280
               1
281
              50
282
              50
283
               0
360
0
 71
               2
 91
        5
 14
-0.5
 24
-0.5
 14
-0.2377924901185763
 24
-0.5
 14
-0.2377924901185763
 24
0.5
 14
-0.5
 24
0.5
 14
-0.5
 24
-0.5
  0
POLYLINE
  5
3F9
100
AcDbEntity
  8
一般
370
               5
  6
Continuous
 62
               7
100
AcDb2dPolyline
 66
               1
 10
0.0
 20
0.0
 30
0.0
 70
               1
 75
               5
  0
VERTEX
  5
3FA
100
AcDbEntity
  8
一般
370
               5
  6
Continuous
 62
               7
100
AcDbVertex
100
AcDb2dVertex
 10
-303.60200000000003
 20
101.0
 30
0.0
  0
VERTEX
  5
3FB
100
AcDbEntity
  8
一般
370
               5
  6
Continuous
 62
               7
100
AcDbVertex
100
AcDb2dVertex
 10
-302.55700000000002
 20
101.0
 30
0.0
  0
VERTEX
  5
3FC
100
AcDbEntity
  8
一般
370
               5
  6
Continuous
 62
               7
100
AcDbVertex
100
AcDb2dVertex
 10
-302.55700000000002
 20
97.014606902477396
 30
0.0
  0
VERTEX
  5
3FD
100
AcDbEntity
  8
一般
370
               5
  6
Continuous
 62
               7
100
AcDbVertex
100
AcDb2dVertex
 10
-303.60200000000003
 20
97.014606902477396
 30
0.0
  0
SEQEND
  5
3FE
100
AcDbEntity
  8
一般
370
               5
  6
Continuous
 62
               7
  0
WIPEOUT
  5
3FF
100
AcDbEntity
  8
一般
370
               5
  6
Continuous
 62
               7
 92
        0
100
AcDbWipeout
 90
        0
 10
-295.65900000000005
 20
97.014606902477396
 30
0.0
 11
3.9853930975226035
 21
0.0
 31
0.0
 12
0.0
 22
3.9853930975226035
 32
0.0
 13
1.0
 23
1.0
340
0
 70
               7
280
               1
281
              50
282
              50
283
               0
360
0
 71
               2
 91
        5
 14
-0.5
 24
-0.5
 14
-0.2377924901185763
 24
-0.5
 14
-0.2377924901185763
 24
0.5
 14
-0.5
 24
0.5
 14
-0.5
 24
-0.5
  0
POLYLINE
  5
400
100
AcDbEntity
  8
一般
370
               5
  6
Continuous
 62
               7
100
AcDb2dPolyline
 66
               1
 10
0.0
 20
0.0
 30
0.0
 70
               1
 75
               5
  0
VERTEX
  5
401
100
AcDbEntity
  8
一般
370
               5
  6
Continuous
 62
               7
100
AcDbVertex
100
AcDb2dVertex
 10
-295.65900000000005
 20
101.0
 30
0.0
  0
VERTEX
  5
402
100
AcDbEntity
  8
一般
370
               5
  6
Continuous
 62
               7
100
AcDbVertex
100
AcDb2dVertex
 10
-294.61400000000003
 20
101.0
 30
0.0
  0
VERTEX
  5
403
100
AcDbEntity
  8
一般
370
               5
  6
Continuous
 62
               7
100
AcDbVertex
100
AcDb2dVertex
 10
-294.61400000000003
 20
97.014606902477396
 30
0.0
  0
VERTEX
  5
404
100
AcDbEntity
  8
一般
370
               5
  6
Continuous
 62
               7
100
AcDbVertex
100
AcDb2dVertex
 10
-295.65900000000005
 20
97.014606902477396
 30
0.0
  0
SEQEND
  5
405
100
AcDbEntity
  8
一般
370
               5
  6
Continuous
 62
               7
  0
WIPEOUT
  5
406
100
AcDbEntity
  8
一般
370
               5
  6
Continuous
 62
               7
 92
        0
100
AcDbWipeout
 90
        0
 10
-287.71600000000007
 20
97.014606902477396
 30
0.0
 11
3.9853930975226035
 21
0.0
 31
0.0
 12
0.0
 22
3.9853930975226035
 32
0.0
 13
1.0
 23
1.0
340
0
 70
               7
280
               1
281
              50
282
              50
283
               0
360
0
 71
               2
 91
        5
 14
-0.5
 24
-0.5
 14
-0.2377924901185763
 24
-0.5
 14
-0.2377924901185763
 24
0.5
 14
-0.5
 24
0.5
 14
-0.5
 24
-0.5
  0
POLYLINE
  5
407
100
AcDbEntity
  8
一般
370
               5
  6
Continuous
 62
               7
100
AcDb2dPolyline
 66
               1
 10
0.0
 20
0.0
 30
0.0
 70
               1
 75
               5
  0
VERTEX
  5
408
100
AcDbEntity
  8
一般
370
               5
  6
Continuous
 62
               7
100
AcDbVertex
100
AcDb2dVertex
 10
-287.71600000000007
 20
101.0
 30
0.0
  0
VERTEX
  5
409
100
AcDbEntity
  8
一般
370
               5
  6
Continuous
 62
               7
100
AcDbVertex
100
AcDb2dVertex
 10
-286.67100000000005
 20
101.0
 30
0.0
  0
VERTEX
  5
40A
100
AcDbEntity
  8
一般
370
               5
  6
Continuous
 62
               7
100
AcDbVertex
100
AcDb2dVertex
 10
-286.67100000000005
 20
97.014606902477396
 30
0.0
  0
VERTEX
  5
40B
100
AcDbEntity
  8
一般
370
               5
  6
Continuous
 62
               7
100
AcDbVertex
100
AcDb2dVertex
 10
-287.71600000000007
 20
97.014606902477396
 30
0.0
  0
SEQEND
  5
40C
100
AcDbEntity
  8
一般
370
               5
  6
Continuous
 62
               7
  0
WIPEOUT
  5
40D
100
AcDbEntity
  8
一般
370
               5
  6
Continuous
 62
               7
 92
        0
100
AcDbWipeout
 90
        0
 10
-279.77300000000008
 20
97.014606902477396
 30
0.0
 11
3.9853930975226035
 21
0.0
 31
0.0
 12
0.0
 22
3.9853930975226035
 32
0.0
 13
1.0
 23
1.0
340
0
 70
               7
280
               1
281
              50
282
              50
283
               0
360
0
 71
               2
 91
        5
 14
-0.5
 24
-0.5
 14
-0.2377924901185763
 24
-0.5
 14
-0.2377924901185763
 24
0.5
 14
-0.5
 24
0.5
 14
-0.5
 24
-0.5
  0
POLYLINE
  5
40E
100
AcDbEntity
  8
一般
370
               5
  6
Continuous
 62
               7
100
AcDb2dPolyline
 66
               1
 10
0.0
 20
0.0
 30
0.0
 70
               1
 75
               5
  0
VERTEX
  5
40F
100
AcDbEntity
  8
一般
370
               5
  6
Continuous
 62
               7
100
AcDbVertex
100
AcDb2dVertex
 10
-279.77300000000008
 20
101.0
 30
0.0
  0
VERTEX
  5
410
100
AcDbEntity
  8
一般
370
               5
  6
Continuous
 62
               7
100
AcDbVertex
100
AcDb2dVertex
 10
-278.72800000000007
 20
101.0
 30
0.0
  0
VERTEX
  5
411
100
AcDbEntity
  8
一般
370
               5
  6
Continuous
 62
               7
100
AcDbVertex
100
AcDb2dVertex
 10
-278.72800000000007
 20
97.014606902477396
 30
0.0
  0
VERTEX
  5
412
100
AcDbEntity
  8
一般
370
               5
  6
Continuous
 62
               7
100
AcDbVertex
100
AcDb2dVertex
 10
-279.77300000000008
 20
97.014606902477396
 30
0.0
  0
SEQEND
  5
413
100
AcDbEntity
  8
一般
370
               5
  6
Continuous
 62
               7
  0
WIPEOUT
  5
414
100
AcDbEntity
  8
一般
370
               5
  6
Continuous
 62
               7
 92
        0
100
AcDbWipeout
 90
        0
 10
-271.8300000000001
 20
97.014606902477396
 30
0.0
 11
3.9853930975226035
 21
0.0
 31
0.0
 12
0.0
 22
3.9853930975226035
 32
0.0
 13
1.0
 23
1.0
340
0
 70
               7
280
               1
281
              50
282
              50
283
               0
360
0
 71
               2
 91
        5
 14
-0.5
 24
-0.5
 14
-0.2377924901185763
 24
-0.5
 14
-0.2377924901185763
 24
0.5
 14
-0.5
 24
0.5
 14
-0.5
 24
-0.5
  0
POLYLINE
  5
415
100
AcDbEntity
  8
一般
370
               5
  6
Continuous
 62
               7
100
AcDb2dPolyline
 66
               1
 10
0.0
 20
0.0
 30
0.0
 70
               1
 75
               5
  0
VERTEX
  5
416
100
AcDbEntity
  8
一般
370
               5
  6
Continuous
 62
               7
100
AcDbVertex
100
AcDb2dVertex
 10
-271.8300000000001
 20
101.0
 30
0.0
  0
VERTEX
  5
417
100
AcDbEntity
  8
一般
370
               5
  6
Continuous
 62
               7
100
AcDbVertex
100
AcDb2dVertex
 10
-270.78500000000008
 20
101.0
 30
0.0
  0
VERTEX
  5
418
100
AcDbEntity
  8
一般
370
               5
  6
Continuous
 62
               7
100
AcDbVertex
100
AcDb2dVertex
 10
-270.78500000000008
 20
97.014606902477396
 30
0.0
  0
VERTEX
  5
419
100
AcDbEntity
  8
一般
370
               5
  6
Continuous
 62
               7
100
AcDbVertex
100
AcDb2dVertex
 10
-271.8300000000001
 20
97.014606902477396
 30
0.0
  0
SEQEND
  5
41A
100
AcDbEntity
  8
一般
370
               5
  6
Continuous
 62
               7
  0
WIPEOUT
  5
41B
100
AcDbEntity
  8
一般
370
               5
  6
Continuous
 62
               7
 92
        0
100
AcDbWipeout
 90
        0
 10
-263.88700000000011
 20
97.014606902477396
 30
0.0
 11
3.9853930975226035
 21
0.0
 31
0.0
 12
0.0
 22
3.9853930975226035
 32
0.0
 13
1.0
 23
1.0
340
0
 70
               7
280
               1
281
              50
282
              50
283
               0
360
0
 71
               2
 91
        5
 14
-0.5
 24
-0.5
 14
-0.2377924901185763
 24
-0.5
 14
-0.2377924901185763
 24
0.5
 14
-0.5
 24
0.5
 14
-0.5
 24
-0.5
  0
POLYLINE
  5
41C
100
AcDbEntity
  8
一般
370
               5
  6
Continuous
 62
               7
100
AcDb2dPolyline
 66
               1
 10
0.0
 20
0.0
 30
0.0
 70
               1
 75
               5
  0
VERTEX
  5
41D
100
AcDbEntity
  8
一般
370
               5
  6
Continuous
 62
               7
100
AcDbVertex
100
AcDb2dVertex
 10
-263.88700000000011
 20
101.0
 30
0.0
  0
VERTEX
  5
41E
100
AcDbEntity
  8
一般
370
               5
  6
Continuous
 62
               7
100
AcDbVertex
100
AcDb2dVertex
 10
-262.8420000000001
 20
101.0
 30
0.0
  0
VERTEX
  5
41F
100
AcDbEntity
  8
一般
370
               5
  6
Continuous
 62
               7
100
AcDbVertex
100
AcDb2dVertex
 10
-262.8420000000001
 20
97.014606902477396
 30
0.0
  0
VERTEX
  5
420
100
AcDbEntity
  8
一般
370
               5
  6
Continuous
 62
               7
100
AcDbVertex
100
AcDb2dVertex
 10
-263.88700000000011
 20
97.014606902477396
 30
0.0
  0
SEQEND
  5
421
100
AcDbEntity
  8
一般
370
               5
  6
Continuous
 62
               7
  0
WIPEOUT
  5
422
100
AcDbEntity
  8
一般
370
               5
  6
Continuous
 62
               7
 92
        0
100
AcDbWipeout
 90
        0
 10
-255.94400000000013
 20
97.014606902477396
 30
0.0
 11
3.9853930975226035
 21
0.0
 31
0.0
 12
0.0
 22
3.9853930975226035
 32
0.0
 13
1.0
 23
1.0
340
0
 70
               7
280
               1
281
              50
282
              50
283
               0
360
0
 71
               2
 91
        5
 14
-0.5
 24
-0.5
 14
-0.2377924901185763
 24
-0.5
 14
-0.2377924901185763
 24
0.5
 14
-0.5
 24
0.5
 14
-0.5
 24
-0.5
  0
POLYLINE
  5
423
100
AcDbEntity
  8
一般
370
               5
  6
Continuous
 62
               7
100
AcDb2dPolyline
 66
               1
 10
0.0
 20
0.0
 30
0.0
 70
               1
 75
               5
  0
VERTEX
  5
424
100
AcDbEntity
  8
一般
370
               5
  6
Continuous
 62
               7
100
AcDbVertex
100
AcDb2dVertex
 10
-255.94400000000013
 20
101.0
 30
0.0
  0
VERTEX
  5
425
100
AcDbEntity
  8
一般
370
               5
  6
Continuous
 62
               7
100
AcDbVertex
100
AcDb2dVertex
 10
-254.89900000000011
 20
101.0
 30
0.0
  0
VERTEX
  5
426
100
AcDbEntity
  8
一般
370
               5
  6
Continuous
 62
               7
100
AcDbVertex
100
AcDb2dVertex
 10
-254.89900000000011
 20
97.014606902477396
 30
0.0
  0
VERTEX
  5
427
100
AcDbEntity
  8
一般
370
               5
  6
Continuous
 62
               7
100
AcDbVertex
100
AcDb2dVertex
 10
-255.94400000000013
 20
97.014606902477396
 30
0.0
  0
SEQEND
  5
428
100
AcDbEntity
  8
一般
370
               5
  6
Continuous
 62
               7
  0
WIPEOUT
  5
429
100
AcDbEntity
  8
一般
370
               5
  6
Continuous
 62
               7
 92
        0
100
AcDbWipeout
 90
        0
 10
-302.55700000000002
 20
97.014606902477396
 30
0.0
 11
6.8979999999999677
 21
0.0
 31
0.0
 12
0.0
 22
6.8979999999999677
 32
0.0
 13
1.0
 23
1.0
340
0
 70
               7
280
               1
281
              50
282
              50
283
               0
360
0
 71
               2
 91
        5
 14
-0.5
 24
0.2111196652998969
 14
0.5
 24
0.2111196652998969
 14
0.5
 24
0.5
 14
-0.5
 24
0.5
 14
-0.5
 24
0.2111196652998969
  0
POLYLINE
  5
42A
100
AcDbEntity
  8
一般
370
               5
  6
Continuous
 62
               7
100
AcDb2dPolyline
 66
               1
 10
0.0
 20
0.0
 30
0.0
 70
               1
 75
               5
  0
VERTEX
  5
42B
100
AcDbEntity
  8
一般
370
               5
  6
Continuous
 62
               7
100
AcDbVertex
100
AcDb2dVertex
 10
-302.55700000000002
 20
99.007303451238698
 30
0.0
  0
VERTEX
  5
42C
100
AcDbEntity
  8
一般
370
               5
  6
Continuous
 62
               7
100
AcDbVertex
100
AcDb2dVertex
 10
-295.65900000000005
 20
99.007303451238698
 30
0.0
  0
VERTEX
  5
42D
100
AcDbEntity
  8
一般
370
               5
  6
Continuous
 62
               7
100
AcDbVertex
100
AcDb2dVertex
 10
-295.65900000000005
 20
97.014606902477396
 30
0.0
  0
VERTEX
  5
42E
100
AcDbEntity
  8
一般
370
               5
  6
Continuous
 62
               7
100
AcDbVertex
100
AcDb2dVertex
 10
-302.55700000000002
 20
97.014606902477396
 30
0.0
  0
SEQEND
  5
42F
100
AcDbEntity
  8
一般
370
               5
  6
Continuous
 62
               7
  0
WIPEOUT
  5
430
100
AcDbEntity
  8
一般
370
               5
  6
Continuous
 62
               7
 92
        0
100
AcDbWipeout
 90
        0
 10
-294.61400000000003
 20
97.014606902477396
 30
0.0
 11
6.8979999999999677
 21
0.0
 31
0.0
 12
0.0
 22
6.8979999999999677
 32
0.0
 13
1.0
 23
1.0
340
0
 70
               7
280
               1
281
              50
282
              50
283
               0
360
0
 71
               2
 91
        5
 14
-0.5
 24
0.2111196652998969
 14
0.5
 24
0.2111196652998969
 14
0.5
 24
0.5
 14
-0.5
 24
0.5
 14
-0.5
 24
0.2111196652998969
  0
POLYLINE
  5
431
100
AcDbEntity
  8
一般
370
               5
  6
Continuous
 62
               7
100
AcDb2dPolyline
 66
               1
 10
0.0
 20
0.0
 30
0.0
 70
               1
 75
               5
  0
VERTEX
  5
432
100
AcDbEntity
  8
一般
370
               5
  6
Continuous
 62
               7
100
AcDbVertex
100
AcDb2dVertex
 10
-294.61400000000003
 20
99.007303451238698
 30
0.0
  0
VERTEX
  5
433
100
AcDbEntity
  8
一般
370
               5
  6
Continuous
 62
               7
100
AcDbVertex
100
AcDb2dVertex
 10
-287.71600000000007
 20
99.007303451238698
 30
0.0
  0
VERTEX
  5
434
100
AcDbEntity
  8
一般
370
               5
  6
Continuous
 62
               7
100
AcDbVertex
100
AcDb2dVertex
 10
-287.71600000000007
 20
97.014606902477396
 30
0.0
  0
VERTEX
  5
435
100
AcDbEntity
  8
一般
370
               5
  6
Continuous
 62
               7
100
AcDbVertex
100
AcDb2dVertex
 10
-294.61400000000003
 20
97.014606902477396
 30
0.0
  0
SEQEND
  5
436
100
AcDbEntity
  8
一般
370
               5
  6
Continuous
 62
               7
  0
WIPEOUT
  5
437
100
AcDbEntity
  8
一般
370
               5
  6
Continuous
 62
               7
 92
        0
100
AcDbWipeout
 90
        0
 10
-286.67100000000005
 20
97.014606902477396
 30
0.0
 11
6.8979999999999677
 21
0.0
 31
0.0
 12
0.0
 22
6.8979999999999677
 32
0.0
 13
1.0
 23
1.0
340
0
 70
               7
280
               1
281
              50
282
              50
283
               0
360
0
 71
               2
 91
        5
 14
-0.5
 24
0.2111196652998969
 14
0.5
 24
0.2111196652998969
 14
0.5
 24
0.5
 14
-0.5
 24
0.5
 14
-0.5
 24
0.2111196652998969
  0
POLYLINE
  5
438
100
AcDbEntity
  8
一般
370
               5
  6
Continuous
 62
               7
100
AcDb2dPolyline
 66
               1
 10
0.0
 20
0.0
 30
0.0
 70
               1
 75
               5
  0
VERTEX
  5
439
100
AcDbEntity
  8
一般
370
               5
  6
Continuous
 62
               7
100
AcDbVertex
100
AcDb2dVertex
 10
-286.67100000000005
 20
99.007303451238698
 30
0.0
  0
VERTEX
  5
43A
100
AcDbEntity
  8
一般
370
               5
  6
Continuous
 62
               7
100
AcDbVertex
100
AcDb2dVertex
 10
-279.77300000000008
 20
99.007303451238698
 30
0.0
  0
VERTEX
  5
43B
100
AcDbEntity
  8
一般
370
               5
  6
Continuous
 62
               7
100
AcDbVertex
100
AcDb2dVertex
 10
-279.77300000000008
 20
97.014606902477396
 30
0.0
  0
VERTEX
  5
43C
100
AcDbEntity
  8
一般
370
               5
  6
Continuous
 62
               7
100
AcDbVertex
100
AcDb2dVertex
 10
-286.67100000000005
 20
97.014606902477396
 30
0.0
  0
SEQEND
  5
43D
100
AcDbEntity
  8
一般
370
               5
  6
Continuous
 62
               7
  0
WIPEOUT
  5
43E
100
AcDbEntity
  8
一般
370
               5
  6
Continuous
 62
               7
 92
        0
100
AcDbWipeout
 90
        0
 10
-278.72800000000007
 20
97.014606902477396
 30
0.0
 11
6.8979999999999677
 21
0.0
 31
0.0
 12
0.0
 22
6.8979999999999677
 32
0.0
 13
1.0
 23
1.0
340
0
 70
               7
280
               1
281
              50
282
              50
283
               0
360
0
 71
               2
 91
        5
 14
-0.5
 24
0.2111196652998969
 14
0.5
 24
0.2111196652998969
 14
0.5
 24
0.5
 14
-0.5
 24
0.5
 14
-0.5
 24
0.2111196652998969
  0
POLYLINE
  5
43F
100
AcDbEntity
  8
一般
370
               5
  6
Continuous
 62
               7
100
AcDb2dPolyline
 66
               1
 10
0.0
 20
0.0
 30
0.0
 70
               1
 75
               5
  0
VERTEX
  5
440
100
AcDbEntity
  8
一般
370
               5
  6
Continuous
 62
               7
100
AcDbVertex
100
AcDb2dVertex
 10
-278.72800000000007
 20
99.007303451238698
 30
0.0
  0
VERTEX
  5
441
100
AcDbEntity
  8
一般
370
               5
  6
Continuous
 62
               7
100
AcDbVertex
100
AcDb2dVertex
 10
-271.8300000000001
 20
99.007303451238698
 30
0.0
  0
VERTEX
  5
442
100
AcDbEntity
  8
一般
370
               5
  6
Continuous
 62
               7
100
AcDbVertex
100
AcDb2dVertex
 10
-271.8300000000001
 20
97.014606902477396
 30
0.0
  0
VERTEX
  5
443
100
AcDbEntity
  8
一般
370
               5
  6
Continuous
 62
               7
100
AcDbVertex
100
AcDb2dVertex
 10
-278.72800000000007
 20
97.014606902477396
 30
0.0
  0
SEQEND
  5
444
100
AcDbEntity
  8
一般
370
               5
  6
Continuous
 62
               7
  0
WIPEOUT
  5
445
100
AcDbEntity
  8
一般
370
               5
  6
Continuous
 62
               7
 92
        0
100
AcDbWipeout
 90
        0
 10
-270.78500000000008
 20
97.014606902477396
 30
0.0
 11
6.8979999999999677
 21
0.0
 31
0.0
 12
0.0
 22
6.8979999999999677
 32
0.0
 13
1.0
 23
1.0
340
0
 70
               7
280
               1
281
              50
282
              50
283
               0
360
0
 71
               2
 91
        5
 14
-0.5
 24
0.2111196652998969
 14
0.5
 24
0.2111196652998969
 14
0.5
 24
0.5
 14
-0.5
 24
0.5
 14
-0.5
 24
0.2111196652998969
  0
POLYLINE
  5
446
100
AcDbEntity
  8
一般
370
               5
  6
Continuous
 62
               7
100
AcDb2dPolyline
 66
               1
 10
0.0
 20
0.0
 30
0.0
 70
               1
 75
               5
  0
VERTEX
  5
447
100
AcDbEntity
  8
一般
370
               5
  6
Continuous
 62
               7
100
AcDbVertex
100
AcDb2dVertex
 10
-270.78500000000008
 20
99.007303451238698
 30
0.0
  0
VERTEX
  5
448
100
AcDbEntity
  8
一般
370
               5
  6
Continuous
 62
               7
100
AcDbVertex
100
AcDb2dVertex
 10
-263.88700000000011
 20
99.007303451238698
 30
0.0
  0
VERTEX
  5
449
100
AcDbEntity
  8
一般
370
               5
  6
Continuous
 62
               7
100
AcDbVertex
100
AcDb2dVertex
 10
-263.88700000000011
 20
97.014606902477396
 30
0.0
  0
VERTEX
  5
44A
100
AcDbEntity
  8
一般
370
               5
  6
Continuous
 62
               7
100
AcDbVertex
100
AcDb2dVertex
 10
-270.78500000000008
 20
97.014606902477396
 30
0.0
  0
SEQEND
  5
44B
100
AcDbEntity
  8
一般
370
               5
  6
Continuous
 62
               7
  0
WIPEOUT
  5
44C
100
AcDbEntity
  8
一般
370
               5
  6
Continuous
 62
               7
 92
        0
100
AcDbWipeout
 90
        0
 10
-262.8420000000001
 20
97.014606902477396
 30
0.0
 11
6.8979999999999677
 21
0.0
 31
0.0
 12
0.0
 22
6.8979999999999677
 32
0.0
 13
1.0
 23
1.0
340
0
 70
               7
280
               1
281
              50
282
              50
283
               0
360
0
 71
               2
 91
        5
 14
-0.5
 24
0.2111196652998969
 14
0.5
 24
0.2111196652998969
 14
0.5
 24
0.5
 14
-0.5
 24
0.5
 14
-0.5
 24
0.2111196652998969
  0
POLYLINE
  5
44D
100
AcDbEntity
  8
一般
370
               5
  6
Continuous
 62
               7
100
AcDb2dPolyline
 66
               1
 10
0.0
 20
0.0
 30
0.0
 70
               1
 75
               5
  0
VERTEX
  5
44E
100
AcDbEntity
  8
一般
370
               5
  6
Continuous
 62
               7
100
AcDbVertex
100
AcDb2dVertex
 10
-262.8420000000001
 20
99.007303451238698
 30
0.0
  0
VERTEX
  5
44F
100
AcDbEntity
  8
一般
370
               5
  6
Continuous
 62
               7
100
AcDbVertex
100
AcDb2dVertex
 10
-255.94400000000013
 20
99.007303451238698
 30
0.0
  0
VERTEX
  5
450
100
AcDbEntity
  8
一般
370
               5
  6
Continuous
 62
               7
100
AcDbVertex
100
AcDb2dVertex
 10
-255.94400000000013
 20
97.014606902477396
 30
0.0
  0
VERTEX
  5
451
100
AcDbEntity
  8
一般
370
               5
  6
Continuous
 62
               7
100
AcDbVertex
100
AcDb2dVertex
 10
-262.8420000000001
 20
97.014606902477396
 30
0.0
  0
SEQEND
  5
452
100
AcDbEntity
  8
一般
370
               5
  6
Continuous
 62
               7
  0
ENDBLK
  5
453
100
AcDbEntity
  8
一般
100
AcDbBlockEnd
  0
BLOCK
  5
454
100
AcDbEntity
  8
一般
100
AcDbBlockBegin
  2
*U46
 70
               1
 10
0.0
 20
0.0
 30
0.0
  3
*U46
  1

  0
WIPEOUT
  5
455
100
AcDbEntity
  8
一般
370
               5
  6
Continuous
 62
               7
 92
        0
100
AcDbWipeout
 90
        0
 10
-365.0
 20
-84.0
 30
0.0
 11
430.0
 21
0.0
 31
0.0
 12
0.0
 22
430.0
 32
0.0
 13
1.0
 23
1.0
340
0
 70
               7
280
               1
281
              50
282
              50
283
               0
360
0
 71
               2
 91
        5
 14
-0.5
 24
0.0930232558139535
 14
0.5
 24
0.0930232558139535
 14
0.5
 24
0.5
 14
-0.5
 24
0.5
 14
-0.5
 24
0.0930232558139535
  0
POLYLINE
  5
456
100
AcDbEntity
  8
一般
370
               5
  6
Continuous
 62
               7
100
AcDb2dPolyline
 66
               1
 10
0.0
 20
0.0
 30
0.0
 70
               1
 75
               5
  0
VERTEX
  5
457
100
AcDbEntity
  8
一般
370
               5
  6
Continuous
 62
               7
100
AcDbVertex
100
AcDb2dVertex
 10
-365.0
 20
91.0
 30
0.0
  0
VERTEX
  5
458
100
AcDbEntity
  8
一般
370
               5
  6
Continuous
 62
               7
100
AcDbVertex
100
AcDb2dVertex
 10
65.0
 20
91.0
 30
0.0
  0
VERTEX
  5
459
100
AcDbEntity
  8
一般
370
               5
  6
Continuous
 62
               7
100
AcDbVertex
100
AcDb2dVertex
 10
65.0
 20
-84.0
 30
0.0
  0
VERTEX
  5
45A
100
AcDbEntity
  8
一般
370
               5
  6
Continuous
 62
               7
100
AcDbVertex
100
AcDb2dVertex
 10
-365.0
 20
-84.0
 30
0.0
  0
SEQEND
  5
45B
100
AcDbEntity
  8
一般
370
               5
  6
Continuous
 62
               7
  0
WIPEOUT
  5
45C
100
AcDbEntity
  8
一般
370
               5
  6
Continuous
 62
               7
 92
        0
100
AcDbWipeout
 90
        0
 10
-391.0
 20
-84.0
 30
0.0
 11
35.0
 21
0.0
 31
0.0
 12
0.0
 22
35.0
 32
0.0
 13
1.0
 23
1.0
340
0
 70
               7
280
               1
281
              50
282
              50
283
               0
360
0
 71
               2
 91
        7
 14
0.2428571428571429
 24
0.5
 14
-0.5
 24
0.5
 14
-0.5
 24
0.4571428571428571
 14
0.1857142857142857
 24
0.4571428571428571
 14
0.1857142857142857
 24
-0.5
 14
0.2428571428571429
 24
-0.5
 14
0.2428571428571429
 24
0.5
  0
POLYLINE
  5
45D
100
AcDbEntity
  8
一般
370
               5
  6
Continuous
 62
               7
100
AcDb2dPolyline
 66
               1
 10
0.0
 20
0.0
 30
0.0
 70
               1
 75
               5
  0
VERTEX
  5
45E
100
AcDbEntity
  8
一般
370
               5
  6
Continuous
 62
               7
100
AcDbVertex
100
AcDb2dVertex
 10
-365.0
 20
-84.0
 30
0.0
  0
VERTEX
  5
45F
100
AcDbEntity
  8
一般
370
               5
  6
Continuous
 62
               7
100
AcDbVertex
100
AcDb2dVertex
 10
-391.0
 20
-84.0
 30
0.0
  0
VERTEX
  5
460
100
AcDbEntity
  8
一般
370
               5
  6
Continuous
 62
               7
100
AcDbVertex
100
AcDb2dVertex
 10
-391.0
 20
-82.5
 30
0.0
  0
VERTEX
  5
461
100
AcDbEntity
  8
一般
370
               5
  6
Continuous
 62
               7
100
AcDbVertex
100
AcDb2dVertex
 10
-367.0
 20
-82.5
 30
0.0
  0
VERTEX
  5
462
100
AcDbEntity
  8
一般
370
               5
  6
Continuous
 62
               7
100
AcDbVertex
100
AcDb2dVertex
 10
-367.0
 20
-49.0
 30
0.0
  0
VERTEX
  5
463
100
AcDbEntity
  8
一般
370
               5
  6
Continuous
 62
               7
100
AcDbVertex
100
AcDb2dVertex
 10
-365.0
 20
-49.0
 30
0.0
  0
SEQEND
  5
464
100
AcDbEntity
  8
一般
370
               5
  6
Continuous
 62
               7
  0
WIPEOUT
  5
465
100
AcDbEntity
  8
一般
370
               5
  6
Continuous
 62
               7
 92
        0
100
AcDbWipeout
 90
        0
 10
65.0
 20
-84.0
 30
0.0
 11
35.0
 21
0.0
 31
0.0
 12
0.0
 22
35.0
 32
0.0
 13
1.0
 23
1.0
340
0
 70
               7
280
               1
281
              50
282
              50
283
               0
360
0
 71
               2
 91
        7
 14
-0.5
 24
0.5
 14
0.2428571428571429
 24
0.5
 14
0.2428571428571429
 24
0.4571428571428571
 14
-0.4428571428571428
 24
0.4571428571428571
 14
-0.4428571428571428
 24
-0.5
 14
-0.5
 24
-0.5
 14
-0.5
 24
0.5
  0
POLYLINE
  5
466
100
AcDbEntity
  8
一般
370
               5
  6
Continuous
 62
               7
100
AcDb2dPolyline
 66
               1
 10
0.0
 20
0.0
 30
0.0
 70
               1
 75
               5
  0
VERTEX
  5
467
100
AcDbEntity
  8
一般
370
               5
  6
Continuous
 62
               7
100
AcDbVertex
100
AcDb2dVertex
 10
65.0
 20
-84.0
 30
0.0
  0
VERTEX
  5
468
100
AcDbEntity
  8
一般
370
               5
  6
Continuous
 62
               7
100
AcDbVertex
100
AcDb2dVertex
 10
91.0
 20
-84.0
 30
0.0
  0
VERTEX
  5
469
100
AcDbEntity
  8
一般
370
               5
  6
Continuous
 62
               7
100
AcDbVertex
100
AcDb2dVertex
 10
91.0
 20
-82.5
 30
0.0
  0
VERTEX
  5
46A
100
AcDbEntity
  8
一般
370
               5
  6
Continuous
 62
               7
100
AcDbVertex
100
AcDb2dVertex
 10
67.0
 20
-82.5
 30
0.0
  0
VERTEX
  5
46B
100
AcDbEntity
  8
一般
370
               5
  6
Continuous
 62
               7
100
AcDbVertex
100
AcDb2dVertex
 10
67.0
 20
-49.0
 30
0.0
  0
VERTEX
  5
46C
100
AcDbEntity
  8
一般
370
               5
  6
Continuous
 62
               7
100
AcDbVertex
100
AcDb2dVertex
 10
65.0
 20
-49.0
 30
0.0
  0
SEQEND
  5
46D
100
AcDbEntity
  8
一般
370
               5
  6
Continuous
 62
               7
  0
WIPEOUT
  5
46E
100
AcDbEntity
  8
一般
370
               5
  6
Continuous
 62
               7
 92
        0
100
AcDbWipeout
 90
        0
 10
-365.0
 20
-84.0
 30
0.0
 11
430.0
 21
0.0
 31
0.0
 12
0.0
 22
430.0
 32
0.0
 13
1.0
 23
1.0
340
0
 70
               7
280
               1
281
              50
282
              50
283
               0
360
0
 71
               2
 91
        5
 14
-0.5
 24
0.4953488372093023
 14
0.5
 24
0.4953488372093023
 14
0.5
 24
0.5
 14
-0.5
 24
0.5
 14
-0.5
 24
0.4953488372093023
  0
POLYLINE
  5
46F
100
AcDbEntity
  8
一般
370
               5
  6
Continuous
 62
               7
100
AcDb2dPolyline
 66
               1
 10
0.0
 20
0.0
 30
0.0
 70
               1
 75
               5
  0
VERTEX
  5
470
100
AcDbEntity
  8
一般
370
               5
  6
Continuous
 62
               7
100
AcDbVertex
100
AcDb2dVertex
 10
-365.0
 20
-82.0
 30
0.0
  0
VERTEX
  5
471
100
AcDbEntity
  8
一般
370
               5
  6
Continuous
 62
               7
100
AcDbVertex
100
AcDb2dVertex
 10
65.0
 20
-82.0
 30
0.0
  0
VERTEX
  5
472
100
AcDbEntity
  8
一般
370
               5
  6
Continuous
 62
               7
100
AcDbVertex
100
AcDb2dVertex
 10
65.0
 20
-84.0
 30
0.0
  0
VERTEX
  5
473
100
AcDbEntity
  8
一般
370
               5
  6
Continuous
 62
               7
100
AcDbVertex
100
AcDb2dVertex
 10
-365.0
 20
-84.0
 30
0.0
  0
SEQEND
  5
474
100
AcDbEntity
  8
一般
370
               5
  6
Continuous
 62
               7
  0
WIPEOUT
  5
475
100
AcDbEntity
  8
一般
370
               5
  6
Continuous
 62
               7
 92
        0
100
AcDbWipeout
 90
        0
 10
-350.85931540417528
 20
91.0
 30
0.0
 11
19.400000000000034
 21
0.0
 31
0.0
 12
0.0
 22
19.400000000000034
 32
0.0
 13
1.0
 23
1.0
340
0
 70
               7
280
               1
281
              50
282
              50
283
               0
360
0
 71
               2
 91
        5
 14
-0.5
 24
-0.0773502691896377
 14
0.5
 24
-0.0773502691896377
 14
0.5
 24
0.5
 14
-0.5
 24
0.5
 14
-0.5
 24
-0.0773502691896377
  0
POLYLINE
  5
476
100
AcDbEntity
  8
一般
370
               5
  6
Continuous
 62
               7
100
AcDb2dPolyline
 66
               1
 10
0.0
 20
0.0
 30
0.0
 70
               1
 75
               5
  0
VERTEX
  5
477
100
AcDbEntity
  8
一般
370
               5
  6
Continuous
 62
               7
100
AcDbVertex
100
AcDb2dVertex
 10
-350.85931540417528
 20
102.20059522227899
 30
0.0
  0
VERTEX
  5
478
100
AcDbEntity
  8
一般
370
               5
  6
Continuous
 62
               7
100
AcDbVertex
100
AcDb2dVertex
 10
-331.45931540417524
 20
102.20059522227899
 30
0.0
  0
VERTEX
  5
479
100
AcDbEntity
  8
一般
370
               5
  6
Continuous
 62
               7
100
AcDbVertex
100
AcDb2dVertex
 10
-331.45931540417524
 20
91.0
 30
0.0
  0
VERTEX
  5
47A
100
AcDbEntity
  8
一般
370
               5
  6
Continuous
 62
               7
100
AcDbVertex
100
AcDb2dVertex
 10
-350.85931540417528
 20
91.0
 30
0.0
  0
SEQEND
  5
47B
100
AcDbEntity
  8
一般
370
               5
  6
Continuous
 62
               7
  0
INSERT
  5
47C
100
AcDbEntity
  8
一般
 62
               7
100
AcDbBlockReference
  2
*U44
 10
0.0
 20
0.0
 30
0.0
  0
INSERT
  5
47D
100
AcDbEntity
  8
一般
 62
               7
100
AcDbBlockReference
  2
*U45
 10
0.0
 20
0.0
 30
0.0
  0
ENDBLK
  5
47E
100
AcDbEntity
  8
一般
100
AcDbBlockEnd
  0
ENDSEC
  0
SECTION
  2
ENTITIES
  0
INSERT
  5
47F
100
AcDbEntity
  8
一般
 62
               7
100
AcDbBlockReference
  2
SRP-D2000.1SI
 10
181.00000000000003
 20
-174.0
 30
0.0
  0
INSERT
  5
480
100
AcDbEntity
  8
一般
 62
               7
100
AcDbBlockReference
  2
*U6
 10
0.0
 20
0.0
 30
0.0
  0
DIMENSION
  5
481
100
AcDbEntity
  8
寸法
370
               5
  6
Continuous
 62
               7
100
AcDbDimension
  2
*D7
 10
142.0
 20
91.0
 30
0.0
 11
142.0
 21
3.5
 31
0.0
 71
               5
 72
               1
 41
1.0
 42
0.0
  3
Arch
100
AcDbAlignedDimension
 13
101.0
 23
-84.0
 33
0.0
 14
101.0
 24
91.0
 34
0.0
 50
90.0
100
AcDbRotatedDimension
1001
ACAD
1000
DSTYLE
1002
{
1070
             279
1070
               2
1070
             340
1005
51
1070
             147
1040
6.3499999999999996
1002
}
  0
DIMENSION
  5
482
100
AcDbEntity
  8
寸法
370
               5
  6
Continuous
 62
               7
100
AcDbDimension
  2
*D8
 10
142.0
 20
-174.0
 30
0.0
 11
142.0
 21
-196.0
 31
0.0
 71
               5
 72
               1
 41
1.0
 42
0.0
  3
Arch
100
AcDbAlignedDimension
 13
103.0
 23
-218.0
 33
0.0
 14
103.0
 24
-174.0
 34
0.0
 50
90.0
100
AcDbRotatedDimension
1001
ACAD
1000
DSTYLE
1002
{
1070
             279
1070
               2
1070
             340
1005
51
1070
             147
1040
6.3499999999999996
1002
}
  0
DIMENSION
  5
483
100
AcDbEntity
  8
寸法
370
               5
  6
Continuous
 62
               7
100
AcDbDimension
  2
*D9
 10
187.50000000000003
 20
-286.0
 30
0.0
 11
275.0
 21
-286.0
 31
0.0
 71
               5
 72
               1
 41
1.0
 42
0.0
  3
Arch
100
AcDbAlignedDimension
 13
362.5
 23
-234.0
 33
0.0
 14
187.50000000000003
 24
-234.0
 34
0.0
100
AcDbRotatedDimension
1001
ACAD
1000
DSTYLE
1002
{
1070
             279
1070
               2
1070
             340
1005
51
1070
             147
1040
6.3499999999999996
1002
}
  0
DIMENSION
  5
484
100
AcDbEntity
  8
寸法
370
               5
  6
Continuous
 62
               7
100
AcDbDimension
  2
*D10
 10
-391.0
 20
-286.0
 30
0.0
 11
-150.0
 21
-286.0
 31
0.0
 71
               5
 72
               1
 41
1.0
 42
0.0
  3
Arch
100
AcDbAlignedDimension
 13
90.999999999999972
 23
-240.0
 33
0.0
 14
-391.0
 24
-240.0
 34
0.0
100
AcDbRotatedDimension
1001
ACAD
1000
DSTYLE
1002
{
1070
             279
1070
               2
1070
             340
1005
51
1070
             147
1040
6.3499999999999996
1002
}
  0
DIMENSION
  5
485
100
AcDbEntity
  8
寸法
370
               5
  6
Continuous
 62
               7
100
AcDbDimension
  2
*D11
 10
-365.0
 20
141.0
 30
0.0
 11
-150.0
 21
141.0
 31
0.0
 71
               5
 72
               1
 41
1.0
 42
0.0
  3
Arch
100
AcDbAlignedDimension
 13
65.0
 23
114.0
 33
0.0
 14
-365.0
 24
114.0
 34
0.0
100
AcDbRotatedDimension
1001
ACAD
1000
DSTYLE
1002
{
1070
             279
1070
               2
1070
             340
1005
51
1070
             147
1040
6.3499999999999996
1002
}
  0
DIMENSION
  5
486
100
AcDbEntity
  8
寸法
370
               5
  6
Continuous
 62
               7
100
AcDbDimension
  2
*D12
 10
-365.0
 20
-124.0
 30
0.0
 11
-150.0
 21
-124.0
 31
0.0
 71
               5
 72
               1
 41
1.0
 42
0.0
  3
Arch
100
AcDbAlignedDimension
 13
65.0
 23
-102.0
 33
0.0
 14
-365.0
 24
-96.0
 34
0.0
100
AcDbRotatedDimension
1001
ACAD
1000
DSTYLE
1002
{
1070
             279
1070
               2
1070
             340
1005
51
1070
             147
1040
6.3499999999999996
1002
}
  0
DIMENSION
  5
487
100
AcDbEntity
  8
寸法
370
               5
  6
Continuous
 62
               7
100
AcDbDimension
  2
*D13
 10
65.0
 20
-124.0
 30
0.0
 11
78.0
 21
-124.0
 31
0.0
 71
               5
 72
               1
 41
1.0
 42
0.0
  3
Arch
100
AcDbAlignedDimension
 13
91.0
 23
-124.0
 33
0.0
 14
65.0
 24
-124.0
 34
0.0
100
AcDbRotatedDimension
1001
ACAD
1000
DSTYLE
1002
{
1070
             279
1070
               2
1070
             340
1005
51
1070
             147
1040
6.3499999999999996
1002
}
  0
DIMENSION
  5
488
100
AcDbEntity
  8
寸法
370
               5
  6
Continuous
 62
               7
100
AcDbDimension
  2
*D14
 10
-365.0
 20
-124.0
 30
0.0
 11
-378.0
 21
-124.0
 31
0.0
 71
               5
 72
               1
 41
1.0
 42
0.0
  3
Arch
100
AcDbAlignedDimension
 13
-391.0
 23
-102.34999999999999
 33
0.0
 14
-365.0
 24
-102.34999999999999
 34
0.0
100
AcDbRotatedDimension
1001
ACAD
1000
DSTYLE
1002
{
1070
             279
1070
               2
1070
             340
1005
51
1070
             147
1040
6.3499999999999996
1002
}
  0
DIMENSION
  5
489
100
AcDbEntity
  8
寸法
370
               5
  6
Continuous
 62
               7
100
AcDbDimension
  2
*D15
 10
-393.18700000000001
 20
298.0
 30
0.0
 11
-152.18700000000001
 21
298.0
 31
0.0
 71
               5
 72
               1
 41
1.0
 42
0.0
  3
Arch
100
AcDbAlignedDimension
 13
88.812999999999988
 23
268.0
 33
0.0
 14
-393.18700000000001
 24
268.0
 34
0.0
100
AcDbRotatedDimension
1001
ACAD
1000
DSTYLE
1002
{
1070
             279
1070
               2
1070
             340
1005
51
1070
             147
1040
6.3499999999999996
1002
}
  0
DIMENSION
  5
48A
100
AcDbEntity
  8
寸法
370
               5
  6
Continuous
 62
               7
100
AcDbDimension
  2
*D16
 10
137.69402781815
 20
242.81099999999998
 30
0.0
 11
137.69402781815
 21
220.81099999999998
 31
0.0
 71
               5
 72
               1
 41
1.0
 42
0.0
  3
Arch
100
AcDbAlignedDimension
 13
108.15000000000001
 23
198.81099999999998
 33
0.0
 14
108.15000000000001
 24
242.81099999999998
 34
0.0
 50
90.0
100
AcDbRotatedDimension
1001
ACAD
1000
DSTYLE
1002
{
1070
             279
1070
               2
1070
             340
1005
51
1070
             147
1040
6.3499999999999996
1002
}
  0
INSERT
  5
48B
100
AcDbEntity
  8
一般
 62
               7
100
AcDbBlockReference
  2
*U42
 10
0.0
 20
0.0
 30
0.0
  0
DIMENSION
  5
48C
100
AcDbEntity
  8
寸法
370
               5
  6
Continuous
 62
               7
100
AcDbDimension
  2
*D43
 10
447.0
 20
-174.05000000000001
 30
0.0
 11
447.0
 21
-196.05000000000001
 31
0.0
 71
               5
 72
               1
 41
1.0
 42
0.0
  3
Arch
100
AcDbAlignedDimension
 13
405.0
 23
-218.05000000000001
 33
0.0
 14
405.0
 24
-174.05000000000001
 34
0.0
 50
90.0
100
AcDbRotatedDimension
1001
ACAD
1000
DSTYLE
1002
{
1070
             279
1070
               2
1070
             340
1005
51
1070
             147
1040
6.3499999999999996
1002
}
  0
INSERT
  5
48D
100
AcDbEntity
  8
一般
 62
               7
100
AcDbBlockReference
  2
*U46
 10
0.0
 20
0.0
 30
0.0
  0
ENDSEC
  0
SECTION
  2
OBJECTS
  0
DICTIONARY
  5
19
100
AcDbDictionary
280
               0
281
               1
  3
ACAD_GROUP
350
1A
  3
ACAD_MLINESTYLE
350
1B
  3
ACAD_LAYOUT
350
1E
  3
ACAD_PLOTSETTINGS
350
22
  3
ACAD_PLOTSTYLENAME
350
1F
  3
ACAD_WIPEOUT_VARS
350
23
  0
DICTIONARY
  5
1A
102
{ACAD_REACTORS
330
19
102
}
100
AcDbDictionary
280
               0
281
               1
  0
DICTIONARY
  5
1B
102
{ACAD_REACTORS
330
19
102
}
100
AcDbDictionary
280
               0
281
               1
  3
Standard
350
1C
  0
MLINESTYLE
  5
1C
102
{ACAD_REACTORS
330
1B
102
}
100
AcDbMlineStyle
  2
Standard
 70
               0
  3

 62
               0
 51
90.0
 52
90.0
 71
               2
 49
0.5
 62
             256
  6
ByLayer
 49
-0.5
 62
             256
  6
ByLayer
  0
ACDBDICTIONARYWDFLT
  5
1F
102
{ACAD_REACTORS
330
19
102
}
100
AcDbDictionary
281
               1
  3
Normal
350
1D
100
AcDbDictionaryWithDefault
340
1D
  0
ACDBPLACEHOLDER
  5
1D
102
{ACAD_REACTORS
330
1F
102
}
  0
LAYOUT
  5
20
102
{ACAD_REACTORS
330
1E
102
}
100
AcDbPlotSettings
  1

  2

  4

  6

 40
0.0
 41
0.0
 42
0.0
 43
0.0
 44
0.0
 45
0.0
 46
0.0
 47
0.0
 48
0.0
 49
0.0
140
0.0
141
0.0
142
1.0
143
1.0
 70
            1024
 72
               0
 73
               0
 74
               0
  7

 75
               0
147
1.0
148
0.0
149
0.0
100
AcDbLayout
  1
Model
 70
               0
 71
               0
 10
0.0
 20
0.0
 11
0.0
 21
0.0
 12
0.0
 22
0.0
 32
0.0
 14
0.0
 24
0.0
 34
0.0
 15
0.0
 25
0.0
 35
0.0
146
0.0
 13
0.0
 23
0.0
 33
0.0
 16
0.0
 26
0.0
 36
0.0
 17
0.0
 27
0.0
 37
0.0
 76
               0
330
A
331
0
345
0
346
0
  0
LAYOUT
  5
21
102
{ACAD_REACTORS
330
1E
102
}
100
AcDbPlotSettings
  1

  2

  4

  6

 40
0.0
 41
0.0
 42
0.0
 43
0.0
 44
0.0
 45
0.0
 46
0.0
 47
0.0
 48
0.0
 49
0.0
140
0.0
141
0.0
142
1.0
143
1.0
 70
               0
 72
               0
 73
               0
 74
               0
  7

 75
               0
147
1.0
148
0.0
149
0.0
100
AcDbLayout
  1
Layout1
 70
               0
 71
               0
 10
0.0
 20
0.0
 11
0.0
 21
0.0
 12
0.0
 22
0.0
 32
0.0
 14
0.0
 24
0.0
 34
0.0
 15
0.0
 25
0.0
 35
0.0
146
0.0
 13
0.0
 23
0.0
 33
0.0
 16
0.0
 26
0.0
 36
0.0
 17
0.0
 27
0.0
 37
0.0
 76
               0
330
B
331
0
345
0
346
0
  0
DICTIONARY
  5
1E
102
{ACAD_REACTORS
330
19
102
}
100
AcDbDictionary
280
               0
281
               1
  3
Layout1
350
21
  3
Model
350
20
  0
DICTIONARY
  5
22
102
{ACAD_REACTORS
330
19
102
}
100
AcDbDictionary
280
               0
281
               1
  0
WIPEOUTVARIABLES
  5
23
100
AcDbWipeoutVariables
 70
               0
  0
ENDSEC
  0
EOF
