  0
SECTION
  2
HEADER
  9
$ACADVER
  1
AC1015
  9
$ACADMAINTVER
 70
               6
  9
$DWGCODEPAGE
  3
ANSI_932
  9
$INSBASE
 10
0.0
 20
0.0
 30
0.0
  9
$EXTMIN
 10
-29.466666666668857
 20
8.0000000000007674
 30
0.0
  9
$EXTMAX
 10
607.35441988381967
 20
463.46666666666886
 30
0.0
  9
$LIMMIN
 10
0.0
 20
0.0
  9
$LIMMAX
 10
0.0
 20
0.0
  9
$ORTHOMODE
 70
               0
  9
$REGENMODE
 70
               1
  9
$FILLMODE
 70
               1
  9
$QTEXTMODE
 70
               0
  9
$MIRRTEXT
 70
               1
  9
$LTSCALE
 40
10.16
  9
$ATTMODE
 70
               1
  9
$TEXTSIZE
 40
0.2
  9
$TRACEWID
 40
1.0
  9
$TEXTSTYLE
  7
Standard
  9
$CLAYER
  8
0
  9
$CELTYPE
  6
Continuous
  9
$CECOLOR
 62
             256
  9
$CELTSCALE
 40
1.0
  9
$DISPSILH
 70
               0
  9
$DIMSCALE
 40
1.0
  9
$DIMASZ
 40
4.4896484374999996
  9
$DIMEXO
 40
3.1749999999999998
  9
$DIMDLI
 40
10.16
  9
$DIMRND
 40
0.0
  9
$DIMDLE
 40
1.5874999999999999
  9
$DIMEXE
 40
6.3499999999999996
  9
$DIMTP
 40
0.0
  9
$DIMTM
 40
0.0
  9
$DIMTXT
 40
6.7733333333333325
  9
$DIMCEN
 40
0.0
  9
$DIMTSZ
 40
0.0
  9
$DIMTOL
 70
               0
  9
$DIMLIM
 70
               0
  9
$DIMTIH
 70
               0
  9
$DIMTOH
 70
               0
  9
$DIMSE1
 70
               0
  9
$DIMSE2
 70
               0
  9
$DIMTAD
 70
               1
  9
$DIMZIN
 70
              11
  9
$DIMBLK
  1
VW_SLASH
  9
$DIMASO
 70
               1
  9
$DIMSHO
 70
               1
  9
$DIMPOST
  1
<>
  9
$DIMAPOST
  1
[]
  9
$DIMALT
 70
               0
  9
$DIMALTD
 70
               3
  9
$DIMALTF
 40
0.0393700787401575
  9
$DIMLFAC
 40
1.0
  9
$DIMTOFL
 70
               1
  9
$DIMTVP
 40
0.0
  9
$DIMTIX
 70
               1
  9
$DIMSOXD
 70
               0
  9
$DIMSAH
 70
               0
  9
$DIMBLK1
  1

  9
$DIMBLK2
  1

  9
$DIMSTYLE
  2
Arch
  9
$DIMCLRD
 70
               0
  9
$DIMCLRE
 70
               0
  9
$DIMCLRT
 70
               0
  9
$DIMTFAC
 40
0.8
  9
$DIMGAP
 40
1.5874999999999999
  9
$DIMJUST
 70
               0
  9
$DIMSD1
 70
               0
  9
$DIMSD2
 70
               0
  9
$DIMTOLJ
 70
               1
  9
$DIMTZIN
 70
              11
  9
$DIMALTZ
 70
              15
  9
$DIMALTTZ
 70
              15
  9
$DIMUPT
 70
               0
  9
$DIMDEC
 70
               1
  9
$DIMTDEC
 70
               1
  9
$DIMALTU
 70
               4
  9
$DIMALTTD
 70
               2
  9
$DIMTXSTY
  7
HGSｺﾞｼｯｸE
  9
$DIMAUNIT
 70
               0
  9
$DIMADEC
 70
               2
  9
$DIMALTRND
 40
0.0
  9
$DIMAZIN
 70
               0
  9
$DIMDSEP
 70
              46
  9
$DIMATFIT
 70
               0
  9
$DIMFRAC
 70
               2
  9
$DIMLDRBLK
  1

  9
$DIMLUNIT
 70
               2
  9
$DIMLWD
 70
              -2
  9
$DIMLWE
 70
              -2
  9
$DIMTMOVE
 70
               0
  9
$LUNITS
 70
               2
  9
$LUPREC
 70
               4
  9
$SKETCHINC
 40
0.1
  9
$FILLETRAD
 40
0.0
  9
$AUNITS
 70
               0
  9
$AUPREC
 70
               0
  9
$MENU
  1
acad
  9
$ELEVATION
 40
0.0
  9
$PELEVATION
 40
0.0
  9
$THICKNESS
 40
0.0
  9
$LIMCHECK
 70
               0
  9
$CHAMFERA
 40
0.0
  9
$CHAMFERB
 40
0.0
  9
$CHAMFERC
 40
0.0
  9
$CHAMFERD
 40
0.0
  9
$SKPOLY
 70
               0
  9
$TDCREATE
 40
2454977.665162037
  9
$TDUCREATE
 40
0.000000000
  9
$TDUPDATE
 40
2454977.665162037
  9
$TDUUPDATE
 40
0.000000000
  9
$TDINDWG
 40
0.0000000000
  9
$TDUSRTIMER
 40
0.0000000000
  9
$USRTIMER
 70
               1
  9
$ANGBASE
 50
0.0
  9
$ANGDIR
 70
               0
  9
$PDMODE
 70
               1
  9
$PDSIZE
 40
-2.0
  9
$PLINEWID
 40
0.0
  9
$SPLFRAME
 70
               0
  9
$SPLINETYPE
 70
               6
  9
$SPLINESEGS
 70
               8
  9
$HANDSEED
  5
484
  9
$SURFTAB1
 70
               6
  9
$SURFTAB2
 70
               6
  9
$SURFTYPE
 70
               6
  9
$SURFU
 70
               6
  9
$SURFV
 70
               6
  9
$UCSBASE
  2

  9
$UCSNAME
  2

  9
$UCSORG
 10
0.0
 20
0.0
 30
0.0
  9
$UCSXDIR
 10
1.0
 20
0.0
 30
0.0
  9
$UCSYDIR
 10
0.0
 20
1.0
 30
0.0
  9
$UCSORTHOREF
  2

  9
$UCSORTHOVIEW
 70
               0
  9
$UCSORGTOP
 10
0.0
 20
0.0
 30
0.0
  9
$UCSORGBOTTOM
 10
0.0
 20
0.0
 30
0.0
  9
$UCSORGLEFT
 10
0.0
 20
0.0
 30
0.0
  9
$UCSORGRIGHT
 10
0.0
 20
0.0
 30
0.0
  9
$UCSORGFRONT
 10
0.0
 20
0.0
 30
0.0
  9
$UCSORGBACK
 10
0.0
 20
0.0
 30
0.0
  9
$PUCSBASE
  2

  9
$PUCSNAME
  2

  9
$PUCSORG
 10
0.0
 20
0.0
 30
0.0
  9
$PUCSXDIR
 10
1.0
 20
0.0
 30
0.0
  9
$PUCSYDIR
 10
0.0
 20
1.0
 30
0.0
  9
$PUCSORTHOREF
  2

  9
$PUCSORTHOVIEW
 70
               0
  9
$PUCSORGTOP
 10
0.0
 20
0.0
 30
0.0
  9
$PUCSORGBOTTOM
 10
0.0
 20
0.0
 30
0.0
  9
$PUCSORGLEFT
 10
0.0
 20
0.0
 30
0.0
  9
$PUCSORGRIGHT
 10
0.0
 20
0.0
 30
0.0
  9
$PUCSORGFRONT
 10
0.0
 20
0.0
 30
0.0
  9
$PUCSORGBACK
 10
0.0
 20
0.0
 30
0.0
  9
$USERI1
 70
               0
  9
$USERI2
 70
               0
  9
$USERI3
 70
               0
  9
$USERI4
 70
               0
  9
$USERI5
 70
               0
  9
$USERR1
 40
0.0
  9
$USERR2
 40
0.0
  9
$USERR3
 40
0.0
  9
$USERR4
 40
0.0
  9
$USERR5
 40
0.0
  9
$WORLDVIEW
 70
               1
  9
$SHADEDGE
 70
               3
  9
$SHADEDIF
 70
              70
  9
$TILEMODE
 70
               1
  9
$MAXACTVP
 70
              16
  9
$PINSBASE
 10
0.0
 20
0.0
 30
0.0
  9
$PLIMCHECK
 70
               0
  9
$PEXTMIN
 10
1.0000000000000000E+20
 20
1.0000000000000000E+20
 30
1.0000000000000000E+20
  9
$PEXTMAX
 10
-1.0000000000000000E+20
 20
-1.0000000000000000E+20
 30
-1.0000000000000000E+20
  9
$PLIMMIN
 10
0.0
 20
0.0
  9
$PLIMMAX
 10
12.0
 20
9.0
  9
$UNITMODE
 70
               0
  9
$VISRETAIN
 70
               0
  9
$PLINEGEN
 70
               1
  9
$PSLTSCALE
 70
               0
  9
$TREEDEPTH
 70
            3020
  9
$CMLSTYLE
  2
Standard
  9
$CMLJUST
 70
               0
  9
$CMLSCALE
 40
1.0
  9
$PROXYGRAPHICS
 70
               0
  9
$MEASUREMENT
 70
               1
  9
$CELWEIGHT
370
               0
  9
$ENDCAPS
280
               0
  9
$JOINSTYLE
280
               0
  9
$LWDISPLAY
290
               1
  9
$INSUNITS
 70
               4
  9
$HYPERLINKBASE
  1

  9
$STYLESHEET
  1

  9
$XEDIT
290
               1
  9
$CEPSNTYPE
380
               0
  9
$PSTYLEMODE
290
               1
  9
$FINGERPRINTGUID
  2

  9
$VERSIONGUID
  2

  9
$EXTNAMES
290
               1
  9
$PSVPSCALE
 40
0.0
  0
ENDSEC
  0
SECTION
  2
CLASSES
  0
CLASS
  1
LWPOLYLINE
  2
AcDbPolyline
  3
AutoCAD 2000
 90
        0
280
               0
281
               1
  0
CLASS
  1
IMAGE
  2
AcDbRasterImage
  3
ISM
 90
    32895
280
               0
281
               1
  0
CLASS
  1
OLE2FRAME
  2
AcDbOle2Frame
  3
AutoCAD 2000
 90
    32768
280
               0
281
               1
  0
CLASS
  1
HATCH
  2
AcDbHatch
  3
AutoCAD 2000
 90
    32768
280
               0
281
               1
  0
CLASS
  1
DICTIONARYVAR
  2
AcDbDictionaryVar
  3
AutoCAD 2000
 90
    32768
280
               0
281
               0
  0
CLASS
  1
RASTERVARIABLES
  2
AcDbRasterVariables
  3
ISM
 90
    32768
280
               0
281
               0
  0
CLASS
  1
IMAGEDEF
  2
AcDbRasterImageDef
  3
ISM
 90
    32768
280
               0
281
               0
  0
CLASS
  1
IMAGEDEF_REACTOR
  2
AcDbRasterImageDefReactor
  3
ISM
 90
    32769
280
               0
281
               0
  0
CLASS
  1
IDBUFFER
  2
AcDbIdBuffer
  3
AutoCAD 2000
 90
    32768
280
               0
281
               0
  0
CLASS
  1
SPATIAL_FILTER
  2
AcDbSpatialFilter
  3
AutoCAD 2000
 90
    32768
280
               0
281
               0
  0
CLASS
  1
XRECORD
  2
AcDbXrecord
  3
AutoCAD 2000
 90
    32768
280
               0
281
               0
  0
CLASS
  1
SORTENTSTABLE
  2
AcDbSortentsTable
  3
AutoCAD 2000
 90
    32768
280
               0
281
               0
  0
CLASS
  1
LAYER_INDEX
  2
AcDbLayerIndex
  3
AutoCAD 2000
 90
    32768
280
               0
281
               0
  0
CLASS
  1
SPATIAL_INDEX
  2
AcDbSpatialIndex
  3
AutoCAD 2000
 90
    32768
280
               0
281
               0
  0
CLASS
  1
OBJECT_PTR
  2
CAseDLPNTableRecord
  3
"ASE-LPNTableRecord"
 90
    32769
280
               0
281
               0
  0
CLASS
  1
LAYOUT
  2
AcDbLayout
  3
AutoCAD 2000
 90
        0
280
               0
281
               0
  0
CLASS
  1
PLOTSETTINGS
  2
AcDbPlotSettings
  3
AutoCAD 2000
 90
    32768
280
               0
281
               0
  0
CLASS
  1
ACDBDICTIONARYWDFLT
  2
AcDbDictionaryWithDefault
  3
AutoCAD 2000
 90
        0
280
               0
281
               0
  0
CLASS
  1
ACDBPLACEHOLDER
  2
AcDbPlaceHolder
  3
AutoCAD 2000
 90
        0
280
               0
281
               0
  0
CLASS
  1
VBA_PROJECT
  2
AcDbVbaProject
  3
acadvba
 90
    32768
280
               0
281
               0
  0
CLASS
  1
WIPEOUT
  2
AcDbWipeout
  3
WipeOut|AutoCAD Express Tool|expresstools@autodesk.com
 90
      127
280
               0
281
               1
  0
CLASS
  1
WIPEOUTVARIABLES
  2
AcDbWipeoutVariables
  3
WipeOut|AutoCAD Express Tool|expresstools@autodesk.com
 90
        0
280
               0
281
               0
  0
CLASS
  1
RTEXT
  2
RText
  3
RText|AutoCAD Express Tool|expresstools@autodesk.com
 90
    32768
280
               0
281
               1
  0
CLASS
  1
ARCALIGNEDTEXT
  2
AcDbArcAlignedText
  3
ATEXT|AutoCAD Express Tool|expresstools@autodesk.com
 90
    32768
280
               0
281
               1
  0
ENDSEC
  0
SECTION
  2
TABLES
  0
TABLE
  2
VPORT
  5
7
100
AcDbSymbolTable
 70
               1
  0
VPORT
  5
15
100
AcDbSymbolTableRecord
100
AcDbViewportTableRecord
  2
*ACTIVE
 70
               0
 10
0.0
 20
0.0
 11
1.0
 21
1.0
 12
288.94387660857541
 22
235.7333333333348
 13
0.0
 23
0.0
 14
1.0
 24
1.0
 15
0.0
 25
0.0
 16
0.0
 26
0.0
 36
1.0
 17
0.0
 27
0.0
 37
0.0
 40
455.46666666666806
 41
0.688564
 42
50.0
 43
0.0
 44
0.0
 50
0.0
 51
0.0
 71
               0
 72
             100
 73
               1
 74
               1
 75
               0
 76
               0
 77
               0
 78
               0
281
               0
 65
               0
110
0.0
120
0.0
130
0.0
111
1.0
121
0.0
131
0.0
112
0.0
122
1.0
132
0.0
345
0
346
0
 79
               0
146
0.0
  0
ENDTAB
  0
TABLE
  2
LTYPE
  5
4
100
AcDbSymbolTable
 70
              13
  0
LTYPE
  5
11
100
AcDbSymbolTableRecord
100
AcDbLinetypeTableRecord
  2
ByBlock
 70
              64
  3

 72
              65
 73
               0
 40
0.0
  0
LTYPE
  5
12
100
AcDbSymbolTableRecord
100
AcDbLinetypeTableRecord
  2
ByLayer
 70
              64
  3

 72
              65
 73
               0
 40
0.0
  0
LTYPE
  5
13
100
AcDbSymbolTableRecord
100
AcDbLinetypeTableRecord
  2
Continuous
 70
              64
  3
Solid line
 72
              65
 73
               0
 40
0.0
  0
LTYPE
  5
5A
100
AcDbSymbolTableRecord
100
AcDbLinetypeTableRecord
  2
STYLE_01
 70
               0
  3

 72
              65
 73
               2
 40
0.6151574803149605
 49
0.3690944881889763
 74
               0
 49
-0.2460629921259842
 74
               0
  0
LTYPE
  5
5B
100
AcDbSymbolTableRecord
100
AcDbLinetypeTableRecord
  2
STYLE_02
 70
               0
  3

 72
              65
 73
               2
 40
0.3690944881889763
 49
0.2460629921259842
 74
               0
 49
-0.1230314960629921
 74
               0
  0
LTYPE
  5
5C
100
AcDbSymbolTableRecord
100
AcDbLinetypeTableRecord
  2
STYLE_03
 70
               0
  3

 72
              65
 73
               2
 40
1.25
 49
1.0416400000000001
 74
               0
 49
-0.2083599999999999
 74
               0
  0
LTYPE
  5
5D
100
AcDbSymbolTableRecord
100
AcDbLinetypeTableRecord
  2
STYLE_04
 70
               0
  3

 72
              65
 73
               2
 40
1.5277099999999999
 49
1.3194249999999998
 74
               0
 49
-0.208285
 74
               0
  0
LTYPE
  5
5E
100
AcDbSymbolTableRecord
100
AcDbLinetypeTableRecord
  2
STYLE_05
 70
               0
  3

 72
              65
 73
               2
 40
0.20828
 49
0.069425
 74
               0
 49
-0.138855
 74
               0
  0
LTYPE
  5
5F
100
AcDbSymbolTableRecord
100
AcDbLinetypeTableRecord
  2
STYLE_06
 70
               0
  3

 72
              65
 73
               4
 40
1.0416400000000001
 49
0.625
 74
               0
 49
-0.20828
 74
               0
 49
0.06943
 74
               0
 49
-0.13893
 74
               0
  0
LTYPE
  5
60
100
AcDbSymbolTableRecord
100
AcDbLinetypeTableRecord
  2
STYLE_07
 70
               0
  3

 72
              65
 73
               6
 40
1.875
 49
0.625
 74
               0
 49
-0.20828
 74
               0
 49
0.6250000000000001
 74
               0
 49
-0.2083599999999999
 74
               0
 49
0.06943
 74
               0
 49
-0.1389299999999999
 74
               0
  0
LTYPE
  5
61
100
AcDbSymbolTableRecord
100
AcDbLinetypeTableRecord
  2
STYLE_08
 70
               0
  3

 72
              65
 73
               6
 40
1.25
 49
0.625
 74
               0
 49
-0.20828
 74
               0
 49
0.06943
 74
               0
 49
-0.13893
 74
               0
 49
0.0694299999999999
 74
               0
 49
-0.13893
 74
               0
  0
LTYPE
  5
62
100
AcDbSymbolTableRecord
100
AcDbLinetypeTableRecord
  2
STYLE_09
 70
               0
  3

 72
              65
 73
               4
 40
5.0
 49
3.75
 74
               0
 49
-0.2777849999999998
 74
               0
 49
0.6944300000000003
 74
               0
 49
-0.2777849999999998
 74
               0
  0
LTYPE
  5
63
100
AcDbSymbolTableRecord
100
AcDbLinetypeTableRecord
  2
STYLE_10
 70
               0
  3

 72
              65
 73
               6
 40
5.9375
 49
3.75
 74
               0
 49
-0.2777849999999998
 74
               0
 49
0.6944300000000003
 74
               0
 49
-0.2777849999999998
 74
               0
 49
0.625
 74
               0
 49
-0.3125
 74
               0
  0
ENDTAB
  0
TABLE
  2
LAYER
  5
2
100
AcDbSymbolTable
 70
               4
  0
LAYER
  5
14
100
AcDbSymbolTableRecord
100
AcDbLayerTableRecord
  2
0
 70
               0
 62
               7
  6
Continuous
290
               1
370
              15
390
1D
  0
LAYER
  5
6F
100
AcDbSymbolTableRecord
100
AcDbLayerTableRecord
  2
Defpoints
 70
               0
 62
               7
  6
Continuous
290
               0
370
              -3
390
1D
  0
LAYER
  5
70
100
AcDbSymbolTableRecord
100
AcDbLayerTableRecord
  2
一般
 70
               0
 62
               7
  6
Continuous
290
               1
370
               5
390
1D
  0
LAYER
  5
71
100
AcDbSymbolTableRecord
100
AcDbLayerTableRecord
  2
寸法
 70
               0
 62
               7
  6
Continuous
290
               1
370
              15
390
1D
  0
ENDTAB
  0
TABLE
  2
STYLE
  5
3
100
AcDbSymbolTable
 70
               3
  0
STYLE
  5
17
100
AcDbSymbolTableRecord
100
AcDbTextStyleTableRecord
  2
Standard
 70
               0
 40
0.0
 41
1.0
 50
0.0
 71
               0
 42
0.0
  3
txt
  4
BIGFONT.SHX
  0
STYLE
  5
58
100
AcDbSymbolTableRecord
100
AcDbTextStyleTableRecord
  2
HGSｺﾞｼｯｸE
 70
               0
 40
0.0
 41
1.0
 50
0.0
 71
               0
 42
0.0
  3
HGSｺﾞｼｯｸE
  4

1001
ACAD
1000
HGSｺﾞｼｯｸE
1071
        0
  0
STYLE
  5
59
100
AcDbSymbolTableRecord
100
AcDbTextStyleTableRecord
  2
MS UI Gothic
 70
               0
 40
0.0
 41
1.0
 50
0.0
 71
               0
 42
0.0
  3
MS UI Gothic
  4

1001
ACAD
1000
MS UI Gothic
1071
        0
  0
ENDTAB
  0
TABLE
  2
VIEW
  5
5
100
AcDbSymbolTable
 70
               0
  0
ENDTAB
  0
TABLE
  2
UCS
  5
6
100
AcDbSymbolTable
 70
               0
  0
ENDTAB
  0
TABLE
  2
APPID
  5
8
100
AcDbSymbolTable
 70
               1
  0
APPID
  5
16
100
AcDbSymbolTableRecord
100
AcDbRegAppTableRecord
  2
ACAD
 70
               0
  0
ENDTAB
  0
TABLE
  2
DIMSTYLE
  5
9
100
AcDbSymbolTable
 70
               3
100
AcDbDimStyleTable
 71
               0
  0
DIMSTYLE
105
18
100
AcDbSymbolTableRecord
100
AcDbDimStyleTableRecord
  2
Standard
 70
               0
  3

  4

 40
1.0
 41
0.18
 42
0.0625
 43
0.38
 44
0.18
 45
0.0
 46
0.0
 47
0.0
 48
0.0
 71
               0
 72
               0
 73
               1
 74
               1
 75
               0
 76
               0
 77
               0
 78
               0
 79
               0
140
0.18
141
0.09
142
0.0
143
25.399999999999999
144
1.0
145
0.0
146
1.0
147
0.09
148
0.0
170
               0
171
               2
172
               0
173
               0
174
               0
175
               0
176
               0
177
               0
178
               0
179
               0
271
               4
272
               4
273
               2
274
               2
275
               0
276
               0
277
               2
278
              46
279
               0
280
               0
281
               0
282
               0
283
               1
284
               0
285
               0
286
               0
288
               0
340
17
341
0
342
0
343
0
344
0
371
              -2
372
              -2
  0
DIMSTYLE
105
6D
100
AcDbSymbolTableRecord
100
AcDbDimStyleTableRecord
  2
Arch
 70
               0
  3
<>
  4
[]
 40
1.0
 41
4.4896484374999996
 42
3.1749999999999998
 43
10.16
 44
6.3499999999999996
 45
0.0
 46
1.5874999999999999
 47
0.0
 48
0.0
 71
               0
 72
               0
 73
               0
 74
               0
 75
               0
 76
               0
 77
               1
 78
              11
 79
               0
140
6.7733333333333325
141
0.0
142
0.0
143
0.0393700787401575
144
1.0
145
0.0
146
0.8
147
1.5874999999999999
148
0.0
170
               0
171
               3
172
               1
173
               0
174
               1
175
               0
176
               0
177
               0
178
               0
179
               2
271
               1
272
               1
273
               4
274
               2
275
               0
276
               2
277
               2
278
              46
279
               0
280
               0
281
               0
282
               0
283
               1
284
              11
285
              15
286
              15
288
               0
340
58
341
69
342
64
343
0
344
0
371
              -2
372
              -2
  0
DIMSTYLE
105
6E
100
AcDbSymbolTableRecord
100
AcDbDimStyleTableRecord
  2
ISO
 70
               0
  3
<>
  4
[]
 40
1.0
 41
6.3499999999999996
 42
0.0
 43
6.9999999999999396
 44
3.9999999999992397
 45
0.0
 46
0.0
 47
0.0
 48
0.0
 71
               0
 72
               0
 73
               0
 74
               0
 75
               0
 76
               0
 77
               1
 78
              11
 79
               0
140
6.7733333333333325
141
0.0
142
0.0
143
0.0393700787401575
144
1.0
145
0.0
146
1.0
147
1.00000000000108
148
0.0
170
               0
171
               3
172
               1
173
               0
174
               1
175
               0
176
               0
177
               0
178
               0
179
               2
271
               1
272
               1
273
               4
274
               2
275
               0
276
               2
277
               2
278
              46
279
               0
280
               0
281
               0
282
               0
283
               1
284
              11
285
              15
286
              15
288
               0
340
58
341
69
342
69
343
0
344
0
371
              -2
372
              -2
  0
ENDTAB
  0
TABLE
  2
BLOCK_RECORD
  5
1
100
AcDbSymbolTable
 70
              54
  0
BLOCK_RECORD
  5
A
100
AcDbSymbolTableRecord
100
AcDbBlockTableRecord
  2
*MODEL_SPACE
340
20
  0
BLOCK_RECORD
  5
B
100
AcDbSymbolTableRecord
100
AcDbBlockTableRecord
  2
*PAPER_SPACE
340
21
  0
BLOCK_RECORD
  5
64
100
AcDbSymbolTableRecord
100
AcDbBlockTableRecord
  2
VW_SLASH
340
0
  0
BLOCK_RECORD
  5
69
100
AcDbSymbolTableRecord
100
AcDbBlockTableRecord
  2
VW_FILLEDARROW
340
0
  0
BLOCK_RECORD
  5
24
100
AcDbSymbolTableRecord
100
AcDbBlockTableRecord
  2
半窟外側-2
340
0
102
{BLKREFS
331
2B0
102
}
  0
BLOCK_RECORD
  5
25
100
AcDbSymbolTableRecord
100
AcDbBlockTableRecord
  2
六咳オィエ_廟面図-2
340
0
102
{BLKREFS
331
329
102
}
  0
BLOCK_RECORD
  5
26
100
AcDbSymbolTableRecord
100
AcDbBlockTableRecord
  2
六咳オィエ_廟面図_48
340
0
102
{BLKREFS
331
32E
102
}
  0
BLOCK_RECORD
  5
27
100
AcDbSymbolTableRecord
100
AcDbBlockTableRecord
  2
六咳オィエ_廟面図_64
340
0
102
{BLKREFS
331
33F
102
}
  0
BLOCK_RECORD
  5
28
100
AcDbSymbolTableRecord
100
AcDbBlockTableRecord
  2
六咳オィエ_廟面図_72
340
0
102
{BLKREFS
331
344
102
}
  0
BLOCK_RECORD
  5
29
100
AcDbSymbolTableRecord
100
AcDbBlockTableRecord
  2
六咳オィエ_廟面図_84
340
0
102
{BLKREFS
331
355
102
}
  0
BLOCK_RECORD
  5
2A
100
AcDbSymbolTableRecord
100
AcDbBlockTableRecord
  2
六咳オィエ_廟面図_88
340
0
102
{BLKREFS
331
35A
102
}
  0
BLOCK_RECORD
  5
2B
100
AcDbSymbolTableRecord
100
AcDbBlockTableRecord
  2
六咳オィエ_廟面図_104
340
0
102
{BLKREFS
331
36B
102
}
  0
BLOCK_RECORD
  5
2C
100
AcDbSymbolTableRecord
100
AcDbBlockTableRecord
  2
六咳オィエ_廟面図_108
340
0
102
{BLKREFS
331
370
102
}
  0
BLOCK_RECORD
  5
2D
100
AcDbSymbolTableRecord
100
AcDbBlockTableRecord
  2
六咳オィエ_廟面図_124
340
0
102
{BLKREFS
331
381
102
}
  0
BLOCK_RECORD
  5
2E
100
AcDbSymbolTableRecord
100
AcDbBlockTableRecord
  2
六咳オィエ_廟面図_128
340
0
102
{BLKREFS
331
386
102
}
  0
BLOCK_RECORD
  5
2F
100
AcDbSymbolTableRecord
100
AcDbBlockTableRecord
  2
円-2
340
0
102
{BLKREFS
331
38B
102
}
  0
BLOCK_RECORD
  5
30
100
AcDbSymbolTableRecord
100
AcDbBlockTableRecord
  2
円_133
340
0
102
{BLKREFS
331
38C
102
}
  0
BLOCK_RECORD
  5
31
100
AcDbSymbolTableRecord
100
AcDbBlockTableRecord
  2
六咳オィエ_廟面図_255
340
0
102
{BLKREFS
331
39D
102
}
  0
BLOCK_RECORD
  5
32
100
AcDbSymbolTableRecord
100
AcDbBlockTableRecord
  2
六咳オィエ_廟面図_259
340
0
102
{BLKREFS
331
3A2
102
}
  0
BLOCK_RECORD
  5
33
100
AcDbSymbolTableRecord
100
AcDbBlockTableRecord
  2
六咳オィエ_廟面図_275
340
0
102
{BLKREFS
331
3B3
102
}
  0
BLOCK_RECORD
  5
34
100
AcDbSymbolTableRecord
100
AcDbBlockTableRecord
  2
六咳オィエ_廟面図_279
340
0
102
{BLKREFS
331
3B8
102
}
  0
BLOCK_RECORD
  5
35
100
AcDbSymbolTableRecord
100
AcDbBlockTableRecord
  2
六咳オィエ_廟面図_295
340
0
102
{BLKREFS
331
3C9
102
}
  0
BLOCK_RECORD
  5
36
100
AcDbSymbolTableRecord
100
AcDbBlockTableRecord
  2
六咳オィエ_廟面図_299
340
0
102
{BLKREFS
331
3CE
102
}
  0
BLOCK_RECORD
  5
37
100
AcDbSymbolTableRecord
100
AcDbBlockTableRecord
  2
六咳オィエ_廟面図_315
340
0
102
{BLKREFS
331
3DF
102
}
  0
BLOCK_RECORD
  5
38
100
AcDbSymbolTableRecord
100
AcDbBlockTableRecord
  2
六咳オィエ_廟面図_319
340
0
102
{BLKREFS
331
3E4
102
}
  0
BLOCK_RECORD
  5
39
100
AcDbSymbolTableRecord
100
AcDbBlockTableRecord
  2
六咳オィエ_廟面図_335
340
0
102
{BLKREFS
331
3F5
102
}
  0
BLOCK_RECORD
  5
3A
100
AcDbSymbolTableRecord
100
AcDbBlockTableRecord
  2
六咳オィエ_廟面図_339
340
0
102
{BLKREFS
331
3FA
102
}
  0
BLOCK_RECORD
  5
3B
100
AcDbSymbolTableRecord
100
AcDbBlockTableRecord
  2
円_348
340
0
102
{BLKREFS
331
3FF
102
}
  0
BLOCK_RECORD
  5
3C
100
AcDbSymbolTableRecord
100
AcDbBlockTableRecord
  2
円_349
340
0
102
{BLKREFS
331
400
102
}
  0
BLOCK_RECORD
  5
3D
100
AcDbSymbolTableRecord
100
AcDbBlockTableRecord
  2
六咳オィエ_廟面図_366
340
0
102
{BLKREFS
331
411
102
}
  0
BLOCK_RECORD
  5
3E
100
AcDbSymbolTableRecord
100
AcDbBlockTableRecord
  2
六咳オィエ_廟面図_370
340
0
102
{BLKREFS
331
416
102
}
  0
BLOCK_RECORD
  5
3F
100
AcDbSymbolTableRecord
100
AcDbBlockTableRecord
  2
六咳オィエ_廟面図_386
340
0
102
{BLKREFS
331
427
102
}
  0
BLOCK_RECORD
  5
40
100
AcDbSymbolTableRecord
100
AcDbBlockTableRecord
  2
六咳オィエ_廟面図_390
340
0
102
{BLKREFS
331
42C
102
}
  0
BLOCK_RECORD
  5
41
100
AcDbSymbolTableRecord
100
AcDbBlockTableRecord
  2
六咳オィエ_廟面図_406
340
0
102
{BLKREFS
331
43D
102
}
  0
BLOCK_RECORD
  5
42
100
AcDbSymbolTableRecord
100
AcDbBlockTableRecord
  2
六咳オィエ_廟面図_410
340
0
102
{BLKREFS
331
442
102
}
  0
BLOCK_RECORD
  5
43
100
AcDbSymbolTableRecord
100
AcDbBlockTableRecord
  2
六咳オィエ_廟面図_426
340
0
102
{BLKREFS
331
453
102
}
  0
BLOCK_RECORD
  5
44
100
AcDbSymbolTableRecord
100
AcDbBlockTableRecord
  2
六咳オィエ_廟面図_430
340
0
102
{BLKREFS
331
458
102
}
  0
BLOCK_RECORD
  5
45
100
AcDbSymbolTableRecord
100
AcDbBlockTableRecord
  2
六咳オィエ_廟面図_446
340
0
102
{BLKREFS
331
469
102
}
  0
BLOCK_RECORD
  5
46
100
AcDbSymbolTableRecord
100
AcDbBlockTableRecord
  2
六咳オィエ_廟面図_450
340
0
102
{BLKREFS
331
46E
102
}
  0
BLOCK_RECORD
  5
47
100
AcDbSymbolTableRecord
100
AcDbBlockTableRecord
  2
円_459
340
0
102
{BLKREFS
331
473
102
}
  0
BLOCK_RECORD
  5
48
100
AcDbSymbolTableRecord
100
AcDbBlockTableRecord
  2
円_460
340
0
102
{BLKREFS
331
474
102
}
  0
BLOCK_RECORD
  5
49
100
AcDbSymbolTableRecord
100
AcDbBlockTableRecord
  2
*D39
340
0
  0
BLOCK_RECORD
  5
4A
100
AcDbSymbolTableRecord
100
AcDbBlockTableRecord
  2
*D40
340
0
  0
BLOCK_RECORD
  5
4B
100
AcDbSymbolTableRecord
100
AcDbBlockTableRecord
  2
*D41
340
0
  0
BLOCK_RECORD
  5
4C
100
AcDbSymbolTableRecord
100
AcDbBlockTableRecord
  2
*D42
340
0
  0
BLOCK_RECORD
  5
4D
100
AcDbSymbolTableRecord
100
AcDbBlockTableRecord
  2
*D43
340
0
  0
BLOCK_RECORD
  5
4E
100
AcDbSymbolTableRecord
100
AcDbBlockTableRecord
  2
*D44
340
0
  0
BLOCK_RECORD
  5
4F
100
AcDbSymbolTableRecord
100
AcDbBlockTableRecord
  2
*D45
340
0
  0
BLOCK_RECORD
  5
50
100
AcDbSymbolTableRecord
100
AcDbBlockTableRecord
  2
*D46
340
0
  0
BLOCK_RECORD
  5
51
100
AcDbSymbolTableRecord
100
AcDbBlockTableRecord
  2
*D47
340
0
  0
BLOCK_RECORD
  5
52
100
AcDbSymbolTableRecord
100
AcDbBlockTableRecord
  2
*D48
340
0
  0
BLOCK_RECORD
  5
53
100
AcDbSymbolTableRecord
100
AcDbBlockTableRecord
  2
*D49
340
0
  0
BLOCK_RECORD
  5
54
100
AcDbSymbolTableRecord
100
AcDbBlockTableRecord
  2
*D50
340
0
  0
BLOCK_RECORD
  5
55
100
AcDbSymbolTableRecord
100
AcDbBlockTableRecord
  2
*D51
340
0
  0
BLOCK_RECORD
  5
56
100
AcDbSymbolTableRecord
100
AcDbBlockTableRecord
  2
*D52
340
0
  0
BLOCK_RECORD
  5
57
100
AcDbSymbolTableRecord
100
AcDbBlockTableRecord
  2
*D53
340
0
  0
ENDTAB
  0
ENDSEC
  0
SECTION
  2
BLOCKS
  0
BLOCK
  5
D
100
AcDbEntity
  8
0
100
AcDbBlockBegin
  2
*MODEL_SPACE
 70
               0
 10
0.0
 20
0.0
 30
0.0
  3
*MODEL_SPACE
  1

  0
ENDBLK
  5
E
100
AcDbEntity
  8
0
100
AcDbBlockEnd
  0
BLOCK
  5
F
100
AcDbEntity
 67
               1
  8
0
100
AcDbBlockBegin
  2
*PAPER_SPACE
 70
               0
 10
0.0
 20
0.0
 30
0.0
  3
*PAPER_SPACE
  1

  0
ENDBLK
  5
10
100
AcDbEntity
 67
               1
  8
0
100
AcDbBlockEnd
  0
BLOCK
  5
65
100
AcDbEntity
  8
0
370
              -2
  6
ByBlock
 62
               0
100
AcDbBlockBegin
  2
VW_SLASH
 70
               0
 10
0.0
 20
0.0
 30
0.0
  3
VW_SLASH
  1

  0
LINE
  5
66
100
AcDbEntity
  8
0
370
              -2
  6
ByBlock
 62
               0
100
AcDbLine
 10
0.0
 20
0.0
 30
0.0
 11
-1.0
 21
0.0
 31
0.0
  0
LINE
  5
67
100
AcDbEntity
  8
0
370
              20
  6
ByBlock
 62
               0
100
AcDbLine
 10
-0.499877537989201
 20
-0.4998775379892008
 30
0.0
 11
0.499877537989201
 21
0.4998775379892008
 31
0.0
  0
ENDBLK
  5
68
100
AcDbEntity
  8
0
100
AcDbBlockEnd
  0
BLOCK
  5
6A
100
AcDbEntity
  8
0
370
              -2
  6
ByBlock
 62
               0
100
AcDbBlockBegin
  2
VW_FILLEDARROW
 70
               0
 10
0.0
 20
0.0
 30
0.0
  3
VW_FILLEDARROW
  1

  0
SOLID
  5
6B
100
AcDbEntity
  8
0
370
              -2
 62
               0
100
AcDbTrace
 10
0.0
 20
0.0
 30
0.0
 11
-1.4138671875
 21
-0.3788445710954878
 31
0.0
 12
-1.4138671875
 22
0.3788445710954881
 32
0.0
 13
-1.4138671875
 23
0.3788445710954881
 33
0.0
  0
ENDBLK
  5
6C
100
AcDbEntity
  8
0
100
AcDbBlockEnd
  0
BLOCK
  5
72
100
AcDbEntity
  8
一般
100
AcDbBlockBegin
  2
半窟外側-2
 70
               2
 10
0.0
 20
0.0
 30
0.0
  3
半窟外側-2
  1

  0
LINE
  5
73
100
AcDbEntity
  8
寸法
370
              15
  6
Continuous
 62
               7
100
AcDbLine
 10
58.289369999999998
 20
192.14173199999999
 30
0.0
 11
62.289369999999998
 21
192.14173199999999
 31
0.0
  0
LINE
  5
74
100
AcDbEntity
  8
寸法
370
              15
  6
Continuous
 62
               7
100
AcDbLine
 10
60.289369999999998
 20
190.14173199999999
 30
0.0
 11
60.289369999999998
 21
194.14173199999999
 31
0.0
  0
SOLID
  5
75
100
AcDbEntity
  8
寸法
 62
               7
100
AcDbTrace
 10
62.226607999999999
 20
193.91292099999998
 30
0.0
 11
64.442198000000005
 21
197.88884399999998
 31
0.0
 12
66.384634000000005
 22
195.76430499999998
 32
0.0
 13
66.384634000000005
 23
195.76430499999998
 33
0.0
  0
LWPOLYLINE
  5
76
100
AcDbEntity
  8
寸法
370
              15
  6
Continuous
 62
               7
100
AcDbPolyline
 90
        3
 70
             128
 10
92.164370000000005
 20
212.14173199999999
 10
82.164370000000005
 20
212.14173199999999
 10
62.226607999999999
 20
193.91292099999998
  0
MTEXT
  5
77
100
AcDbEntity
  8
寸法
 62
               7
100
AcDbMText
 10
120.56298100000001
 20
212.14173199999999
 30
0.0
 40
4.233333
 41
0.0
 71
               5
 72
               1
  1
12-裏よりM3サラで固定
  7
MS UI Gothic
 73
               1
 44
1.0
  0
ATTDEF
  5
78
100
AcDbEntity
  8
一般
 62
               0
100
AcDbText
 10
58.289369999999998
 20
182.52173199999999
 30
0.0
 40
4.2333333333333325
  1
User.LPrecVal
100
AcDbAttributeDefinition
  3

  2
精度
 70
               1
  0
ATTDEF
  5
79
100
AcDbEntity
  8
一般
 62
               0
100
AcDbText
 10
58.289369999999998
 20
174.90173199999998
 30
0.0
 40
4.2333333333333325
  1
User.LUnitsVal
100
AcDbAttributeDefinition
  3

  2
単位
 70
               1
  0
ATTDEF
  5
7A
100
AcDbEntity
  8
一般
 62
               0
100
AcDbText
 10
58.289369999999998
 20
167.28173199999998
 30
0.0
 40
4.2333333333333325
  1
User.ShowUnitsVal
100
AcDbAttributeDefinition
  3

  2
単位の表示
 70
               1
  0
ATTDEF
  5
7B
100
AcDbEntity
  8
一般
 62
               0
100
AcDbText
 10
58.289369999999998
 20
159.66173199999997
 30
0.0
 40
4.2333333333333325
  1
両端
100
AcDbAttributeDefinition
  3

  2
寸法補助線
 70
               1
  0
ENDBLK
  5
7C
100
AcDbEntity
  8
一般
100
AcDbBlockEnd
  0
BLOCK
  5
7D
100
AcDbEntity
  8
一般
100
AcDbBlockBegin
  2
六咳オィエ_廟面図-2
 70
               2
 10
0.0
 20
0.0
 30
0.0
  3
六咳オィエ_廟面図-2
  1

  0
LWPOLYLINE
  5
7E
100
AcDbEntity
  8
0
370
              15
  6
Continuous
 62
               7
100
AcDbPolyline
 90
       10
 70
             129
 10
169.94488200000001
 20
87.248030999999997
 10
169.94488200000001
 20
87.248030999999997
 42
-0.4142135623730855
 10
170.81988200000001
 20
88.123030999999997
 10
170.81988200000001
 20
88.123030999999997
 42
-0.414213562373095
 10
171.69488200000001
 20
87.248030999999997
 10
171.69488200000001
 20
87.248030999999997
 10
171.69488200000001
 20
87.248030999999997
 42
-0.4142135623731046
 10
170.81988200000001
 20
86.373030999999997
 10
170.81988200000001
 20
86.373030999999997
 42
-0.414213562373095
 10
169.94488200000001
 20
87.248030999999997
  0
LWPOLYLINE
  5
7F
100
AcDbEntity
  8
0
370
              15
  6
Continuous
 62
               7
100
AcDbPolyline
 90
        5
 70
             128
 10
168.94488200000001
 20
87.248030999999997
 42
-0.4142135623730906
 10
170.81988200000001
 20
89.123030999999997
 10
170.81988200000001
 20
89.123030999999997
 42
-0.414213562373095
 10
172.69488200000001
 20
87.248030999999997
 10
172.69488200000001
 20
87.248030999999997
  0
LWPOLYLINE
  5
80
100
AcDbEntity
  8
0
370
              15
  6
Continuous
 62
               7
100
AcDbPolyline
 90
        5
 70
             128
 10
168.94488200000001
 20
87.248030999999997
 42
0.414213562373095
 10
170.81988200000001
 20
85.373030999999997
 10
170.81988200000001
 20
85.373030999999997
 42
0.4142135623730995
 10
172.69488200000001
 20
87.248030999999997
 10
172.69488200000001
 20
87.248030999999997
  0
LWPOLYLINE
  5
81
100
AcDbEntity
  8
0
370
              15
  6
Continuous
 62
               7
100
AcDbPolyline
 90
        6
 70
             129
 10
170.81988200000001
 20
89.413031000000004
 10
168.94488200000001
 20
88.330530999999993
 10
168.94488200000001
 20
86.165531000000001
 10
170.81988200000001
 20
85.083030999999991
 10
172.69488200000001
 20
86.165531000000001
 10
172.69488200000001
 20
88.330530999999993
  0
LWPOLYLINE
  5
82
100
AcDbEntity
  8
0
370
              15
  6
Continuous
 62
               7
100
AcDbPolyline
 90
       20
 70
             129
 10
171.703765
 20
88.131913999999995
 10
171.703765
 20
88.131913999999995
 42
-0.4142135623730856
 10
171.703765
 20
86.364148
 10
171.703765
 20
86.364148
 42
-0.414213562373095
 10
169.93599900000001
 20
86.364148
 10
169.93599900000001
 20
86.364148
 10
169.93599900000004
 20
86.364147999999972
 42
0.414213562373095
 10
171.703765
 20
86.364148
 10
171.703765
 20
86.364148
 42
0.4142135623730856
 10
171.703765
 20
88.131913999999995
 10
171.703765
 20
88.131913999999995
 10
171.703765
 20
88.131913999999995
 42
0.414213562373095
 10
169.93599900000001
 20
88.131913999999995
 10
169.93599900000001
 20
88.131913999999995
 42
0.4142135623731045
 10
169.93599900000001
 20
86.364148
 10
169.93599900000001
 20
86.364148
 10
169.93599900000001
 20
86.364148
 42
-0.4142135623731045
 10
169.93599900000001
 20
88.131913999999995
 10
169.93599900000001
 20
88.131913999999966
 42
-0.4142135623731045
 10
171.703765
 20
88.131913999999995
  0
ATTDEF
  5
83
100
AcDbEntity
  8
一般
 62
               0
100
AcDbText
 10
168.94488200000001
 20
77.463030999999987
 30
0.0
 40
4.2333333333333325
  1
M2.5
100
AcDbAttributeDefinition
  3

  2
ネジの直径
 70
               1
  0
ATTDEF
  5
84
100
AcDbEntity
  8
一般
 62
               0
100
AcDbText
 10
168.94488200000001
 20
69.843030999999982
 30
0.0
 40
4.2333333333333325
  1
6.911 mm
100
AcDbAttributeDefinition
  3

  2
直径
 70
               1
  0
ENDBLK
  5
85
100
AcDbEntity
  8
一般
100
AcDbBlockEnd
  0
BLOCK
  5
86
100
AcDbEntity
  8
一般
100
AcDbBlockBegin
  2
六咳オィエ_廟面図_48
 70
               2
 10
0.0
 20
0.0
 30
0.0
  3
六咳オィエ_廟面図_48
  1

  0
LWPOLYLINE
  5
87
100
AcDbEntity
  8
0
370
              15
  6
Continuous
 62
               7
100
AcDbPolyline
 90
       10
 70
             129
 10
192.982283
 20
87.248030999999997
 10
192.982283
 20
87.248030999999997
 42
-0.4142135623731046
 10
193.857283
 20
88.123030999999997
 10
193.857283
 20
88.123030999999997
 42
-0.414213562373095
 10
194.732283
 20
87.248030999999997
 10
194.732283
 20
87.248030999999997
 10
194.732283
 20
87.248030999999997
 42
-0.4142135623730855
 10
193.857283
 20
86.373030999999997
 10
193.857283
 20
86.373030999999997
 42
-0.414213562373095
 10
192.982283
 20
87.248030999999997
  0
LWPOLYLINE
  5
88
100
AcDbEntity
  8
0
370
              15
  6
Continuous
 62
               7
100
AcDbPolyline
 90
        5
 70
             128
 10
191.982283
 20
87.248030999999997
 42
-0.4142135623730995
 10
193.857283
 20
89.123030999999997
 10
193.857283
 20
89.123030999999997
 42
-0.414213562373095
 10
195.732283
 20
87.248030999999997
 10
195.732283
 20
87.248030999999997
  0
LWPOLYLINE
  5
89
100
AcDbEntity
  8
0
370
              15
  6
Continuous
 62
               7
100
AcDbPolyline
 90
        5
 70
             128
 10
191.982283
 20
87.248030999999997
 42
0.414213562373095
 10
193.857283
 20
85.373030999999997
 10
193.857283
 20
85.373030999999997
 42
0.4142135623730906
 10
195.732283
 20
87.248030999999997
 10
195.732283
 20
87.248030999999997
  0
LWPOLYLINE
  5
8A
100
AcDbEntity
  8
0
370
              15
  6
Continuous
 62
               7
100
AcDbPolyline
 90
        6
 70
             129
 10
193.857283
 20
89.413031000000004
 10
191.982283
 20
88.330530999999993
 10
191.982283
 20
86.165531000000001
 10
193.857283
 20
85.083030999999991
 10
195.732283
 20
86.165531000000001
 10
195.732283
 20
88.330530999999993
  0
LWPOLYLINE
  5
8B
100
AcDbEntity
  8
0
370
              15
  6
Continuous
 62
               7
100
AcDbPolyline
 90
       20
 70
             129
 10
194.74116599999999
 20
88.131913999999995
 10
194.74116599999999
 20
88.131913999999995
 42
-0.4142135623731045
 10
194.74116599999999
 20
86.364148
 10
194.74116599999999
 20
86.364148000000029
 42
-0.4142135623731045
 10
192.9734
 20
86.364148
 10
192.9734
 20
86.364148
 10
192.9734
 20
86.364148
 42
0.414213562373095
 10
194.74116599999999
 20
86.364148
 10
194.74116599999999
 20
86.364148
 42
0.4142135623731045
 10
194.74116599999999
 20
88.131913999999995
 10
194.74116599999999
 20
88.131913999999995
 10
194.74116599999996
 20
88.131914000000023
 42
0.414213562373095
 10
192.9734
 20
88.131913999999995
 10
192.9734
 20
88.131913999999995
 42
0.4142135623730856
 10
192.9734
 20
86.364148
 10
192.9734
 20
86.364148
 10
192.9734
 20
86.364148
 42
-0.4142135623730856
 10
192.9734
 20
88.131913999999995
 10
192.9734
 20
88.131913999999995
 42
-0.414213562373095
 10
194.74116599999999
 20
88.131913999999995
  0
ATTDEF
  5
8C
100
AcDbEntity
  8
一般
 62
               0
100
AcDbText
 10
191.982283
 20
77.463030999999987
 30
0.0
 40
4.2333333333333325
  1
M2.5
100
AcDbAttributeDefinition
  3

  2
ネジの直径
 70
               1
  0
ATTDEF
  5
8D
100
AcDbEntity
  8
一般
 62
               0
100
AcDbText
 10
191.982283
 20
69.843030999999982
 30
0.0
 40
4.2333333333333325
  1
6.911 mm
100
AcDbAttributeDefinition
  3

  2
直径
 70
               1
  0
ENDBLK
  5
8E
100
AcDbEntity
  8
一般
100
AcDbBlockEnd
  0
BLOCK
  5
8F
100
AcDbEntity
  8
一般
100
AcDbBlockBegin
  2
六咳オィエ_廟面図_64
 70
               2
 10
0.0
 20
0.0
 30
0.0
  3
六咳オィエ_廟面図_64
  1

  0
LWPOLYLINE
  5
90
100
AcDbEntity
  8
0
370
              15
  6
Continuous
 62
               7
100
AcDbPolyline
 90
       10
 70
             129
 10
169.94488200000001
 20
104.403543
 10
169.94488200000001
 20
104.403543
 42
-0.4142135623730998
 10
170.81988200000001
 20
105.278543
 10
170.81988200000001
 20
105.278543
 42
-0.414213562373095
 10
171.69488200000001
 20
104.403543
 10
171.69488200000001
 20
104.403543
 10
171.69488200000001
 20
104.403543
 42
-0.4142135623730903
 10
170.81988200000001
 20
103.528543
 10
170.81988200000001
 20
103.528543
 42
-0.414213562373095
 10
169.94488200000001
 20
104.403543
  0
LWPOLYLINE
  5
91
100
AcDbEntity
  8
0
370
              15
  6
Continuous
 62
               7
100
AcDbPolyline
 90
        5
 70
             128
 10
168.94488200000001
 20
104.403543
 42
-0.4142135623730973
 10
170.81988200000001
 20
106.278543
 10
170.81988200000001
 20
106.278543
 42
-0.414213562373095
 10
172.69488200000001
 20
104.403543
 10
172.69488200000001
 20
104.403543
  0
LWPOLYLINE
  5
92
100
AcDbEntity
  8
0
370
              15
  6
Continuous
 62
               7
100
AcDbPolyline
 90
        5
 70
             128
 10
168.94488200000001
 20
104.403543
 42
0.414213562373095
 10
170.81988200000001
 20
102.528543
 10
170.81988200000001
 20
102.528543
 42
0.4142135623730928
 10
172.69488200000001
 20
104.403543
 10
172.69488200000001
 20
104.403543
  0
LWPOLYLINE
  5
93
100
AcDbEntity
  8
0
370
              15
  6
Continuous
 62
               7
100
AcDbPolyline
 90
        6
 70
             129
 10
170.81988200000001
 20
106.56854300000001
 10
168.94488200000001
 20
105.486043
 10
168.94488200000001
 20
103.321043
 10
170.81988200000001
 20
102.23854299999999
 10
172.69488200000001
 20
103.321043
 10
172.69488200000001
 20
105.486043
  0
LWPOLYLINE
  5
94
100
AcDbEntity
  8
0
370
              15
  6
Continuous
 62
               7
100
AcDbPolyline
 90
       20
 70
             129
 10
171.703765
 20
105.287426
 10
171.703765
 20
105.28742599999995
 42
-0.4142135623730927
 10
171.703765
 20
103.51966
 10
171.703765
 20
103.51966000000002
 42
-0.414213562373095
 10
169.93599900000001
 20
103.51966
 10
169.93599900000001
 20
103.51966
 10
169.93599900000001
 20
103.51966
 42
0.414213562373095
 10
171.703765
 20
103.51966
 10
171.703765
 20
103.51966
 42
0.414213562373095
 10
171.703765
 20
105.287426
 10
171.703765
 20
105.287426
 10
171.703765
 20
105.287426
 42
0.414213562373095
 10
169.93599900000001
 20
105.287426
 10
169.93599900000001
 20
105.287426
 42
0.414213562373095
 10
169.93599900000001
 20
103.51966
 10
169.93599900000001
 20
103.51966
 10
169.93599900000001
 20
103.51966
 42
-0.414213562373095
 10
169.93599900000001
 20
105.287426
 10
169.93599900000001
 20
105.287426
 42
-0.414213562373095
 10
171.703765
 20
105.287426
  0
ATTDEF
  5
95
100
AcDbEntity
  8
一般
 62
               0
100
AcDbText
 10
168.94488200000001
 20
94.618542999999988
 30
0.0
 40
4.2333333333333325
  1
M2.5
100
AcDbAttributeDefinition
  3

  2
ネジの直径
 70
               1
  0
ATTDEF
  5
96
100
AcDbEntity
  8
一般
 62
               0
100
AcDbText
 10
168.94488200000001
 20
86.998542999999984
 30
0.0
 40
4.2333333333333325
  1
6.911 mm
100
AcDbAttributeDefinition
  3

  2
直径
 70
               1
  0
ENDBLK
  5
97
100
AcDbEntity
  8
一般
100
AcDbBlockEnd
  0
BLOCK
  5
98
100
AcDbEntity
  8
一般
100
AcDbBlockBegin
  2
六咳オィエ_廟面図_72
 70
               2
 10
0.0
 20
0.0
 30
0.0
  3
六咳オィエ_廟面図_72
  1

  0
LWPOLYLINE
  5
99
100
AcDbEntity
  8
0
370
              15
  6
Continuous
 62
               7
100
AcDbPolyline
 90
       10
 70
             129
 10
192.982283
 20
104.403543
 10
192.982283
 20
104.403543
 42
-0.4142135623730998
 10
193.857283
 20
105.278543
 10
193.857283
 20
105.278543
 42
-0.414213562373095
 10
194.732283
 20
104.403543
 10
194.732283
 20
104.403543
 10
194.732283
 20
104.403543
 42
-0.4142135623730903
 10
193.857283
 20
103.528543
 10
193.857283
 20
103.528543
 42
-0.414213562373095
 10
192.982283
 20
104.403543
  0
LWPOLYLINE
  5
9A
100
AcDbEntity
  8
0
370
              15
  6
Continuous
 62
               7
100
AcDbPolyline
 90
        5
 70
             128
 10
191.982283
 20
104.403543
 42
-0.4142135623730973
 10
193.857283
 20
106.278543
 10
193.857283
 20
106.278543
 42
-0.414213562373095
 10
195.732283
 20
104.403543
 10
195.732283
 20
104.403543
  0
LWPOLYLINE
  5
9B
100
AcDbEntity
  8
0
370
              15
  6
Continuous
 62
               7
100
AcDbPolyline
 90
        5
 70
             128
 10
191.982283
 20
104.403543
 42
0.414213562373095
 10
193.857283
 20
102.528543
 10
193.857283
 20
102.528543
 42
0.4142135623730928
 10
195.732283
 20
104.403543
 10
195.732283
 20
104.403543
  0
LWPOLYLINE
  5
9C
100
AcDbEntity
  8
0
370
              15
  6
Continuous
 62
               7
100
AcDbPolyline
 90
        6
 70
             129
 10
193.857283
 20
106.56854300000001
 10
191.982283
 20
105.486043
 10
191.982283
 20
103.321043
 10
193.857283
 20
102.23854299999999
 10
195.732283
 20
103.321043
 10
195.732283
 20
105.486043
  0
LWPOLYLINE
  5
9D
100
AcDbEntity
  8
0
370
              15
  6
Continuous
 62
               7
100
AcDbPolyline
 90
       20
 70
             129
 10
194.74116599999999
 20
105.287426
 10
194.74116599999996
 20
105.28742599999998
 42
-0.4142135623731116
 10
194.74116599999999
 20
103.51966
 10
194.74116599999999
 20
103.51966000000002
 42
-0.414213562373095
 10
192.9734
 20
103.51966
 10
192.9734
 20
103.51966
 10
192.9734
 20
103.51966
 42
0.414213562373095
 10
194.74116599999999
 20
103.51966
 10
194.74116599999999
 20
103.51966
 42
0.414213562373095
 10
194.74116599999999
 20
105.287426
 10
194.74116599999999
 20
105.287426
 10
194.74116599999999
 20
105.287426
 42
0.414213562373095
 10
192.9734
 20
105.287426
 10
192.9734
 20
105.287426
 42
0.414213562373095
 10
192.9734
 20
103.51966
 10
192.9734
 20
103.51966
 10
192.9734
 20
103.51966
 42
-0.414213562373095
 10
192.9734
 20
105.287426
 10
192.9734
 20
105.287426
 42
-0.414213562373095
 10
194.74116599999999
 20
105.287426
  0
ATTDEF
  5
9E
100
AcDbEntity
  8
一般
 62
               0
100
AcDbText
 10
191.982283
 20
94.618542999999988
 30
0.0
 40
4.2333333333333325
  1
M2.5
100
AcDbAttributeDefinition
  3

  2
ネジの直径
 70
               1
  0
ATTDEF
  5
9F
100
AcDbEntity
  8
一般
 62
               0
100
AcDbText
 10
191.982283
 20
86.998542999999984
 30
0.0
 40
4.2333333333333325
  1
6.911 mm
100
AcDbAttributeDefinition
  3

  2
直径
 70
               1
  0
ENDBLK
  5
A0
100
AcDbEntity
  8
一般
100
AcDbBlockEnd
  0
BLOCK
  5
A1
100
AcDbEntity
  8
一般
100
AcDbBlockBegin
  2
六咳オィエ_廟面図_84
 70
               2
 10
0.0
 20
0.0
 30
0.0
  3
六咳オィエ_廟面図_84
  1

  0
LWPOLYLINE
  5
A2
100
AcDbEntity
  8
0
370
              15
  6
Continuous
 62
               7
100
AcDbPolyline
 90
       10
 70
             129
 10
211.11811
 20
104.403543
 10
211.11811
 20
104.403543
 42
-0.4142135623730998
 10
211.99311
 20
105.278543
 10
211.99311
 20
105.278543
 42
-0.414213562373095
 10
212.86811
 20
104.403543
 10
212.86811
 20
104.403543
 10
212.86811
 20
104.403543
 42
-0.4142135623730903
 10
211.99311
 20
103.528543
 10
211.99311
 20
103.528543
 42
-0.414213562373095
 10
211.11811
 20
104.403543
  0
LWPOLYLINE
  5
A3
100
AcDbEntity
  8
0
370
              15
  6
Continuous
 62
               7
100
AcDbPolyline
 90
        5
 70
             128
 10
210.11811
 20
104.403543
 42
-0.4142135623730973
 10
211.99311
 20
106.278543
 10
211.99311
 20
106.278543
 42
-0.414213562373095
 10
213.86811
 20
104.403543
 10
213.86811
 20
104.403543
  0
LWPOLYLINE
  5
A4
100
AcDbEntity
  8
0
370
              15
  6
Continuous
 62
               7
100
AcDbPolyline
 90
        5
 70
             128
 10
210.11811
 20
104.403543
 42
0.414213562373095
 10
211.99311
 20
102.528543
 10
211.99311
 20
102.528543
 42
0.4142135623730928
 10
213.86811
 20
104.403543
 10
213.86811
 20
104.403543
  0
LWPOLYLINE
  5
A5
100
AcDbEntity
  8
0
370
              15
  6
Continuous
 62
               7
100
AcDbPolyline
 90
        6
 70
             129
 10
211.99311
 20
106.56854300000001
 10
210.11811
 20
105.486043
 10
210.11811
 20
103.321043
 10
211.99311
 20
102.23854299999999
 10
213.86811
 20
103.321043
 10
213.86811
 20
105.486043
  0
LWPOLYLINE
  5
A6
100
AcDbEntity
  8
0
370
              15
  6
Continuous
 62
               7
100
AcDbPolyline
 90
       20
 70
             129
 10
212.876993
 20
105.287426
 10
212.876993
 20
105.28742600000001
 42
-0.4142135623731116
 10
212.876993
 20
103.51966
 10
212.876993
 20
103.51966000000002
 42
-0.414213562373095
 10
211.109227
 20
103.51966
 10
211.109227
 20
103.51966
 10
211.109227
 20
103.51966
 42
0.414213562373095
 10
212.876993
 20
103.51966
 10
212.876993
 20
103.51966
 42
0.414213562373095
 10
212.876993
 20
105.287426
 10
212.876993
 20
105.287426
 10
212.876993
 20
105.287426
 42
0.414213562373095
 10
211.109227
 20
105.287426
 10
211.109227
 20
105.287426
 42
0.414213562373095
 10
211.109227
 20
103.51966
 10
211.109227
 20
103.51966
 10
211.109227
 20
103.51966
 42
-0.4142135623730833
 10
211.109227
 20
105.287426
 10
211.109227
 20
105.287426
 42
-0.414213562373095
 10
212.876993
 20
105.287426
  0
ATTDEF
  5
A7
100
AcDbEntity
  8
一般
 62
               0
100
AcDbText
 10
210.11811
 20
94.618542999999988
 30
0.0
 40
4.2333333333333325
  1
M2.5
100
AcDbAttributeDefinition
  3

  2
ネジの直径
 70
               1
  0
ATTDEF
  5
A8
100
AcDbEntity
  8
一般
 62
               0
100
AcDbText
 10
210.11811
 20
86.998542999999984
 30
0.0
 40
4.2333333333333325
  1
6.911 mm
100
AcDbAttributeDefinition
  3

  2
直径
 70
               1
  0
ENDBLK
  5
A9
100
AcDbEntity
  8
一般
100
AcDbBlockEnd
  0
BLOCK
  5
AA
100
AcDbEntity
  8
一般
100
AcDbBlockBegin
  2
六咳オィエ_廟面図_88
 70
               2
 10
0.0
 20
0.0
 30
0.0
  3
六咳オィエ_廟面図_88
  1

  0
LWPOLYLINE
  5
AB
100
AcDbEntity
  8
0
370
              15
  6
Continuous
 62
               7
100
AcDbPolyline
 90
       10
 70
             129
 10
234.15551199999999
 20
104.403543
 10
234.15551199999999
 20
104.403543
 42
-0.4142135623730998
 10
235.03051199999999
 20
105.278543
 10
235.03051199999999
 20
105.278543
 42
-0.414213562373095
 10
235.90551199999999
 20
104.403543
 10
235.90551199999999
 20
104.403543
 10
235.90551199999999
 20
104.403543
 42
-0.4142135623730903
 10
235.03051199999999
 20
103.528543
 10
235.03051199999999
 20
103.528543
 42
-0.414213562373095
 10
234.15551199999999
 20
104.403543
  0
LWPOLYLINE
  5
AC
100
AcDbEntity
  8
0
370
              15
  6
Continuous
 62
               7
100
AcDbPolyline
 90
        5
 70
             128
 10
233.15551199999999
 20
104.403543
 42
-0.4142135623730973
 10
235.03051199999999
 20
106.278543
 10
235.03051199999999
 20
106.278543
 42
-0.414213562373095
 10
236.90551199999999
 20
104.403543
 10
236.90551199999999
 20
104.403543
  0
LWPOLYLINE
  5
AD
100
AcDbEntity
  8
0
370
              15
  6
Continuous
 62
               7
100
AcDbPolyline
 90
        5
 70
             128
 10
233.15551199999999
 20
104.403543
 42
0.414213562373095
 10
235.03051199999999
 20
102.528543
 10
235.03051199999999
 20
102.528543
 42
0.4142135623730928
 10
236.90551199999999
 20
104.403543
 10
236.90551199999999
 20
104.403543
  0
LWPOLYLINE
  5
AE
100
AcDbEntity
  8
0
370
              15
  6
Continuous
 62
               7
100
AcDbPolyline
 90
        6
 70
             129
 10
235.03051199999999
 20
106.56854300000001
 10
233.15551199999999
 20
105.486043
 10
233.15551199999999
 20
103.321043
 10
235.03051199999999
 20
102.23854299999999
 10
236.90551199999999
 20
103.321043
 10
236.90551199999999
 20
105.486043
  0
LWPOLYLINE
  5
AF
100
AcDbEntity
  8
0
370
              15
  6
Continuous
 62
               7
100
AcDbPolyline
 90
       20
 70
             129
 10
235.91439499999998
 20
105.287426
 10
235.91439500000001
 20
105.28742599999998
 42
-0.4142135623730927
 10
235.91439499999998
 20
103.51966
 10
235.91439499999998
 20
103.51966000000002
 42
-0.414213562373095
 10
234.14662899999999
 20
103.51966
 10
234.14662899999999
 20
103.51966
 10
234.14662899999999
 20
103.51966000000002
 42
0.414213562373095
 10
235.91439499999998
 20
103.51966
 10
235.91439500000001
 20
103.51966
 42
0.4142135623730927
 10
235.91439499999998
 20
105.287426
 10
235.91439499999998
 20
105.287426
 10
235.91439499999998
 20
105.287426
 42
0.4142135623730998
 10
234.14662899999999
 20
105.287426
 10
234.14662899999999
 20
105.287426
 42
0.414213562373095
 10
234.14662899999999
 20
103.51966
 10
234.14662899999999
 20
103.51966
 10
234.14662899999999
 20
103.51966
 42
-0.414213562373095
 10
234.14662899999999
 20
105.287426
 10
234.14662899999999
 20
105.287426
 42
-0.4142135623730998
 10
235.91439499999998
 20
105.287426
  0
ATTDEF
  5
B0
100
AcDbEntity
  8
一般
 62
               0
100
AcDbText
 10
233.15551199999999
 20
94.618542999999988
 30
0.0
 40
4.2333333333333325
  1
M2.5
100
AcDbAttributeDefinition
  3

  2
ネジの直径
 70
               1
  0
ATTDEF
  5
B1
100
AcDbEntity
  8
一般
 62
               0
100
AcDbText
 10
233.15551199999999
 20
86.998542999999984
 30
0.0
 40
4.2333333333333325
  1
6.911 mm
100
AcDbAttributeDefinition
  3

  2
直径
 70
               1
  0
ENDBLK
  5
B2
100
AcDbEntity
  8
一般
100
AcDbBlockEnd
  0
BLOCK
  5
B3
100
AcDbEntity
  8
一般
100
AcDbBlockBegin
  2
六咳オィエ_廟面図_104
 70
               2
 10
0.0
 20
0.0
 30
0.0
  3
六咳オィエ_廟面図_104
  1

  0
LWPOLYLINE
  5
B4
100
AcDbEntity
  8
0
370
              15
  6
Continuous
 62
               7
100
AcDbPolyline
 90
       10
 70
             129
 10
132.30078699999999
 20
93.129920999999996
 10
132.30078699999999
 20
93.129920999999996
 42
-0.414213562373095
 10
133.17578699999999
 20
94.004920999999996
 10
133.17578699999999
 20
94.004920999999996
 42
-0.414213562373095
 10
134.05078699999999
 20
93.129920999999996
 10
134.05078699999999
 20
93.129920999999996
 10
134.05078699999999
 20
93.129920999999996
 42
-0.414213562373095
 10
133.17578699999999
 20
92.254920999999996
 10
133.17578699999999
 20
92.254920999999996
 42
-0.414213562373095
 10
132.30078699999999
 20
93.129920999999996
  0
LWPOLYLINE
  5
B5
100
AcDbEntity
  8
0
370
              15
  6
Continuous
 62
               7
100
AcDbPolyline
 90
        5
 70
             128
 10
131.30078699999999
 20
93.129920999999996
 42
-0.414213562373095
 10
133.17578699999999
 20
95.004920999999996
 10
133.17578699999999
 20
95.004920999999996
 42
-0.414213562373095
 10
135.05078699999999
 20
93.129920999999996
 10
135.05078699999999
 20
93.129920999999996
  0
LWPOLYLINE
  5
B6
100
AcDbEntity
  8
0
370
              15
  6
Continuous
 62
               7
100
AcDbPolyline
 90
        5
 70
             128
 10
131.30078699999999
 20
93.129920999999996
 42
0.414213562373095
 10
133.17578699999999
 20
91.254920999999996
 10
133.17578699999999
 20
91.254920999999996
 42
0.414213562373095
 10
135.05078699999999
 20
93.129920999999996
 10
135.05078699999999
 20
93.129920999999996
  0
LWPOLYLINE
  5
B7
100
AcDbEntity
  8
0
370
              15
  6
Continuous
 62
               7
100
AcDbPolyline
 90
        6
 70
             129
 10
133.17578699999999
 20
95.294921000000002
 10
131.30078699999999
 20
94.212420999999992
 10
131.30078699999999
 20
92.047421
 10
133.17578699999999
 20
90.96492099999999
 10
135.05078699999999
 20
92.047421
 10
135.05078699999999
 20
94.212420999999992
  0
LWPOLYLINE
  5
B8
100
AcDbEntity
  8
0
370
              15
  6
Continuous
 62
               7
100
AcDbPolyline
 90
       20
 70
             129
 10
134.05966999999998
 20
94.013803999999993
 10
134.05966999999998
 20
94.013803999999993
 42
-0.414213562373095
 10
134.05966999999998
 20
92.246037999999999
 10
134.05966999999998
 20
92.246037999999999
 42
-0.414213562373088
 10
132.29190399999999
 20
92.246037999999984
 10
132.29190399999999
 20
92.246037999999984
 10
132.29190399999999
 20
92.246037999999984
 42
0.414213562373088
 10
134.05966999999998
 20
92.246037999999999
 10
134.05966999999998
 20
92.246037999999999
 42
0.414213562373095
 10
134.05966999999998
 20
94.013803999999993
 10
134.05966999999998
 20
94.013803999999993
 10
134.05966999999998
 20
94.013803999999993
 42
0.414213562373095
 10
132.29190399999999
 20
94.013803999999993
 10
132.29190399999999
 20
94.013803999999993
 42
0.4142135623730974
 10
132.29190399999999
 20
92.246037999999984
 10
132.29190399999999
 20
92.246037999999984
 10
132.29190399999999
 20
92.246037999999984
 42
-0.4142135623730974
 10
132.29190399999999
 20
94.013803999999993
 10
132.29190399999999
 20
94.013803999999993
 42
-0.414213562373095
 10
134.05966999999998
 20
94.013803999999993
  0
ATTDEF
  5
B9
100
AcDbEntity
  8
一般
 62
               0
100
AcDbText
 10
131.30078699999999
 20
83.344920999999985
 30
0.0
 40
4.2333333333333325
  1
M2.5
100
AcDbAttributeDefinition
  3

  2
ネジの直径
 70
               1
  0
ATTDEF
  5
BA
100
AcDbEntity
  8
一般
 62
               0
100
AcDbText
 10
131.30078699999999
 20
75.724920999999981
 30
0.0
 40
4.2333333333333325
  1
6.911 mm
100
AcDbAttributeDefinition
  3

  2
直径
 70
               1
  0
ENDBLK
  5
BB
100
AcDbEntity
  8
一般
100
AcDbBlockEnd
  0
BLOCK
  5
BC
100
AcDbEntity
  8
一般
100
AcDbBlockBegin
  2
六咳オィエ_廟面図_108
 70
               2
 10
0.0
 20
0.0
 30
0.0
  3
六咳オィエ_廟面図_108
  1

  0
LWPOLYLINE
  5
BD
100
AcDbEntity
  8
0
370
              15
  6
Continuous
 62
               7
100
AcDbPolyline
 90
       10
 70
             129
 10
155.338189
 20
93.129920999999996
 10
155.338189
 20
93.129920999999996
 42
-0.414213562373095
 10
156.213189
 20
94.004920999999996
 10
156.213189
 20
94.004920999999996
 42
-0.414213562373095
 10
157.088189
 20
93.129920999999996
 10
157.088189
 20
93.129920999999996
 10
157.088189
 20
93.129920999999996
 42
-0.414213562373095
 10
156.213189
 20
92.254920999999996
 10
156.213189
 20
92.254920999999996
 42
-0.414213562373095
 10
155.338189
 20
93.129920999999996
  0
LWPOLYLINE
  5
BE
100
AcDbEntity
  8
0
370
              15
  6
Continuous
 62
               7
100
AcDbPolyline
 90
        5
 70
             128
 10
154.338189
 20
93.129920999999996
 42
-0.414213562373095
 10
156.213189
 20
95.004920999999996
 10
156.213189
 20
95.004920999999996
 42
-0.414213562373095
 10
158.088189
 20
93.129920999999996
 10
158.088189
 20
93.129920999999996
  0
LWPOLYLINE
  5
BF
100
AcDbEntity
  8
0
370
              15
  6
Continuous
 62
               7
100
AcDbPolyline
 90
        5
 70
             128
 10
154.338189
 20
93.129920999999996
 42
0.414213562373095
 10
156.213189
 20
91.254920999999996
 10
156.213189
 20
91.254920999999996
 42
0.414213562373095
 10
158.088189
 20
93.129920999999996
 10
158.088189
 20
93.129920999999996
  0
LWPOLYLINE
  5
C0
100
AcDbEntity
  8
0
370
              15
  6
Continuous
 62
               7
100
AcDbPolyline
 90
        6
 70
             129
 10
156.213189
 20
95.294921000000002
 10
154.338189
 20
94.212420999999992
 10
154.338189
 20
92.047421
 10
156.213189
 20
90.96492099999999
 10
158.088189
 20
92.047421
 10
158.088189
 20
94.212420999999992
  0
LWPOLYLINE
  5
C1
100
AcDbEntity
  8
0
370
              15
  6
Continuous
 62
               7
100
AcDbPolyline
 90
       20
 70
             129
 10
157.097072
 20
94.013803999999993
 10
157.097072
 20
94.013803999999993
 42
-0.414213562373095
 10
157.097072
 20
92.246037999999999
 10
157.097072
 20
92.246037999999999
 42
-0.4142135623730974
 10
155.329306
 20
92.246037999999984
 10
155.329306
 20
92.246037999999984
 10
155.329306
 20
92.246037999999984
 42
0.4142135623730974
 10
157.097072
 20
92.246037999999999
 10
157.097072
 20
92.246037999999999
 42
0.414213562373095
 10
157.097072
 20
94.013803999999993
 10
157.097072
 20
94.013803999999993
 10
157.097072
 20
94.013803999999993
 42
0.414213562373095
 10
155.329306
 20
94.013803999999993
 10
155.32930599999997
 20
94.013803999999965
 42
0.414213562373095
 10
155.329306
 20
92.246037999999984
 10
155.329306
 20
92.246037999999984
 10
155.32930599999995
 20
92.246037999999999
 42
-0.414213562373095
 10
155.329306
 20
94.013803999999993
 10
155.329306
 20
94.013803999999993
 42
-0.414213562373095
 10
157.097072
 20
94.013803999999993
  0
ATTDEF
  5
C2
100
AcDbEntity
  8
一般
 62
               0
100
AcDbText
 10
154.338189
 20
83.344920999999985
 30
0.0
 40
4.2333333333333325
  1
M2.5
100
AcDbAttributeDefinition
  3

  2
ネジの直径
 70
               1
  0
ATTDEF
  5
C3
100
AcDbEntity
  8
一般
 62
               0
100
AcDbText
 10
154.338189
 20
75.724920999999981
 30
0.0
 40
4.2333333333333325
  1
6.911 mm
100
AcDbAttributeDefinition
  3

  2
直径
 70
               1
  0
ENDBLK
  5
C4
100
AcDbEntity
  8
一般
100
AcDbBlockEnd
  0
BLOCK
  5
C5
100
AcDbEntity
  8
一般
100
AcDbBlockBegin
  2
六咳オィエ_廟面図_124
 70
               2
 10
0.0
 20
0.0
 30
0.0
  3
六咳オィエ_廟面図_124
  1

  0
LWPOLYLINE
  5
C6
100
AcDbEntity
  8
0
370
              15
  6
Continuous
 62
               7
100
AcDbPolyline
 90
       10
 70
             129
 10
94.950787000000005
 20
93.129920999999996
 10
94.950787000000005
 20
93.129920999999996
 42
-0.4142135623730998
 10
95.825787000000005
 20
94.004920999999996
 10
95.825787000000005
 20
94.004920999999996
 42
-0.414213562373095
 10
96.700787000000005
 20
93.129920999999996
 10
96.700787000000005
 20
93.129920999999996
 10
96.700787000000005
 20
93.129920999999996
 42
-0.4142135623730903
 10
95.825787000000005
 20
92.254920999999996
 10
95.825787000000005
 20
92.254920999999996
 42
-0.414213562373095
 10
94.950787000000005
 20
93.129920999999996
  0
LWPOLYLINE
  5
C7
100
AcDbEntity
  8
0
370
              15
  6
Continuous
 62
               7
100
AcDbPolyline
 90
        5
 70
             128
 10
93.950787000000005
 20
93.129920999999996
 42
-0.4142135623730973
 10
95.825787000000005
 20
95.004920999999996
 10
95.825787000000005
 20
95.004920999999996
 42
-0.414213562373095
 10
97.700787000000005
 20
93.129920999999996
 10
97.700787000000005
 20
93.129920999999996
  0
LWPOLYLINE
  5
C8
100
AcDbEntity
  8
0
370
              15
  6
Continuous
 62
               7
100
AcDbPolyline
 90
        5
 70
             128
 10
93.950787000000005
 20
93.129920999999996
 42
0.414213562373095
 10
95.825787000000005
 20
91.254920999999996
 10
95.825787000000005
 20
91.254920999999996
 42
0.4142135623730928
 10
97.700787000000005
 20
93.129920999999996
 10
97.700787000000005
 20
93.129920999999996
  0
LWPOLYLINE
  5
C9
100
AcDbEntity
  8
0
370
              15
  6
Continuous
 62
               7
100
AcDbPolyline
 90
        6
 70
             129
 10
95.825787000000005
 20
95.294921000000002
 10
93.950787000000005
 20
94.212420999999992
 10
93.950787000000005
 20
92.047421
 10
95.825787000000005
 20
90.96492099999999
 10
97.700787000000005
 20
92.047421
 10
97.700787000000005
 20
94.212420999999992
  0
LWPOLYLINE
  5
CA
100
AcDbEntity
  8
0
370
              15
  6
Continuous
 62
               7
100
AcDbPolyline
 90
       20
 70
             129
 10
96.709670000000003
 20
94.013803999999993
 10
96.709670000000003
 20
94.013803999999993
 42
-0.4142135623730998
 10
96.709670000000003
 20
92.246037999999999
 10
96.709670000000003
 20
92.246037999999999
 42
-0.414213562373088
 10
94.941904000000008
 20
92.246037999999984
 10
94.941904000000008
 20
92.246037999999984
 10
94.941904000000008
 20
92.246037999999984
 42
0.4142135623730904
 10
96.709670000000017
 20
92.246037999999999
 10
96.709670000000017
 20
92.246037999999999
 42
0.4142135623730833
 10
96.709670000000003
 20
94.013803999999993
 10
96.709670000000003
 20
94.013803999999993
 10
96.709670000000003
 20
94.013803999999993
 42
0.414213562373095
 10
94.941904000000008
 20
94.013803999999993
 10
94.941904000000008
 20
94.013803999999993
 42
0.4142135623730927
 10
94.941904000000008
 20
92.246037999999984
 10
94.941904000000008
 20
92.246037999999984
 10
94.941904000000008
 20
92.246037999999984
 42
-0.414213562373095
 10
94.941903999999994
 20
94.013803999999993
 10
94.941904000000008
 20
94.013804000000007
 42
-0.4142135623730927
 10
96.709670000000003
 20
94.013803999999993
  0
ATTDEF
  5
CB
100
AcDbEntity
  8
一般
 62
               0
100
AcDbText
 10
93.950787000000005
 20
83.344920999999985
 30
0.0
 40
4.2333333333333325
  1
M2.5
100
AcDbAttributeDefinition
  3

  2
ネジの直径
 70
               1
  0
ATTDEF
  5
CC
100
AcDbEntity
  8
一般
 62
               0
100
AcDbText
 10
93.950787000000005
 20
75.724920999999981
 30
0.0
 40
4.2333333333333325
  1
6.911 mm
100
AcDbAttributeDefinition
  3

  2
直径
 70
               1
  0
ENDBLK
  5
CD
100
AcDbEntity
  8
一般
100
AcDbBlockEnd
  0
BLOCK
  5
CE
100
AcDbEntity
  8
一般
100
AcDbBlockBegin
  2
六咳オィエ_廟面図_128
 70
               2
 10
0.0
 20
0.0
 30
0.0
  3
六咳オィエ_廟面図_128
  1

  0
LWPOLYLINE
  5
CF
100
AcDbEntity
  8
0
370
              15
  6
Continuous
 62
               7
100
AcDbPolyline
 90
       10
 70
             129
 10
117.98818900000001
 20
93.129920999999996
 10
117.98818900000001
 20
93.129920999999996
 42
-0.414213562373095
 10
118.86318900000001
 20
94.004920999999996
 10
118.86318900000001
 20
94.004920999999996
 42
-0.414213562373095
 10
119.73818900000001
 20
93.129920999999996
 10
119.73818900000001
 20
93.129920999999996
 10
119.73818900000001
 20
93.129920999999996
 42
-0.414213562373095
 10
118.86318900000001
 20
92.254920999999996
 10
118.86318900000001
 20
92.254920999999996
 42
-0.414213562373095
 10
117.98818900000001
 20
93.129920999999996
  0
LWPOLYLINE
  5
D0
100
AcDbEntity
  8
0
370
              15
  6
Continuous
 62
               7
100
AcDbPolyline
 90
        5
 70
             128
 10
116.98818900000001
 20
93.129920999999996
 42
-0.414213562373095
 10
118.86318900000001
 20
95.004920999999996
 10
118.86318900000001
 20
95.004920999999996
 42
-0.414213562373095
 10
120.73818900000001
 20
93.129920999999996
 10
120.73818900000001
 20
93.129920999999996
  0
LWPOLYLINE
  5
D1
100
AcDbEntity
  8
0
370
              15
  6
Continuous
 62
               7
100
AcDbPolyline
 90
        5
 70
             128
 10
116.98818900000001
 20
93.129920999999996
 42
0.414213562373095
 10
118.86318900000001
 20
91.254920999999996
 10
118.86318900000001
 20
91.254920999999996
 42
0.414213562373095
 10
120.73818900000001
 20
93.129920999999996
 10
120.73818900000001
 20
93.129920999999996
  0
LWPOLYLINE
  5
D2
100
AcDbEntity
  8
0
370
              15
  6
Continuous
 62
               7
100
AcDbPolyline
 90
        6
 70
             129
 10
118.86318900000001
 20
95.294921000000002
 10
116.98818900000001
 20
94.212420999999992
 10
116.98818900000001
 20
92.047421
 10
118.86318900000001
 20
90.96492099999999
 10
120.73818900000001
 20
92.047421
 10
120.73818900000001
 20
94.212420999999992
  0
LWPOLYLINE
  5
D3
100
AcDbEntity
  8
0
370
              15
  6
Continuous
 62
               7
100
AcDbPolyline
 90
       20
 70
             129
 10
119.747072
 20
94.013803999999993
 10
119.747072
 20
94.013803999999993
 42
-0.414213562373095
 10
119.747072
 20
92.246037999999999
 10
119.747072
 20
92.246037999999999
 42
-0.414213562373088
 10
117.97930600000001
 20
92.246037999999984
 10
117.97930600000001
 20
92.246037999999984
 10
117.97930600000001
 20
92.246037999999984
 42
0.414213562373095
 10
119.74707200000002
 20
92.246037999999999
 10
119.74707200000002
 20
92.246037999999999
 42
0.414213562373088
 10
119.747072
 20
94.013803999999993
 10
119.747072
 20
94.013803999999993
 10
119.747072
 20
94.013803999999993
 42
0.414213562373095
 10
117.97930600000001
 20
94.013803999999993
 10
117.97930600000001
 20
94.013803999999993
 42
0.4142135623730927
 10
117.97930600000001
 20
92.246037999999984
 10
117.97930600000001
 20
92.246037999999984
 10
117.97930599999999
 20
92.246037999999999
 42
-0.414213562373095
 10
117.97930599999999
 20
94.013803999999993
 10
117.97930600000001
 20
94.013804000000022
 42
-0.4142135623730927
 10
119.747072
 20
94.013803999999993
  0
ATTDEF
  5
D4
100
AcDbEntity
  8
一般
 62
               0
100
AcDbText
 10
116.98818900000001
 20
83.344920999999985
 30
0.0
 40
4.2333333333333325
  1
M2.5
100
AcDbAttributeDefinition
  3

  2
ネジの直径
 70
               1
  0
ATTDEF
  5
D5
100
AcDbEntity
  8
一般
 62
               0
100
AcDbText
 10
116.98818900000001
 20
75.724920999999981
 30
0.0
 40
4.2333333333333325
  1
6.911 mm
100
AcDbAttributeDefinition
  3

  2
直径
 70
               1
  0
ENDBLK
  5
D6
100
AcDbEntity
  8
一般
100
AcDbBlockEnd
  0
BLOCK
  5
D7
100
AcDbEntity
  8
一般
100
AcDbBlockBegin
  2
円-2
 70
               0
 10
0.0
 20
0.0
 30
0.0
  3
円-2
  1

  0
LWPOLYLINE
  5
D8
100
AcDbEntity
  8
0
370
              15
  6
Continuous
 62
               7
100
AcDbPolyline
 90
       10
 70
             129
 10
104.49645700000001
 20
108.202264
 10
104.49645700000001
 20
108.202264
 42
-0.414213562373095
 10
107.24645700000001
 20
110.952264
 10
107.24645700000001
 20
110.952264
 42
-0.414213562373095
 10
109.99645700000001
 20
108.202264
 10
109.99645700000001
 20
108.202264
 10
109.99645700000001
 20
108.202264
 42
-0.414213562373095
 10
107.24645700000001
 20
105.452264
 10
107.24645700000001
 20
105.452264
 42
-0.414213562373095
 10
104.49645700000001
 20
108.202264
  0
LWPOLYLINE
  5
D9
100
AcDbEntity
  8
0
370
              15
  6
Continuous
 62
               7
100
AcDbPolyline
 90
       10
 70
             129
 10
105.29389500000001
 20
108.202264
 10
105.29389500000001
 20
108.202264
 42
-0.414213562373095
 10
107.24645700000001
 20
110.154826
 10
107.24645700000001
 20
110.154826
 42
-0.414213562373095
 10
109.19901900000001
 20
108.202264
 10
109.19901900000001
 20
108.202264
 10
109.19901900000001
 20
108.202264
 42
-0.414213562373095
 10
107.24645700000001
 20
106.249702
 10
107.24645700000001
 20
106.249702
 42
-0.414213562373095
 10
105.29389500000001
 20
108.202264
  0
ENDBLK
  5
DA
100
AcDbEntity
  8
一般
100
AcDbBlockEnd
  0
BLOCK
  5
DB
100
AcDbEntity
  8
一般
100
AcDbBlockBegin
  2
円_133
 70
               0
 10
0.0
 20
0.0
 30
0.0
  3
円_133
  1

  0
LWPOLYLINE
  5
DC
100
AcDbEntity
  8
0
370
              15
  6
Continuous
 62
               7
100
AcDbPolyline
 90
       10
 70
             129
 10
142.23858300000001
 20
107.71210600000001
 10
142.23858300000001
 20
107.71210600000001
 42
-0.414213562373095
 10
144.98858300000001
 20
110.46210600000001
 10
144.98858300000001
 20
110.46210600000001
 42
-0.414213562373095
 10
147.73858300000001
 20
107.71210600000001
 10
147.73858300000001
 20
107.71210600000001
 10
147.73858300000001
 20
107.71210600000001
 42
-0.414213562373095
 10
144.98858300000001
 20
104.96210600000001
 10
144.98858300000001
 20
104.96210600000001
 42
-0.414213562373095
 10
142.23858300000001
 20
107.71210600000001
  0
LWPOLYLINE
  5
DD
100
AcDbEntity
  8
0
370
              15
  6
Continuous
 62
               7
100
AcDbPolyline
 90
       10
 70
             129
 10
143.03602100000001
 20
107.71210600000001
 10
143.03602100000001
 20
107.71210600000001
 42
-0.414213562373095
 10
144.98858300000001
 20
109.66466800000001
 10
144.98858300000001
 20
109.66466800000001
 42
-0.414213562373095
 10
146.94114500000001
 20
107.71210600000001
 10
146.94114500000001
 20
107.71210600000001
 10
146.94114500000001
 20
107.71210600000001
 42
-0.414213562373095
 10
144.98858300000001
 20
105.75954400000001
 10
144.98858300000001
 20
105.75954400000001
 42
-0.414213562373095
 10
143.03602100000001
 20
107.71210600000001
  0
ENDBLK
  5
DE
100
AcDbEntity
  8
一般
100
AcDbBlockEnd
  0
BLOCK
  5
DF
100
AcDbEntity
  8
一般
100
AcDbBlockBegin
  2
六咳オィエ_廟面図_255
 70
               2
 10
0.0
 20
0.0
 30
0.0
  3
六咳オィエ_廟面図_255
  1

  0
LWPOLYLINE
  5
E0
100
AcDbEntity
  8
0
370
              15
  6
Continuous
 62
               7
100
AcDbPolyline
 90
       10
 70
             129
 10
274.83858299999997
 20
35.291339000000001
 10
274.83858299999997
 20
35.291339000000001
 42
-0.4142135623730927
 10
275.71358299999997
 20
36.166339000000001
 10
275.71358299999997
 20
36.166339000000001
 42
-0.414213562373095
 10
276.58858299999997
 20
35.291339000000001
 10
276.58858299999997
 20
35.291339000000001
 10
276.58858299999997
 20
35.291339000000001
 42
-0.4142135623730974
 10
275.71358299999997
 20
34.416339000000001
 10
275.71358299999997
 20
34.416339000000001
 42
-0.414213562373095
 10
274.83858299999997
 20
35.291339000000001
  0
LWPOLYLINE
  5
E1
100
AcDbEntity
  8
0
370
              15
  6
Continuous
 62
               7
100
AcDbPolyline
 90
        5
 70
             128
 10
273.83858299999997
 20
35.291339000000001
 42
-0.4142135623730939
 10
275.71358299999997
 20
37.166339000000001
 10
275.71358299999997
 20
37.166339000000001
 42
-0.414213562373095
 10
277.58858299999997
 20
35.291339000000001
 10
277.58858299999997
 20
35.291339000000001
  0
LWPOLYLINE
  5
E2
100
AcDbEntity
  8
0
370
              15
  6
Continuous
 62
               7
100
AcDbPolyline
 90
        5
 70
             128
 10
273.83858299999997
 20
35.291339000000001
 42
0.414213562373095
 10
275.71358299999997
 20
33.416339000000001
 10
275.71358299999997
 20
33.416339000000001
 42
0.4142135623730961
 10
277.58858299999997
 20
35.291339000000001
 10
277.58858299999997
 20
35.291339000000001
  0
LWPOLYLINE
  5
E3
100
AcDbEntity
  8
0
370
              15
  6
Continuous
 62
               7
100
AcDbPolyline
 90
        6
 70
             129
 10
275.71358299999997
 20
37.456339
 10
273.83858299999997
 20
36.373839000000004
 10
273.83858299999997
 20
34.208838999999998
 10
275.71358299999997
 20
33.126339000000002
 10
277.58858299999997
 20
34.208838999999998
 10
277.58858299999997
 20
36.373839000000004
  0
LWPOLYLINE
  5
E4
100
AcDbEntity
  8
0
370
              15
  6
Continuous
 62
               7
100
AcDbPolyline
 90
       20
 70
             129
 10
276.59746600000005
 20
36.175222000000012
 10
276.59746600000011
 20
36.175221999999984
 42
-0.4142135623730645
 10
276.59746600000005
 20
34.407455999999982
 10
276.59746600000005
 20
34.407455999999982
 42
-0.4142135623731127
 10
274.8297
 20
34.407456000000003
 10
274.8297
 20
34.407456000000003
 10
274.82970000000006
 20
34.407456000000053
 42
0.4142135623731304
 10
276.59746600000005
 20
34.407455999999982
 10
276.59746600000017
 20
34.40745600000006
 42
0.4142135623730645
 10
276.59746600000005
 20
36.175222000000012
 10
276.59746600000005
 20
36.175222000000012
 10
276.59746600000005
 20
36.175222000000012
 42
0.4142135623730751
 10
274.8297
 20
36.175222000000034
 10
274.8297
 20
36.175222000000034
 42
0.4142135623731104
 10
274.8297
 20
34.407456000000003
 10
274.8297
 20
34.407456000000003
 10
274.8297
 20
34.407456000000003
 42
-0.4142135623731104
 10
274.8297
 20
36.175222000000034
 10
274.82969999999995
 20
36.175222000000097
 42
-0.4142135623730703
 10
276.59746600000005
 20
36.175222000000012
  0
ATTDEF
  5
E5
100
AcDbEntity
  8
一般
 62
               0
100
AcDbText
 10
273.83858299999997
 20
25.506339000000004
 30
0.0
 40
4.2333333333333325
  1
M2.5
100
AcDbAttributeDefinition
  3

  2
ネジの直径
 70
               1
  0
ATTDEF
  5
E6
100
AcDbEntity
  8
一般
 62
               0
100
AcDbText
 10
273.83858299999997
 20
17.886339000000007
 30
0.0
 40
4.2333333333333325
  1
6.911 mm
100
AcDbAttributeDefinition
  3

  2
直径
 70
               1
  0
ENDBLK
  5
E7
100
AcDbEntity
  8
一般
100
AcDbBlockEnd
  0
BLOCK
  5
E8
100
AcDbEntity
  8
一般
100
AcDbBlockBegin
  2
六咳オィエ_廟面図_259
 70
               2
 10
0.0
 20
0.0
 30
0.0
  3
六咳オィエ_廟面図_259
  1

  0
LWPOLYLINE
  5
E9
100
AcDbEntity
  8
0
370
              15
  6
Continuous
 62
               7
100
AcDbPolyline
 90
       10
 70
             129
 10
297.87598400000002
 20
35.291339000000001
 10
297.87598400000002
 20
35.291339000000001
 42
-0.4142135623730927
 10
298.75098400000002
 20
36.166339000000001
 10
298.75098400000002
 20
36.166339000000001
 42
-0.414213562373095
 10
299.62598400000002
 20
35.291339000000001
 10
299.62598400000002
 20
35.291339000000001
 10
299.62598400000002
 20
35.291339000000001
 42
-0.4142135623730974
 10
298.75098400000002
 20
34.416339000000001
 10
298.75098400000002
 20
34.416339000000001
 42
-0.414213562373095
 10
297.87598400000002
 20
35.291339000000001
  0
LWPOLYLINE
  5
EA
100
AcDbEntity
  8
0
370
              15
  6
Continuous
 62
               7
100
AcDbPolyline
 90
        5
 70
             128
 10
296.87598400000002
 20
35.291339000000001
 42
-0.4142135623730939
 10
298.75098400000002
 20
37.166339000000001
 10
298.75098400000002
 20
37.166339000000001
 42
-0.414213562373095
 10
300.62598400000002
 20
35.291339000000001
 10
300.62598400000002
 20
35.291339000000001
  0
LWPOLYLINE
  5
EB
100
AcDbEntity
  8
0
370
              15
  6
Continuous
 62
               7
100
AcDbPolyline
 90
        5
 70
             128
 10
296.87598400000002
 20
35.291339000000001
 42
0.414213562373095
 10
298.75098400000002
 20
33.416339000000001
 10
298.75098400000002
 20
33.416339000000001
 42
0.4142135623730961
 10
300.62598400000002
 20
35.291339000000001
 10
300.62598400000002
 20
35.291339000000001
  0
LWPOLYLINE
  5
EC
100
AcDbEntity
  8
0
370
              15
  6
Continuous
 62
               7
100
AcDbPolyline
 90
        6
 70
             129
 10
298.75098400000002
 20
37.456339
 10
296.87598400000002
 20
36.373839000000004
 10
296.87598400000002
 20
34.208838999999998
 10
298.75098400000002
 20
33.126339000000002
 10
300.62598400000002
 20
34.208838999999998
 10
300.62598400000002
 20
36.373839000000004
  0
LWPOLYLINE
  5
ED
100
AcDbEntity
  8
0
370
              15
  6
Continuous
 62
               7
100
AcDbPolyline
 90
       20
 70
             129
 10
299.63486700000004
 20
36.175222000000012
 10
299.63486700000004
 20
36.175222000000012
 42
-0.4142135623730915
 10
299.63486700000004
 20
34.407455999999982
 10
299.63486700000004
 20
34.407455999999982
 42
-0.4142135623730845
 10
297.86710099999999
 20
34.407456000000003
 10
297.86710099999999
 20
34.407456000000003
 10
297.86710099999999
 20
34.407456000000003
 42
0.4142135623730845
 10
299.63486700000004
 20
34.407455999999982
 10
299.63486700000004
 20
34.407455999999982
 42
0.4142135623730915
 10
299.63486700000004
 20
36.175222000000012
 10
299.63486700000004
 20
36.175222000000012
 10
299.63486700000004
 20
36.175222000000012
 42
0.4142135623730939
 10
297.86710099999999
 20
36.175222000000034
 10
297.86710099999999
 20
36.175222000000034
 42
0.4142135623730915
 10
297.86710099999999
 20
34.407456000000003
 10
297.86710099999999
 20
34.407456000000003
 10
297.86710099999999
 20
34.407456000000003
 42
-0.4142135623730915
 10
297.86710099999999
 20
36.175222000000034
 10
297.86710099999999
 20
36.175222000000034
 42
-0.4142135623730939
 10
299.63486700000004
 20
36.175222000000012
  0
ATTDEF
  5
EE
100
AcDbEntity
  8
一般
 62
               0
100
AcDbText
 10
296.87598400000002
 20
25.506339000000004
 30
0.0
 40
4.2333333333333325
  1
M2.5
100
AcDbAttributeDefinition
  3

  2
ネジの直径
 70
               1
  0
ATTDEF
  5
EF
100
AcDbEntity
  8
一般
 62
               0
100
AcDbText
 10
296.87598400000002
 20
17.886339000000007
 30
0.0
 40
4.2333333333333325
  1
6.911 mm
100
AcDbAttributeDefinition
  3

  2
直径
 70
               1
  0
ENDBLK
  5
F0
100
AcDbEntity
  8
一般
100
AcDbBlockEnd
  0
BLOCK
  5
F1
100
AcDbEntity
  8
一般
100
AcDbBlockBegin
  2
六咳オィエ_廟面図_275
 70
               2
 10
0.0
 20
0.0
 30
0.0
  3
六咳オィエ_廟面図_275
  1

  0
LWPOLYLINE
  5
F2
100
AcDbEntity
  8
0
370
              15
  6
Continuous
 62
               7
100
AcDbPolyline
 90
       10
 70
             129
 10
274.83858299999997
 20
52.446849999999998
 10
274.83858299999997
 20
52.446849999999998
 42
-0.4142135623730903
 10
275.71358299999997
 20
53.321849999999998
 10
275.71358299999997
 20
53.321849999999998
 42
-0.414213562373095
 10
276.58858299999997
 20
52.446849999999998
 10
276.58858299999997
 20
52.446849999999998
 10
276.58858299999997
 20
52.446849999999998
 42
-0.4142135623730998
 10
275.71358299999997
 20
51.571849999999998
 10
275.71358299999997
 20
51.571849999999998
 42
-0.414213562373095
 10
274.83858299999997
 20
52.446849999999998
  0
LWPOLYLINE
  5
F3
100
AcDbEntity
  8
0
370
              15
  6
Continuous
 62
               7
100
AcDbPolyline
 90
        5
 70
             128
 10
273.83858299999997
 20
52.446849999999998
 42
-0.4142135623730928
 10
275.71358299999997
 20
54.321849999999998
 10
275.71358299999997
 20
54.321849999999998
 42
-0.414213562373095
 10
277.58858299999997
 20
52.446849999999998
 10
277.58858299999997
 20
52.446849999999998
  0
LWPOLYLINE
  5
F4
100
AcDbEntity
  8
0
370
              15
  6
Continuous
 62
               7
100
AcDbPolyline
 90
        5
 70
             128
 10
273.83858299999997
 20
52.446849999999998
 42
0.414213562373095
 10
275.71358299999997
 20
50.571849999999998
 10
275.71358299999997
 20
50.571849999999998
 42
0.4142135623730973
 10
277.58858299999997
 20
52.446849999999998
 10
277.58858299999997
 20
52.446849999999998
  0
LWPOLYLINE
  5
F5
100
AcDbEntity
  8
0
370
              15
  6
Continuous
 62
               7
100
AcDbPolyline
 90
        6
 70
             129
 10
275.71358299999997
 20
54.611849999999997
 10
273.83858299999997
 20
53.529350000000001
 10
273.83858299999997
 20
51.364349999999988
 10
275.71358299999997
 20
50.281849999999999
 10
277.58858299999997
 20
51.364349999999988
 10
277.58858299999997
 20
53.529350000000001
  0
LWPOLYLINE
  5
F6
100
AcDbEntity
  8
0
370
              15
  6
Continuous
 62
               7
100
AcDbPolyline
 90
       20
 70
             129
 10
276.59746600000005
 20
53.330732999999988
 10
276.59746600000005
 20
53.330732999999988
 42
-0.414213562373108
 10
276.59746599999994
 20
51.562966999999972
 10
276.59746599999994
 20
51.562966999999972
 42
-0.4142135623731045
 10
274.8297
 20
51.562967
 10
274.8297
 20
51.562967
 10
274.8297
 20
51.562967
 42
0.4142135623731045
 10
276.59746599999994
 20
51.562966999999972
 10
276.59746599999994
 20
51.562966999999972
 42
0.414213562373108
 10
276.59746600000005
 20
53.330732999999988
 10
276.59746600000005
 20
53.330732999999988
 10
276.597466
 20
53.330733000000038
 42
0.4142135623730915
 10
274.8297
 20
53.330733000000023
 10
274.8297
 20
53.330733000000023
 42
0.4142135623731091
 10
274.8297
 20
51.562967
 10
274.8297
 20
51.562967
 10
274.8297
 20
51.562967
 42
-0.4142135623731091
 10
274.8297
 20
53.330733000000023
 10
274.82970000000006
 20
53.330733000000059
 42
-0.4142135623730915
 10
276.59746600000005
 20
53.330732999999988
  0
ATTDEF
  5
F7
100
AcDbEntity
  8
一般
 62
               0
100
AcDbText
 10
273.83858299999997
 20
42.661850000000001
 30
0.0
 40
4.2333333333333325
  1
M2.5
100
AcDbAttributeDefinition
  3

  2
ネジの直径
 70
               1
  0
ATTDEF
  5
F8
100
AcDbEntity
  8
一般
 62
               0
100
AcDbText
 10
273.83858299999997
 20
35.041850000000004
 30
0.0
 40
4.2333333333333325
  1
6.911 mm
100
AcDbAttributeDefinition
  3

  2
直径
 70
               1
  0
ENDBLK
  5
F9
100
AcDbEntity
  8
一般
100
AcDbBlockEnd
  0
BLOCK
  5
FA
100
AcDbEntity
  8
一般
100
AcDbBlockBegin
  2
六咳オィエ_廟面図_279
 70
               2
 10
0.0
 20
0.0
 30
0.0
  3
六咳オィエ_廟面図_279
  1

  0
LWPOLYLINE
  5
FB
100
AcDbEntity
  8
0
370
              15
  6
Continuous
 62
               7
100
AcDbPolyline
 90
       10
 70
             129
 10
297.87598400000002
 20
52.446849999999998
 10
297.87598400000002
 20
52.446849999999998
 42
-0.4142135623730903
 10
298.75098400000002
 20
53.321849999999998
 10
298.75098400000002
 20
53.321849999999998
 42
-0.414213562373095
 10
299.62598400000002
 20
52.446849999999998
 10
299.62598400000002
 20
52.446849999999998
 10
299.62598400000002
 20
52.446849999999998
 42
-0.4142135623730998
 10
298.75098400000002
 20
51.571849999999998
 10
298.75098400000002
 20
51.571849999999998
 42
-0.414213562373095
 10
297.87598400000002
 20
52.446849999999998
  0
LWPOLYLINE
  5
FC
100
AcDbEntity
  8
0
370
              15
  6
Continuous
 62
               7
100
AcDbPolyline
 90
        5
 70
             128
 10
296.87598400000002
 20
52.446849999999998
 42
-0.4142135623730928
 10
298.75098400000002
 20
54.321849999999998
 10
298.75098400000002
 20
54.321849999999998
 42
-0.414213562373095
 10
300.62598400000002
 20
52.446849999999998
 10
300.62598400000002
 20
52.446849999999998
  0
LWPOLYLINE
  5
FD
100
AcDbEntity
  8
0
370
              15
  6
Continuous
 62
               7
100
AcDbPolyline
 90
        5
 70
             128
 10
296.87598400000002
 20
52.446849999999998
 42
0.414213562373095
 10
298.75098400000002
 20
50.571849999999998
 10
298.75098400000002
 20
50.571849999999998
 42
0.4142135623730973
 10
300.62598400000002
 20
52.446849999999998
 10
300.62598400000002
 20
52.446849999999998
  0
LWPOLYLINE
  5
FE
100
AcDbEntity
  8
0
370
              15
  6
Continuous
 62
               7
100
AcDbPolyline
 90
        6
 70
             129
 10
298.75098400000002
 20
54.611849999999997
 10
296.87598400000002
 20
53.529350000000001
 10
296.87598400000002
 20
51.364349999999988
 10
298.75098400000002
 20
50.281849999999999
 10
300.62598400000002
 20
51.364349999999988
 10
300.62598400000002
 20
53.529350000000001
  0
LWPOLYLINE
  5
FF
100
AcDbEntity
  8
0
370
              15
  6
Continuous
 62
               7
100
AcDbPolyline
 90
       20
 70
             129
 10
299.63486700000004
 20
53.330732999999988
 10
299.63486700000004
 20
53.330732999999988
 42
-0.4142135623730985
 10
299.63486699999999
 20
51.562966999999972
 10
299.63486699999999
 20
51.562966999999972
 42
-0.4142135623730762
 10
297.86710099999999
 20
51.562967
 10
297.86710099999999
 20
51.562967
 10
297.86710099999999
 20
51.562967
 42
0.4142135623730762
 10
299.63486699999999
 20
51.562966999999972
 10
299.63486699999999
 20
51.562966999999972
 42
0.4142135623730985
 10
299.63486700000004
 20
53.330732999999988
 10
299.63486700000004
 20
53.330732999999988
 10
299.63486700000004
 20
53.330732999999988
 42
0.4142135623730774
 10
297.86710100000005
 20
53.330733000000023
 10
297.86710100000005
 20
53.330733000000023
 42
0.4142135623730997
 10
297.86710099999999
 20
51.562967
 10
297.86710099999999
 20
51.562967
 10
297.86710099999999
 20
51.562967
 42
-0.4142135623730997
 10
297.86710100000005
 20
53.330733000000023
 10
297.86710100000005
 20
53.330733000000023
 42
-0.4142135623730774
 10
299.63486700000004
 20
53.330732999999988
  0
ATTDEF
  5
100
100
AcDbEntity
  8
一般
 62
               0
100
AcDbText
 10
296.87598400000002
 20
42.661850000000001
 30
0.0
 40
4.2333333333333325
  1
M2.5
100
AcDbAttributeDefinition
  3

  2
ネジの直径
 70
               1
  0
ATTDEF
  5
101
100
AcDbEntity
  8
一般
 62
               0
100
AcDbText
 10
296.87598400000002
 20
35.041850000000004
 30
0.0
 40
4.2333333333333325
  1
6.911 mm
100
AcDbAttributeDefinition
  3

  2
直径
 70
               1
  0
ENDBLK
  5
102
100
AcDbEntity
  8
一般
100
AcDbBlockEnd
  0
BLOCK
  5
103
100
AcDbEntity
  8
一般
100
AcDbBlockBegin
  2
六咳オィエ_廟面図_295
 70
               2
 10
0.0
 20
0.0
 30
0.0
  3
六咳オィエ_廟面図_295
  1

  0
LWPOLYLINE
  5
104
100
AcDbEntity
  8
0
370
              15
  6
Continuous
 62
               7
100
AcDbPolyline
 90
       10
 70
             129
 10
316.01181100000002
 20
52.446849999999998
 10
316.01181100000002
 20
52.446849999999998
 42
-0.4142135623730903
 10
316.88681100000002
 20
53.321849999999998
 10
316.88681100000002
 20
53.321849999999998
 42
-0.414213562373095
 10
317.76181100000002
 20
52.446849999999998
 10
317.76181100000002
 20
52.446849999999998
 10
317.76181100000002
 20
52.446849999999998
 42
-0.4142135623730998
 10
316.88681100000002
 20
51.571849999999998
 10
316.88681100000002
 20
51.571849999999998
 42
-0.414213562373095
 10
316.01181100000002
 20
52.446849999999998
  0
LWPOLYLINE
  5
105
100
AcDbEntity
  8
0
370
              15
  6
Continuous
 62
               7
100
AcDbPolyline
 90
        5
 70
             128
 10
315.01181100000002
 20
52.446849999999998
 42
-0.4142135623730928
 10
316.88681100000002
 20
54.321849999999998
 10
316.88681100000002
 20
54.321849999999998
 42
-0.414213562373095
 10
318.76181100000002
 20
52.446849999999998
 10
318.76181100000002
 20
52.446849999999998
  0
LWPOLYLINE
  5
106
100
AcDbEntity
  8
0
370
              15
  6
Continuous
 62
               7
100
AcDbPolyline
 90
        5
 70
             128
 10
315.01181100000002
 20
52.446849999999998
 42
0.414213562373095
 10
316.88681100000002
 20
50.571849999999998
 10
316.88681100000002
 20
50.571849999999998
 42
0.4142135623730973
 10
318.76181100000002
 20
52.446849999999998
 10
318.76181100000002
 20
52.446849999999998
  0
LWPOLYLINE
  5
107
100
AcDbEntity
  8
0
370
              15
  6
Continuous
 62
               7
100
AcDbPolyline
 90
        6
 70
             129
 10
316.88681100000002
 20
54.611849999999997
 10
315.01181100000002
 20
53.529350000000001
 10
315.01181100000002
 20
51.364349999999988
 10
316.88681100000002
 20
50.281849999999999
 10
318.76181100000002
 20
51.364349999999988
 10
318.76181100000002
 20
53.529350000000001
  0
LWPOLYLINE
  5
108
100
AcDbEntity
  8
0
370
              15
  6
Continuous
 62
               7
100
AcDbPolyline
 90
       20
 70
             129
 10
317.77069400000005
 20
53.330732999999988
 10
317.77069400000005
 20
53.330732999999988
 42
-0.4142135623730985
 10
317.77069399999999
 20
51.562966999999972
 10
317.77069399999999
 20
51.562966999999972
 42
-0.4142135623730951
 10
316.002928
 20
51.562967
 10
316.002928
 20
51.562967
 10
316.002928
 20
51.562967
 42
0.4142135623730951
 10
317.77069399999999
 20
51.562966999999972
 10
317.77069399999999
 20
51.562966999999972
 42
0.4142135623730985
 10
317.77069400000005
 20
53.330732999999988
 10
317.77069400000005
 20
53.330732999999988
 10
317.77069400000005
 20
53.330732999999988
 42
0.4142135623731056
 10
316.00292800000005
 20
53.330733000000023
 10
316.00292800000005
 20
53.330733000000023
 42
0.4142135623730997
 10
316.002928
 20
51.562967
 10
316.002928
 20
51.562967
 10
316.002928
 20
51.562967
 42
-0.4142135623730997
 10
316.00292800000005
 20
53.330733000000023
 10
316.00292800000005
 20
53.330733000000023
 42
-0.4142135623731056
 10
317.77069400000005
 20
53.330732999999988
  0
ATTDEF
  5
109
100
AcDbEntity
  8
一般
 62
               0
100
AcDbText
 10
315.01181100000002
 20
42.661850000000001
 30
0.0
 40
4.2333333333333325
  1
M2.5
100
AcDbAttributeDefinition
  3

  2
ネジの直径
 70
               1
  0
ATTDEF
  5
10A
100
AcDbEntity
  8
一般
 62
               0
100
AcDbText
 10
315.01181100000002
 20
35.041850000000004
 30
0.0
 40
4.2333333333333325
  1
6.911 mm
100
AcDbAttributeDefinition
  3

  2
直径
 70
               1
  0
ENDBLK
  5
10B
100
AcDbEntity
  8
一般
100
AcDbBlockEnd
  0
BLOCK
  5
10C
100
AcDbEntity
  8
一般
100
AcDbBlockBegin
  2
六咳オィエ_廟面図_299
 70
               2
 10
0.0
 20
0.0
 30
0.0
  3
六咳オィエ_廟面図_299
  1

  0
LWPOLYLINE
  5
10D
100
AcDbEntity
  8
0
370
              15
  6
Continuous
 62
               7
100
AcDbPolyline
 90
       10
 70
             129
 10
339.04921300000001
 20
52.446849999999998
 10
339.04921300000001
 20
52.446849999999998
 42
-0.4142135623730903
 10
339.92421300000001
 20
53.321849999999998
 10
339.92421300000001
 20
53.321849999999998
 42
-0.414213562373095
 10
340.79921300000001
 20
52.446849999999998
 10
340.79921300000001
 20
52.446849999999998
 10
340.79921300000001
 20
52.446849999999998
 42
-0.4142135623730998
 10
339.92421300000001
 20
51.571849999999998
 10
339.92421300000001
 20
51.571849999999998
 42
-0.414213562373095
 10
339.04921300000001
 20
52.446849999999998
  0
LWPOLYLINE
  5
10E
100
AcDbEntity
  8
0
370
              15
  6
Continuous
 62
               7
100
AcDbPolyline
 90
        5
 70
             128
 10
338.04921300000001
 20
52.446849999999998
 42
-0.4142135623730928
 10
339.92421300000001
 20
54.321849999999998
 10
339.92421300000001
 20
54.321849999999998
 42
-0.414213562373095
 10
341.79921300000001
 20
52.446849999999998
 10
341.79921300000001
 20
52.446849999999998
  0
LWPOLYLINE
  5
10F
100
AcDbEntity
  8
0
370
              15
  6
Continuous
 62
               7
100
AcDbPolyline
 90
        5
 70
             128
 10
338.04921300000001
 20
52.446849999999998
 42
0.414213562373095
 10
339.92421300000001
 20
50.571849999999998
 10
339.92421300000001
 20
50.571849999999998
 42
0.4142135623730973
 10
341.79921300000001
 20
52.446849999999998
 10
341.79921300000001
 20
52.446849999999998
  0
LWPOLYLINE
  5
110
100
AcDbEntity
  8
0
370
              15
  6
Continuous
 62
               7
100
AcDbPolyline
 90
        6
 70
             129
 10
339.92421300000001
 20
54.611849999999997
 10
338.04921300000001
 20
53.529350000000001
 10
338.04921300000001
 20
51.364349999999988
 10
339.92421300000001
 20
50.281849999999999
 10
341.79921300000001
 20
51.364349999999988
 10
341.79921300000001
 20
53.529350000000001
  0
LWPOLYLINE
  5
111
100
AcDbEntity
  8
0
370
              15
  6
Continuous
 62
               7
100
AcDbPolyline
 90
       20
 70
             129
 10
340.80809600000003
 20
53.330732999999988
 10
340.80809600000003
 20
53.330732999999988
 42
-0.4142135623730985
 10
340.80809599999998
 20
51.562966999999972
 10
340.80809599999998
 20
51.562966999999972
 42
-0.4142135623730762
 10
339.04032999999998
 20
51.562967
 10
339.04032999999998
 20
51.562967
 10
339.04032999999998
 20
51.562967
 42
0.4142135623730762
 10
340.80809599999998
 20
51.562966999999972
 10
340.80809599999998
 20
51.562966999999972
 42
0.4142135623730985
 10
340.80809600000003
 20
53.330732999999988
 10
340.80809600000003
 20
53.330732999999988
 10
340.80809600000003
 20
53.330732999999988
 42
0.4142135623730868
 10
339.04033000000004
 20
53.330733000000023
 10
339.04033000000004
 20
53.330733000000023
 42
0.4142135623731186
 10
339.04032999999998
 20
51.562967
 10
339.04032999999998
 20
51.562967
 10
339.04032999999998
 20
51.562967
 42
-0.4142135623731186
 10
339.04033000000004
 20
53.330733000000023
 10
339.04033000000004
 20
53.330733000000023
 42
-0.4142135623730868
 10
340.80809600000003
 20
53.330732999999988
  0
ATTDEF
  5
112
100
AcDbEntity
  8
一般
 62
               0
100
AcDbText
 10
338.04921300000001
 20
42.661850000000001
 30
0.0
 40
4.2333333333333325
  1
M2.5
100
AcDbAttributeDefinition
  3

  2
ネジの直径
 70
               1
  0
ATTDEF
  5
113
100
AcDbEntity
  8
一般
 62
               0
100
AcDbText
 10
338.04921300000001
 20
35.041850000000004
 30
0.0
 40
4.2333333333333325
  1
6.911 mm
100
AcDbAttributeDefinition
  3

  2
直径
 70
               1
  0
ENDBLK
  5
114
100
AcDbEntity
  8
一般
100
AcDbBlockEnd
  0
BLOCK
  5
115
100
AcDbEntity
  8
一般
100
AcDbBlockBegin
  2
六咳オィエ_廟面図_315
 70
               2
 10
0.0
 20
0.0
 30
0.0
  3
六咳オィエ_廟面図_315
  1

  0
LWPOLYLINE
  5
116
100
AcDbEntity
  8
0
370
              15
  6
Continuous
 62
               7
100
AcDbPolyline
 90
       10
 70
             129
 10
237.19448800000001
 20
41.173228000000002
 10
237.19448800000001
 20
41.173228000000002
 42
-0.4142135623731022
 10
238.06948800000001
 20
42.048228000000002
 10
238.06948800000001
 20
42.048228000000002
 42
-0.414213562373095
 10
238.94448800000001
 20
41.173228000000002
 10
238.94448800000001
 20
41.173228000000002
 10
238.94448800000001
 20
41.173228000000002
 42
-0.4142135623730879
 10
238.06948800000001
 20
40.298228000000002
 10
238.06948800000001
 20
40.298228000000002
 42
-0.414213562373095
 10
237.19448800000001
 20
41.173228000000002
  0
LWPOLYLINE
  5
117
100
AcDbEntity
  8
0
370
              15
  6
Continuous
 62
               7
100
AcDbPolyline
 90
        5
 70
             128
 10
236.19448800000001
 20
41.173228000000002
 42
-0.4142135623730984
 10
238.06948800000001
 20
43.048228000000002
 10
238.06948800000001
 20
43.048228000000002
 42
-0.414213562373095
 10
239.94448800000001
 20
41.173228000000002
 10
239.94448800000001
 20
41.173228000000002
  0
LWPOLYLINE
  5
118
100
AcDbEntity
  8
0
370
              15
  6
Continuous
 62
               7
100
AcDbPolyline
 90
        5
 70
             128
 10
236.19448800000001
 20
41.173228000000002
 42
0.414213562373095
 10
238.06948800000001
 20
39.298228000000002
 10
238.06948800000001
 20
39.298228000000002
 42
0.4142135623730917
 10
239.94448800000001
 20
41.173228000000002
 10
239.94448800000001
 20
41.173228000000002
  0
LWPOLYLINE
  5
119
100
AcDbEntity
  8
0
370
              15
  6
Continuous
 62
               7
100
AcDbPolyline
 90
        6
 70
             129
 10
238.06948800000001
 20
43.338228000000001
 10
236.19448800000001
 20
42.255728000000005
 10
236.19448800000001
 20
40.090727999999999
 10
238.06948800000001
 20
39.008228000000003
 10
239.94448800000001
 20
40.090727999999999
 10
239.94448800000001
 20
42.255728000000005
  0
LWPOLYLINE
  5
11A
100
AcDbEntity
  8
0
370
              15
  6
Continuous
 62
               7
100
AcDbPolyline
 90
       20
 70
             129
 10
238.953371
 20
42.057110999999999
 10
238.953371
 20
42.057110999999999
 42
-0.4142135623731045
 10
238.953371
 20
40.289345000000004
 10
238.953371
 20
40.289345000000004
 42
-0.4142135623730974
 10
237.18560500000001
 20
40.289345000000004
 10
237.18560500000001
 20
40.289345000000004
 10
237.18560500000001
 20
40.289345000000004
 42
0.4142135623730974
 10
238.953371
 20
40.289345000000004
 10
238.953371
 20
40.289345000000004
 42
0.4142135623731045
 10
238.953371
 20
42.057110999999999
 10
238.953371
 20
42.057110999999999
 10
238.953371
 20
42.057110999999999
 42
0.4142135623730927
 10
237.18560500000001
 20
42.057110999999999
 10
237.18560500000001
 20
42.057110999999999
 42
0.4142135623730856
 10
237.18560500000001
 20
40.289345000000004
 10
237.18560500000001
 20
40.289345000000004
 10
237.18560500000001
 20
40.289344999999983
 42
-0.4142135623731045
 10
237.18560500000001
 20
42.057110999999999
 10
237.18560500000001
 20
42.057110999999999
 42
-0.4142135623730927
 10
238.953371
 20
42.057110999999999
  0
ATTDEF
  5
11B
100
AcDbEntity
  8
一般
 62
               0
100
AcDbText
 10
236.19448800000001
 20
31.388228000000005
 30
0.0
 40
4.2333333333333325
  1
M2.5
100
AcDbAttributeDefinition
  3

  2
ネジの直径
 70
               1
  0
ATTDEF
  5
11C
100
AcDbEntity
  8
一般
 62
               0
100
AcDbText
 10
236.19448800000001
 20
23.768228000000008
 30
0.0
 40
4.2333333333333325
  1
6.911 mm
100
AcDbAttributeDefinition
  3

  2
直径
 70
               1
  0
ENDBLK
  5
11D
100
AcDbEntity
  8
一般
100
AcDbBlockEnd
  0
BLOCK
  5
11E
100
AcDbEntity
  8
一般
100
AcDbBlockBegin
  2
六咳オィエ_廟面図_319
 70
               2
 10
0.0
 20
0.0
 30
0.0
  3
六咳オィエ_廟面図_319
  1

  0
LWPOLYLINE
  5
11F
100
AcDbEntity
  8
0
370
              15
  6
Continuous
 62
               7
100
AcDbPolyline
 90
       10
 70
             129
 10
260.23189000000002
 20
41.173228000000002
 10
260.23189000000002
 20
41.173228000000002
 42
-0.4142135623730927
 10
261.10689000000002
 20
42.048228000000002
 10
261.10689000000002
 20
42.048228000000002
 42
-0.414213562373095
 10
261.98189000000002
 20
41.173228000000002
 10
261.98189000000002
 20
41.173228000000002
 10
261.98189000000002
 20
41.173228000000002
 42
-0.4142135623730974
 10
261.10689000000002
 20
40.298228000000002
 10
261.10689000000002
 20
40.298228000000002
 42
-0.414213562373095
 10
260.23189000000002
 20
41.173228000000002
  0
LWPOLYLINE
  5
120
100
AcDbEntity
  8
0
370
              15
  6
Continuous
 62
               7
100
AcDbPolyline
 90
        5
 70
             128
 10
259.23189000000002
 20
41.173228000000002
 42
-0.4142135623730939
 10
261.10689000000002
 20
43.048228000000002
 10
261.10689000000002
 20
43.048228000000002
 42
-0.414213562373095
 10
262.98189000000002
 20
41.173228000000002
 10
262.98189000000002
 20
41.173228000000002
  0
LWPOLYLINE
  5
121
100
AcDbEntity
  8
0
370
              15
  6
Continuous
 62
               7
100
AcDbPolyline
 90
        5
 70
             128
 10
259.23189000000002
 20
41.173228000000002
 42
0.414213562373095
 10
261.10689000000002
 20
39.298228000000002
 10
261.10689000000002
 20
39.298228000000002
 42
0.4142135623730961
 10
262.98189000000002
 20
41.173228000000002
 10
262.98189000000002
 20
41.173228000000002
  0
LWPOLYLINE
  5
122
100
AcDbEntity
  8
0
370
              15
  6
Continuous
 62
               7
100
AcDbPolyline
 90
        6
 70
             129
 10
261.10689000000002
 20
43.338228000000001
 10
259.23189000000002
 20
42.255728000000005
 10
259.23189000000002
 20
40.090727999999999
 10
261.10689000000002
 20
39.008228000000003
 10
262.98189000000002
 20
40.090727999999999
 10
262.98189000000002
 20
42.255728000000005
  0
LWPOLYLINE
  5
123
100
AcDbEntity
  8
0
370
              15
  6
Continuous
 62
               7
100
AcDbPolyline
 90
       20
 70
             129
 10
261.99077299999999
 20
42.057110999999999
 10
261.99077299999999
 20
42.057110999999999
 42
-0.4142135623731186
 10
261.99077299999999
 20
40.289345000000033
 10
261.99077300000005
 20
40.289345000000033
 42
-0.4142135623731175
 10
260.223007
 20
40.289345000000004
 10
260.223007
 20
40.289345000000004
 10
260.223007
 20
40.289345000000004
 42
0.4142135623730833
 10
261.99077299999999
 20
40.289344999999976
 10
261.99077300000005
 20
40.289345000000026
 42
0.4142135623730785
 10
261.99077299999999
 20
42.057110999999999
 10
261.99077299999999
 20
42.057110999999999
 10
261.99077299999999
 20
42.057110999999999
 42
0.4142135623731163
 10
260.22300700000005
 20
42.057110999999971
 10
260.22300700000005
 20
42.057110999999971
 42
0.4142135623731091
 10
260.223007
 20
40.289345000000004
 10
260.223007
 20
40.289345000000004
 10
260.22300699999988
 20
40.289344999999983
 42
-0.4142135623730833
 10
260.22300700000005
 20
42.057111000000027
 10
260.22300700000005
 20
42.057111000000027
 42
-0.4142135623731069
 10
261.99077299999999
 20
42.057110999999999
  0
ATTDEF
  5
124
100
AcDbEntity
  8
一般
 62
               0
100
AcDbText
 10
259.23189000000002
 20
31.388228000000005
 30
0.0
 40
4.2333333333333325
  1
M2.5
100
AcDbAttributeDefinition
  3

  2
ネジの直径
 70
               1
  0
ATTDEF
  5
125
100
AcDbEntity
  8
一般
 62
               0
100
AcDbText
 10
259.23189000000002
 20
23.768228000000008
 30
0.0
 40
4.2333333333333325
  1
6.911 mm
100
AcDbAttributeDefinition
  3

  2
直径
 70
               1
  0
ENDBLK
  5
126
100
AcDbEntity
  8
一般
100
AcDbBlockEnd
  0
BLOCK
  5
127
100
AcDbEntity
  8
一般
100
AcDbBlockBegin
  2
六咳オィエ_廟面図_335
 70
               2
 10
0.0
 20
0.0
 30
0.0
  3
六咳オィエ_廟面図_335
  1

  0
LWPOLYLINE
  5
128
100
AcDbEntity
  8
0
370
              15
  6
Continuous
 62
               7
100
AcDbPolyline
 90
       10
 70
             129
 10
199.84448800000001
 20
41.173228000000002
 10
199.84448800000001
 20
41.173228000000002
 42
-0.4142135623730927
 10
200.71948800000001
 20
42.048228000000002
 10
200.71948800000001
 20
42.048228000000002
 42
-0.414213562373095
 10
201.59448800000001
 20
41.173228000000002
 10
201.59448800000001
 20
41.173228000000002
 10
201.59448800000001
 20
41.173228000000002
 42
-0.4142135623730974
 10
200.71948800000001
 20
40.298228000000002
 10
200.71948800000001
 20
40.298228000000002
 42
-0.414213562373095
 10
199.84448800000001
 20
41.173228000000002
  0
LWPOLYLINE
  5
129
100
AcDbEntity
  8
0
370
              15
  6
Continuous
 62
               7
100
AcDbPolyline
 90
        5
 70
             128
 10
198.84448800000001
 20
41.173228000000002
 42
-0.4142135623730939
 10
200.71948800000001
 20
43.048228000000002
 10
200.71948800000001
 20
43.048228000000002
 42
-0.414213562373095
 10
202.59448800000001
 20
41.173228000000002
 10
202.59448800000001
 20
41.173228000000002
  0
LWPOLYLINE
  5
12A
100
AcDbEntity
  8
0
370
              15
  6
Continuous
 62
               7
100
AcDbPolyline
 90
        5
 70
             128
 10
198.84448800000001
 20
41.173228000000002
 42
0.414213562373095
 10
200.71948800000001
 20
39.298228000000002
 10
200.71948800000001
 20
39.298228000000002
 42
0.4142135623730961
 10
202.59448800000001
 20
41.173228000000002
 10
202.59448800000001
 20
41.173228000000002
  0
LWPOLYLINE
  5
12B
100
AcDbEntity
  8
0
370
              15
  6
Continuous
 62
               7
100
AcDbPolyline
 90
        6
 70
             129
 10
200.71948800000001
 20
43.338228000000001
 10
198.84448800000001
 20
42.255728000000005
 10
198.84448800000001
 20
40.090727999999999
 10
200.71948800000001
 20
39.008228000000003
 10
202.59448800000001
 20
40.090727999999999
 10
202.59448800000001
 20
42.255728000000005
  0
LWPOLYLINE
  5
12C
100
AcDbEntity
  8
0
370
              15
  6
Continuous
 62
               7
100
AcDbPolyline
 90
       20
 70
             129
 10
201.60337100000001
 20
42.057110999999999
 10
201.60337100000001
 20
42.057110999999999
 42
-0.414213562373095
 10
201.60337100000001
 20
40.289345000000004
 10
201.60337100000001
 20
40.289345000000004
 42
-0.4142135623730974
 10
199.83560500000002
 20
40.289345000000004
 10
199.83560500000002
 20
40.289345000000004
 10
199.83560500000002
 20
40.289345000000004
 42
0.4142135623730974
 10
201.60337100000001
 20
40.289345000000004
 10
201.60337100000001
 20
40.289345000000004
 42
0.414213562373095
 10
201.60337100000001
 20
42.057110999999999
 10
201.60337100000001
 20
42.057110999999999
 10
201.60337100000001
 20
42.05711100000002
 42
0.4142135623730856
 10
199.83560500000002
 20
42.057110999999999
 10
199.83560500000002
 20
42.057110999999999
 42
0.414213562373095
 10
199.83560500000002
 20
40.289345000000004
 10
199.83560500000002
 20
40.289345000000004
 10
199.83560500000002
 20
40.289345000000004
 42
-0.414213562373095
 10
199.83560500000002
 20
42.057110999999999
 10
199.83560500000002
 20
42.057110999999992
 42
-0.414213562373095
 10
201.60337100000001
 20
42.057110999999999
  0
ATTDEF
  5
12D
100
AcDbEntity
  8
一般
 62
               0
100
AcDbText
 10
198.84448800000001
 20
31.388228000000005
 30
0.0
 40
4.2333333333333325
  1
M2.5
100
AcDbAttributeDefinition
  3

  2
ネジの直径
 70
               1
  0
ATTDEF
  5
12E
100
AcDbEntity
  8
一般
 62
               0
100
AcDbText
 10
198.84448800000001
 20
23.768228000000008
 30
0.0
 40
4.2333333333333325
  1
6.911 mm
100
AcDbAttributeDefinition
  3

  2
直径
 70
               1
  0
ENDBLK
  5
12F
100
AcDbEntity
  8
一般
100
AcDbBlockEnd
  0
BLOCK
  5
130
100
AcDbEntity
  8
一般
100
AcDbBlockBegin
  2
六咳オィエ_廟面図_339
 70
               2
 10
0.0
 20
0.0
 30
0.0
  3
六咳オィエ_廟面図_339
  1

  0
LWPOLYLINE
  5
131
100
AcDbEntity
  8
0
370
              15
  6
Continuous
 62
               7
100
AcDbPolyline
 90
       10
 70
             129
 10
222.88189
 20
41.173228000000002
 10
222.88189
 20
41.173228000000002
 42
-0.4142135623730927
 10
223.75689
 20
42.048228000000002
 10
223.75689
 20
42.048228000000002
 42
-0.414213562373095
 10
224.63189
 20
41.173228000000002
 10
224.63189
 20
41.173228000000002
 10
224.63189
 20
41.173228000000002
 42
-0.4142135623730974
 10
223.75689
 20
40.298228000000002
 10
223.75689
 20
40.298228000000002
 42
-0.414213562373095
 10
222.88189
 20
41.173228000000002
  0
LWPOLYLINE
  5
132
100
AcDbEntity
  8
0
370
              15
  6
Continuous
 62
               7
100
AcDbPolyline
 90
        5
 70
             128
 10
221.88189
 20
41.173228000000002
 42
-0.4142135623730939
 10
223.75689
 20
43.048228000000002
 10
223.75689
 20
43.048228000000002
 42
-0.414213562373095
 10
225.63189
 20
41.173228000000002
 10
225.63189
 20
41.173228000000002
  0
LWPOLYLINE
  5
133
100
AcDbEntity
  8
0
370
              15
  6
Continuous
 62
               7
100
AcDbPolyline
 90
        5
 70
             128
 10
221.88189
 20
41.173228000000002
 42
0.414213562373095
 10
223.75689
 20
39.298228000000002
 10
223.75689
 20
39.298228000000002
 42
0.4142135623730961
 10
225.63189
 20
41.173228000000002
 10
225.63189
 20
41.173228000000002
  0
LWPOLYLINE
  5
134
100
AcDbEntity
  8
0
370
              15
  6
Continuous
 62
               7
100
AcDbPolyline
 90
        6
 70
             129
 10
223.75689
 20
43.338228000000001
 10
221.88189
 20
42.255728000000005
 10
221.88189
 20
40.090727999999999
 10
223.75689
 20
39.008228000000003
 10
225.63189
 20
40.090727999999999
 10
225.63189
 20
42.255728000000005
  0
LWPOLYLINE
  5
135
100
AcDbEntity
  8
0
370
              15
  6
Continuous
 62
               7
100
AcDbPolyline
 90
       20
 70
             129
 10
224.640773
 20
42.057110999999999
 10
224.640773
 20
42.057110999999999
 42
-0.414213562373095
 10
224.640773
 20
40.289345000000004
 10
224.640773
 20
40.289345000000004
 42
-0.4142135623730974
 10
222.873007
 20
40.289345000000004
 10
222.873007
 20
40.289345000000004
 10
222.873007
 20
40.289345000000004
 42
0.4142135623730974
 10
224.640773
 20
40.289345000000004
 10
224.640773
 20
40.289345000000004
 42
0.414213562373095
 10
224.640773
 20
42.057110999999999
 10
224.640773
 20
42.057110999999999
 10
224.64077299999997
 20
42.057110999999963
 42
0.4142135623731139
 10
222.873007
 20
42.057110999999999
 10
222.87300699999997
 20
42.057110999999992
 42
0.4142135623730762
 10
222.873007
 20
40.289345000000004
 10
222.873007
 20
40.289345000000004
 10
222.87300699999997
 20
40.289344999999997
 42
-0.4142135623730762
 10
222.873007
 20
42.057110999999999
 10
222.87300699999997
 20
42.057110999999992
 42
-0.4142135623731045
 10
224.640773
 20
42.057110999999999
  0
ATTDEF
  5
136
100
AcDbEntity
  8
一般
 62
               0
100
AcDbText
 10
221.88189
 20
31.388228000000005
 30
0.0
 40
4.2333333333333325
  1
M2.5
100
AcDbAttributeDefinition
  3

  2
ネジの直径
 70
               1
  0
ATTDEF
  5
137
100
AcDbEntity
  8
一般
 62
               0
100
AcDbText
 10
221.88189
 20
23.768228000000008
 30
0.0
 40
4.2333333333333325
  1
6.911 mm
100
AcDbAttributeDefinition
  3

  2
直径
 70
               1
  0
ENDBLK
  5
138
100
AcDbEntity
  8
一般
100
AcDbBlockEnd
  0
BLOCK
  5
139
100
AcDbEntity
  8
一般
100
AcDbBlockBegin
  2
円_348
 70
               0
 10
0.0
 20
0.0
 30
0.0
  3
円_348
  1

  0
LWPOLYLINE
  5
13A
100
AcDbEntity
  8
0
370
              15
  6
Continuous
 62
               7
100
AcDbPolyline
 90
       10
 70
             129
 10
209.39015700000002
 20
56.245570999999998
 10
209.39015700000002
 20
56.245570999999998
 42
-0.4142135623730966
 10
212.14015700000002
 20
58.995570999999998
 10
212.14015700000002
 20
58.995570999999998
 42
-0.414213562373092
 10
214.89015700000002
 20
56.245570999999998
 10
214.89015700000002
 20
56.245570999999998
 10
214.89015700000002
 20
56.245570999999998
 42
-0.4142135623730935
 10
212.14015700000002
 20
53.495570999999998
 10
212.14015700000002
 20
53.495570999999998
 42
-0.4142135623730981
 10
209.39015700000002
 20
56.245570999999998
  0
LWPOLYLINE
  5
13B
100
AcDbEntity
  8
0
370
              15
  6
Continuous
 62
               7
100
AcDbPolyline
 90
       10
 70
             129
 10
210.18759500000002
 20
56.245570999999998
 10
210.18759500000002
 20
56.245570999999998
 42
-0.4142135623730972
 10
212.14015700000002
 20
58.198132999999999
 10
212.14015700000002
 20
58.198132999999999
 42
-0.4142135623730908
 10
214.09271900000002
 20
56.245570999999998
 10
214.09271900000002
 20
56.245570999999998
 10
214.09271900000002
 20
56.245570999999998
 42
-0.4142135623730929
 10
212.14015700000002
 20
54.293008999999998
 10
212.14015700000002
 20
54.293008999999998
 42
-0.4142135623730993
 10
210.18759500000002
 20
56.245570999999998
  0
ENDBLK
  5
13C
100
AcDbEntity
  8
一般
100
AcDbBlockEnd
  0
BLOCK
  5
13D
100
AcDbEntity
  8
一般
100
AcDbBlockBegin
  2
円_349
 70
               0
 10
0.0
 20
0.0
 30
0.0
  3
円_349
  1

  0
LWPOLYLINE
  5
13E
100
AcDbEntity
  8
0
370
              15
  6
Continuous
 62
               7
100
AcDbPolyline
 90
       10
 70
             129
 10
247.132283
 20
55.755412999999997
 10
247.132283
 20
55.755412999999997
 42
-0.4142135623730928
 10
249.88228299999997
 20
58.505412999999969
 10
249.88228299999997
 20
58.505412999999969
 42
-0.4142135623730981
 10
252.63228299999997
 20
55.755412999999997
 10
252.63228299999997
 20
55.755412999999997
 10
252.63228299999997
 20
55.755412999999997
 42
-0.4142135623730913
 10
249.88228299999997
 20
53.005412999999997
 10
249.88228299999997
 20
53.005412999999997
 42
-0.414213562373092
 10
247.132283
 20
55.755412999999997
  0
LWPOLYLINE
  5
13F
100
AcDbEntity
  8
0
370
              15
  6
Continuous
 62
               7
100
AcDbPolyline
 90
       10
 70
             129
 10
247.929721
 20
55.755412999999997
 10
247.929721
 20
55.755412999999997
 42
-0.4142135623731004
 10
249.88228299999997
 20
57.707974999999969
 10
249.88228299999997
 20
57.707974999999969
 42
-0.4142135623730993
 10
251.83484499999997
 20
55.755412999999997
 10
251.83484499999997
 20
55.755412999999997
 10
251.83484499999997
 20
55.755412999999997
 42
-0.414213562373094
 10
249.88228299999997
 20
53.802850999999997
 10
249.88228299999997
 20
53.802850999999997
 42
-0.4142135623730865
 10
247.929721
 20
55.755412999999997
  0
ENDBLK
  5
140
100
AcDbEntity
  8
一般
100
AcDbBlockEnd
  0
BLOCK
  5
141
100
AcDbEntity
  8
一般
100
AcDbBlockBegin
  2
六咳オィエ_廟面図_366
 70
               2
 10
0.0
 20
0.0
 30
0.0
  3
六咳オィエ_廟面図_366
  1

  0
LWPOLYLINE
  5
142
100
AcDbEntity
  8
0
370
              15
  6
Continuous
 62
               7
100
AcDbPolyline
 90
       10
 70
             129
 10
379.732283
 20
87.248030999999997
 10
379.732283
 20
87.248030999999997
 42
-0.4142135623731046
 10
380.607283
 20
88.123030999999997
 10
380.607283
 20
88.123030999999997
 42
-0.4142135623730761
 10
381.482283
 20
87.248030999999997
 10
381.482283
 20
87.248030999999997
 10
381.482283
 20
87.248030999999997
 42
-0.4142135623730855
 10
380.607283
 20
86.373030999999997
 10
380.607283
 20
86.373030999999997
 42
-0.4142135623731141
 10
379.732283
 20
87.248030999999997
  0
LWPOLYLINE
  5
143
100
AcDbEntity
  8
0
370
              15
  6
Continuous
 62
               7
100
AcDbPolyline
 90
        5
 70
             128
 10
378.732283
 20
87.248030999999997
 42
-0.4142135623730995
 10
380.607283
 20
89.123030999999997
 10
380.607283
 20
89.123030999999997
 42
-0.4142135623730862
 10
382.482283
 20
87.248030999999997
 10
382.482283
 20
87.248030999999997
  0
LWPOLYLINE
  5
144
100
AcDbEntity
  8
0
370
              15
  6
Continuous
 62
               7
100
AcDbPolyline
 90
        5
 70
             128
 10
378.732283
 20
87.248030999999997
 42
0.4142135623731039
 10
380.607283
 20
85.373030999999997
 10
380.607283
 20
85.373030999999997
 42
0.4142135623730906
 10
382.482283
 20
87.248030999999997
 10
382.482283
 20
87.248030999999997
  0
LWPOLYLINE
  5
145
100
AcDbEntity
  8
0
370
              15
  6
Continuous
 62
               7
100
AcDbPolyline
 90
        6
 70
             129
 10
380.607283
 20
89.413031000000004
 10
378.732283
 20
88.330530999999993
 10
378.732283
 20
86.165531000000001
 10
380.607283
 20
85.083030999999991
 10
382.482283
 20
86.165531000000001
 10
382.482283
 20
88.330530999999993
  0
LWPOLYLINE
  5
146
100
AcDbEntity
  8
0
370
              15
  6
Continuous
 62
               7
100
AcDbPolyline
 90
       20
 70
             129
 10
381.49116600000002
 20
88.131913999999995
 10
381.49116600000002
 20
88.131913999999995
 42
-0.4142135623730997
 10
381.49116599999996
 20
86.364147999999972
 10
381.49116599999996
 20
86.364147999999972
 42
-0.4142135623730998
 10
379.72339999999997
 20
86.364148
 10
379.72339999999997
 20
86.364148
 10
379.72339999999997
 20
86.364148
 42
0.4142135623730998
 10
381.49116599999996
 20
86.364147999999972
 10
381.49116599999996
 20
86.364147999999972
 42
0.4142135623730997
 10
381.49116600000002
 20
88.131913999999995
 10
381.49116600000002
 20
88.131913999999995
 10
381.49116600000002
 20
88.131913999999995
 42
0.4142135623730998
 10
379.72340000000003
 20
88.131914000000023
 10
379.72340000000003
 20
88.131914000000023
 42
0.4142135623731186
 10
379.72339999999997
 20
86.364148
 10
379.72339999999997
 20
86.364148
 10
379.72339999999997
 20
86.364148
 42
-0.4142135623731186
 10
379.72340000000003
 20
88.131914000000023
 10
379.72340000000003
 20
88.131914000000023
 42
-0.4142135623730998
 10
381.49116600000002
 20
88.131913999999995
  0
ATTDEF
  5
147
100
AcDbEntity
  8
一般
 62
               0
100
AcDbText
 10
378.732283
 20
77.463030999999987
 30
0.0
 40
4.2333333333333325
  1
M2.5
100
AcDbAttributeDefinition
  3

  2
ネジの直径
 70
               1
  0
ATTDEF
  5
148
100
AcDbEntity
  8
一般
 62
               0
100
AcDbText
 10
378.732283
 20
69.843030999999982
 30
0.0
 40
4.2333333333333325
  1
6.911 mm
100
AcDbAttributeDefinition
  3

  2
直径
 70
               1
  0
ENDBLK
  5
149
100
AcDbEntity
  8
一般
100
AcDbBlockEnd
  0
BLOCK
  5
14A
100
AcDbEntity
  8
一般
100
AcDbBlockBegin
  2
六咳オィエ_廟面図_370
 70
               2
 10
0.0
 20
0.0
 30
0.0
  3
六咳オィエ_廟面図_370
  1

  0
LWPOLYLINE
  5
14B
100
AcDbEntity
  8
0
370
              15
  6
Continuous
 62
               7
100
AcDbPolyline
 90
       10
 70
             129
 10
402.76968499999987
 20
87.248030999999997
 10
402.76968499999987
 20
87.248030999999997
 42
-0.4142135623730855
 10
403.64468499999987
 20
88.123030999999997
 10
403.64468499999987
 20
88.123030999999997
 42
-0.414213562373095
 10
404.51968499999987
 20
87.248030999999997
 10
404.51968499999987
 20
87.248030999999997
 10
404.51968499999987
 20
87.248030999999997
 42
-0.4142135623731046
 10
403.64468499999987
 20
86.373030999999997
 10
403.64468499999987
 20
86.373030999999997
 42
-0.414213562373095
 10
402.76968499999987
 20
87.248030999999997
  0
LWPOLYLINE
  5
14C
100
AcDbEntity
  8
0
370
              15
  6
Continuous
 62
               7
100
AcDbPolyline
 90
        5
 70
             128
 10
401.76968499999987
 20
87.248030999999997
 42
-0.4142135623730906
 10
403.64468499999992
 20
89.123031000000054
 10
403.64468499999992
 20
89.123031000000054
 42
-0.4142135623731039
 10
405.51968499999998
 20
87.248030999999997
 10
405.51968499999998
 20
87.248030999999997
  0
LWPOLYLINE
  5
14D
100
AcDbEntity
  8
0
370
              15
  6
Continuous
 62
               7
100
AcDbPolyline
 90
        5
 70
             128
 10
401.76968499999987
 20
87.248030999999997
 42
0.4142135623731039
 10
403.64468499999992
 20
85.373030999999941
 10
403.64468499999992
 20
85.373030999999941
 42
0.4142135623730906
 10
405.51968499999998
 20
87.248030999999997
 10
405.51968499999998
 20
87.248030999999997
  0
LWPOLYLINE
  5
14E
100
AcDbEntity
  8
0
370
              15
  6
Continuous
 62
               7
100
AcDbPolyline
 90
        6
 70
             129
 10
403.64468499999987
 20
89.413031000000004
 10
401.76968499999987
 20
88.330530999999993
 10
401.76968499999987
 20
86.165531000000001
 10
403.64468499999987
 20
85.083030999999991
 10
405.51968499999998
 20
86.165531000000001
 10
405.51968499999998
 20
88.330530999999993
  0
LWPOLYLINE
  5
14F
100
AcDbEntity
  8
0
370
              15
  6
Continuous
 62
               7
100
AcDbPolyline
 90
       20
 70
             129
 10
404.52856799999989
 20
88.131913999999995
 10
404.52856799999989
 20
88.131913999999966
 42
-0.4142135623731116
 10
404.52856799999984
 20
86.364147999999972
 10
404.52856799999984
 20
86.364147999999972
 42
-0.4142135623731092
 10
402.7608019999999
 20
86.364148
 10
402.7608019999999
 20
86.364148
 10
402.7608019999999
 20
86.364148
 42
0.4142135623731186
 10
404.52856799999984
 20
86.364148000000029
 10
404.52856799999984
 20
86.364148000000029
 42
0.4142135623730904
 10
404.52856799999989
 20
88.131913999999995
 10
404.52856799999989
 20
88.131913999999995
 10
404.52856799999989
 20
88.131913999999995
 42
0.4142135623730809
 10
402.7608019999999
 20
88.131914000000023
 10
402.76080199999979
 20
88.131913999999952
 42
0.4142135623730597
 10
402.7608019999999
 20
86.364148
 10
402.7608019999999
 20
86.364148
 10
402.7608019999999
 20
86.364148
 42
-0.4142135623731186
 10
402.7608019999999
 20
88.131913999999966
 10
402.7608019999999
 20
88.131913999999966
 42
-0.4142135623730715
 10
404.52856799999989
 20
88.131913999999995
  0
ATTDEF
  5
150
100
AcDbEntity
  8
一般
 62
               0
100
AcDbText
 10
401.76968499999987
 20
77.463030999999987
 30
0.0
 40
4.2333333333333325
  1
M2.5
100
AcDbAttributeDefinition
  3

  2
ネジの直径
 70
               1
  0
ATTDEF
  5
151
100
AcDbEntity
  8
一般
 62
               0
100
AcDbText
 10
401.76968499999987
 20
69.843030999999982
 30
0.0
 40
4.2333333333333325
  1
6.911 mm
100
AcDbAttributeDefinition
  3

  2
直径
 70
               1
  0
ENDBLK
  5
152
100
AcDbEntity
  8
一般
100
AcDbBlockEnd
  0
BLOCK
  5
153
100
AcDbEntity
  8
一般
100
AcDbBlockBegin
  2
六咳オィエ_廟面図_386
 70
               2
 10
0.0
 20
0.0
 30
0.0
  3
六咳オィエ_廟面図_386
  1

  0
LWPOLYLINE
  5
154
100
AcDbEntity
  8
0
370
              15
  6
Continuous
 62
               7
100
AcDbPolyline
 90
       10
 70
             129
 10
379.732283
 20
104.403543
 10
379.732283
 20
104.403543
 42
-0.4142135623730998
 10
380.607283
 20
105.278543
 10
380.607283
 20
105.278543
 42
-0.414213562373095
 10
381.482283
 20
104.403543
 10
381.482283
 20
104.403543
 10
381.482283
 20
104.403543
 42
-0.4142135623730903
 10
380.607283
 20
103.528543
 10
380.607283
 20
103.528543
 42
-0.414213562373095
 10
379.732283
 20
104.403543
  0
LWPOLYLINE
  5
155
100
AcDbEntity
  8
0
370
              15
  6
Continuous
 62
               7
100
AcDbPolyline
 90
        5
 70
             128
 10
378.732283
 20
104.403543
 42
-0.4142135623730973
 10
380.607283
 20
106.278543
 10
380.607283
 20
106.278543
 42
-0.414213562373095
 10
382.482283
 20
104.403543
 10
382.482283
 20
104.403543
  0
LWPOLYLINE
  5
156
100
AcDbEntity
  8
0
370
              15
  6
Continuous
 62
               7
100
AcDbPolyline
 90
        5
 70
             128
 10
378.732283
 20
104.403543
 42
0.414213562373095
 10
380.607283
 20
102.528543
 10
380.607283
 20
102.528543
 42
0.4142135623730928
 10
382.482283
 20
104.403543
 10
382.482283
 20
104.403543
  0
LWPOLYLINE
  5
157
100
AcDbEntity
  8
0
370
              15
  6
Continuous
 62
               7
100
AcDbPolyline
 90
        6
 70
             129
 10
380.607283
 20
106.56854300000001
 10
378.732283
 20
105.486043
 10
378.732283
 20
103.321043
 10
380.607283
 20
102.23854299999999
 10
382.482283
 20
103.321043
 10
382.482283
 20
105.486043
  0
LWPOLYLINE
  5
158
100
AcDbEntity
  8
0
370
              15
  6
Continuous
 62
               7
100
AcDbPolyline
 90
       20
 70
             129
 10
381.49116600000002
 20
105.287426
 10
381.49116600000002
 20
105.287426
 42
-0.4142135623730997
 10
381.49116599999996
 20
103.51965999999997
 10
381.49116599999996
 20
103.51965999999997
 42
-0.4142135623731045
 10
379.72339999999997
 20
103.51966
 10
379.72339999999997
 20
103.51966
 10
379.72339999999997
 20
103.51966
 42
0.4142135623731045
 10
381.49116599999996
 20
103.51965999999997
 10
381.49116599999996
 20
103.51965999999997
 42
0.4142135623730997
 10
381.49116600000002
 20
105.287426
 10
381.49116600000002
 20
105.287426
 10
381.49116600000002
 20
105.28742599999998
 42
0.4142135623731163
 10
379.72340000000003
 20
105.28742600000002
 10
379.72340000000003
 20
105.28742600000002
 42
0.4142135623730997
 10
379.72339999999997
 20
103.51966
 10
379.72339999999997
 20
103.51966
 10
379.72339999999997
 20
103.51966
 42
-0.4142135623730997
 10
379.72340000000003
 20
105.28742600000002
 10
379.72340000000003
 20
105.28742600000002
 42
-0.4142135623730951
 10
381.49116600000002
 20
105.287426
  0
ATTDEF
  5
159
100
AcDbEntity
  8
一般
 62
               0
100
AcDbText
 10
378.732283
 20
94.618542999999988
 30
0.0
 40
4.2333333333333325
  1
M2.5
100
AcDbAttributeDefinition
  3

  2
ネジの直径
 70
               1
  0
ATTDEF
  5
15A
100
AcDbEntity
  8
一般
 62
               0
100
AcDbText
 10
378.732283
 20
86.998542999999984
 30
0.0
 40
4.2333333333333325
  1
6.911 mm
100
AcDbAttributeDefinition
  3

  2
直径
 70
               1
  0
ENDBLK
  5
15B
100
AcDbEntity
  8
一般
100
AcDbBlockEnd
  0
BLOCK
  5
15C
100
AcDbEntity
  8
一般
100
AcDbBlockBegin
  2
六咳オィエ_廟面図_390
 70
               2
 10
0.0
 20
0.0
 30
0.0
  3
六咳オィエ_廟面図_390
  1

  0
LWPOLYLINE
  5
15D
100
AcDbEntity
  8
0
370
              15
  6
Continuous
 62
               7
100
AcDbPolyline
 90
       10
 70
             129
 10
402.76968499999987
 20
104.403543
 10
402.76968499999987
 20
104.403543
 42
-0.4142135623730998
 10
403.64468499999987
 20
105.278543
 10
403.64468499999987
 20
105.278543
 42
-0.414213562373095
 10
404.51968499999987
 20
104.403543
 10
404.51968499999987
 20
104.403543
 10
404.51968499999987
 20
104.403543
 42
-0.4142135623730903
 10
403.64468499999987
 20
103.528543
 10
403.64468499999987
 20
103.528543
 42
-0.414213562373095
 10
402.76968499999987
 20
104.403543
  0
LWPOLYLINE
  5
15E
100
AcDbEntity
  8
0
370
              15
  6
Continuous
 62
               7
100
AcDbPolyline
 90
        5
 70
             128
 10
401.76968499999987
 20
104.403543
 42
-0.4142135623730884
 10
403.64468499999992
 20
106.27854300000006
 10
403.64468499999992
 20
106.27854300000006
 42
-0.4142135623731039
 10
405.51968499999998
 20
104.403543
 10
405.51968499999998
 20
104.403543
  0
LWPOLYLINE
  5
15F
100
AcDbEntity
  8
0
370
              15
  6
Continuous
 62
               7
100
AcDbPolyline
 90
        5
 70
             128
 10
401.76968499999987
 20
104.403543
 42
0.414213562373095
 10
403.64468499999992
 20
102.52854299999994
 10
403.64468499999992
 20
102.52854299999994
 42
0.4142135623730928
 10
405.51968499999998
 20
104.403543
 10
405.51968499999998
 20
104.403543
  0
LWPOLYLINE
  5
160
100
AcDbEntity
  8
0
370
              15
  6
Continuous
 62
               7
100
AcDbPolyline
 90
        6
 70
             129
 10
403.64468499999987
 20
106.56854300000001
 10
401.76968499999987
 20
105.486043
 10
401.76968499999987
 20
103.321043
 10
403.64468499999987
 20
102.23854299999999
 10
405.51968499999998
 20
103.321043
 10
405.51968499999998
 20
105.486043
  0
LWPOLYLINE
  5
161
100
AcDbEntity
  8
0
370
              15
  6
Continuous
 62
               7
100
AcDbPolyline
 90
       20
 70
             129
 10
404.52856799999989
 20
105.287426
 10
404.52856800000001
 20
105.28742600000007
 42
-0.4142135623730856
 10
404.52856799999984
 20
103.51965999999997
 10
404.52856799999984
 20
103.51965999999997
 42
-0.4142135623731139
 10
402.7608019999999
 20
103.51966
 10
402.7608019999999
 20
103.51966
 10
402.7608019999999
 20
103.51966
 42
0.4142135623731234
 10
404.52856799999984
 20
103.51966000000003
 10
404.52856799999984
 20
103.51966000000003
 42
0.4142135623731091
 10
404.52856799999989
 20
105.287426
 10
404.52856799999989
 20
105.287426
 10
404.52856799999989
 20
105.287426
 42
0.4142135623730762
 10
402.7608019999999
 20
105.28742600000002
 10
402.76080199999996
 20
105.28742600000001
 42
0.4142135623730856
 10
402.7608019999999
 20
103.51966
 10
402.7608019999999
 20
103.51966
 10
402.7608019999999
 20
103.51966
 42
-0.4142135623731186
 10
402.7608019999999
 20
105.28742599999997
 10
402.7608019999999
 20
105.28742599999997
 42
-0.4142135623730668
 10
404.52856799999989
 20
105.287426
  0
ATTDEF
  5
162
100
AcDbEntity
  8
一般
 62
               0
100
AcDbText
 10
401.76968499999987
 20
94.618542999999988
 30
0.0
 40
4.2333333333333325
  1
M2.5
100
AcDbAttributeDefinition
  3

  2
ネジの直径
 70
               1
  0
ATTDEF
  5
163
100
AcDbEntity
  8
一般
 62
               0
100
AcDbText
 10
401.76968499999987
 20
86.998542999999984
 30
0.0
 40
4.2333333333333325
  1
6.911 mm
100
AcDbAttributeDefinition
  3

  2
直径
 70
               1
  0
ENDBLK
  5
164
100
AcDbEntity
  8
一般
100
AcDbBlockEnd
  0
BLOCK
  5
165
100
AcDbEntity
  8
一般
100
AcDbBlockBegin
  2
六咳オィエ_廟面図_406
 70
               2
 10
0.0
 20
0.0
 30
0.0
  3
六咳オィエ_廟面図_406
  1

  0
LWPOLYLINE
  5
166
100
AcDbEntity
  8
0
370
              15
  6
Continuous
 62
               7
100
AcDbPolyline
 90
       10
 70
             129
 10
420.90551199999999
 20
104.403543
 10
420.90551199999999
 20
104.403543
 42
-0.4142135623730808
 10
421.78051199999999
 20
105.278543
 10
421.78051199999999
 20
105.278543
 42
-0.414213562373095
 10
422.65551199999999
 20
104.403543
 10
422.65551199999999
 20
104.403543
 10
422.65551199999999
 20
104.403543
 42
-0.4142135623731094
 10
421.78051199999999
 20
103.528543
 10
421.78051199999999
 20
103.528543
 42
-0.414213562373095
 10
420.90551199999999
 20
104.403543
  0
LWPOLYLINE
  5
167
100
AcDbEntity
  8
0
370
              15
  6
Continuous
 62
               7
100
AcDbPolyline
 90
        5
 70
             128
 10
419.90551199999999
 20
104.403543
 42
-0.4142135623730884
 10
421.78051199999999
 20
106.278543
 10
421.78051199999999
 20
106.278543
 42
-0.414213562373095
 10
423.65551199999999
 20
104.403543
 10
423.65551199999999
 20
104.403543
  0
LWPOLYLINE
  5
168
100
AcDbEntity
  8
0
370
              15
  6
Continuous
 62
               7
100
AcDbPolyline
 90
        5
 70
             128
 10
419.90551199999999
 20
104.403543
 42
0.414213562373095
 10
421.78051199999999
 20
102.528543
 10
421.78051199999999
 20
102.528543
 42
0.4142135623731018
 10
423.65551199999999
 20
104.403543
 10
423.65551199999999
 20
104.403543
  0
LWPOLYLINE
  5
169
100
AcDbEntity
  8
0
370
              15
  6
Continuous
 62
               7
100
AcDbPolyline
 90
        6
 70
             129
 10
421.78051199999999
 20
106.56854300000001
 10
419.90551199999999
 20
105.486043
 10
419.90551199999999
 20
103.321043
 10
421.78051199999999
 20
102.23854299999999
 10
423.65551199999999
 20
103.321043
 10
423.65551199999999
 20
105.486043
  0
LWPOLYLINE
  5
16A
100
AcDbEntity
  8
0
370
              15
  6
Continuous
 62
               7
100
AcDbPolyline
 90
       20
 70
             129
 10
422.66439500000001
 20
105.287426
 10
422.66439500000001
 20
105.287426
 42
-0.4142135623730809
 10
422.66439499999996
 20
103.51965999999997
 10
422.66439499999996
 20
103.51965999999997
 42
-0.4142135623731045
 10
420.89662899999996
 20
103.51966
 10
420.89662899999996
 20
103.51966
 10
420.89662899999996
 20
103.51966
 42
0.4142135623731045
 10
422.66439499999996
 20
103.51965999999997
 10
422.66439499999996
 20
103.51965999999997
 42
0.4142135623730809
 10
422.66439500000001
 20
105.287426
 10
422.66439500000001
 20
105.287426
 10
422.66439500000001
 20
105.287426
 42
0.4142135623730951
 10
420.89662900000002
 20
105.28742600000002
 10
420.89662900000002
 20
105.28742600000002
 42
0.4142135623731186
 10
420.89662899999996
 20
103.51966
 10
420.89662899999996
 20
103.51966
 10
420.89662899999996
 20
103.51966000000007
 42
-0.4142135623730904
 10
420.89662900000002
 20
105.28742600000002
 10
420.89662900000002
 20
105.28742600000002
 42
-0.4142135623730951
 10
422.66439500000001
 20
105.287426
  0
ATTDEF
  5
16B
100
AcDbEntity
  8
一般
 62
               0
100
AcDbText
 10
419.90551199999999
 20
94.618542999999988
 30
0.0
 40
4.2333333333333325
  1
M2.5
100
AcDbAttributeDefinition
  3

  2
ネジの直径
 70
               1
  0
ATTDEF
  5
16C
100
AcDbEntity
  8
一般
 62
               0
100
AcDbText
 10
419.90551199999999
 20
86.998542999999984
 30
0.0
 40
4.2333333333333325
  1
6.911 mm
100
AcDbAttributeDefinition
  3

  2
直径
 70
               1
  0
ENDBLK
  5
16D
100
AcDbEntity
  8
一般
100
AcDbBlockEnd
  0
BLOCK
  5
16E
100
AcDbEntity
  8
一般
100
AcDbBlockBegin
  2
六咳オィエ_廟面図_410
 70
               2
 10
0.0
 20
0.0
 30
0.0
  3
六咳オィエ_廟面図_410
  1

  0
LWPOLYLINE
  5
16F
100
AcDbEntity
  8
0
370
              15
  6
Continuous
 62
               7
100
AcDbPolyline
 90
       10
 70
             129
 10
443.94291299999998
 20
104.403543
 10
443.94291299999998
 20
104.403543
 42
-0.4142135623731189
 10
444.81791299999992
 20
105.27854299999994
 10
444.81791299999992
 20
105.27854299999994
 42
-0.414213562373095
 10
445.69291299999986
 20
104.403543
 10
445.69291299999986
 20
104.403543
 10
445.69291299999986
 20
104.403543
 42
-0.4142135623731094
 10
444.81791299999992
 20
103.52854300000006
 10
444.81791299999992
 20
103.52854300000006
 42
-0.4142135623730761
 10
443.94291299999998
 20
104.403543
  0
LWPOLYLINE
  5
170
100
AcDbEntity
  8
0
370
              15
  6
Continuous
 62
               7
100
AcDbPolyline
 90
        5
 70
             128
 10
442.94291299999986
 20
104.403543
 42
-0.4142135623730884
 10
444.81791299999992
 20
106.27854300000006
 10
444.81791299999992
 20
106.27854300000006
 42
-0.4142135623731039
 10
446.69291299999998
 20
104.403543
 10
446.69291299999998
 20
104.403543
  0
LWPOLYLINE
  5
171
100
AcDbEntity
  8
0
370
              15
  6
Continuous
 62
               7
100
AcDbPolyline
 90
        5
 70
             128
 10
442.94291299999986
 20
104.403543
 42
0.414213562373095
 10
444.81791299999992
 20
102.52854299999994
 10
444.81791299999992
 20
102.52854299999994
 42
0.414213562373084
 10
446.69291299999998
 20
104.403543
 10
446.69291299999998
 20
104.403543
  0
LWPOLYLINE
  5
172
100
AcDbEntity
  8
0
370
              15
  6
Continuous
 62
               7
100
AcDbPolyline
 90
        6
 70
             129
 10
444.81791299999998
 20
106.56854300000001
 10
442.94291299999986
 20
105.486043
 10
442.94291299999986
 20
103.321043
 10
444.81791299999998
 20
102.23854299999999
 10
446.69291299999998
 20
103.321043
 10
446.69291299999998
 20
105.486043
  0
LWPOLYLINE
  5
173
100
AcDbEntity
  8
0
370
              15
  6
Continuous
 62
               7
100
AcDbPolyline
 90
       20
 70
             129
 10
445.701796
 20
105.287426
 10
445.701796
 20
105.287426
 42
-0.4142135623730997
 10
445.70179599999994
 20
103.51965999999997
 10
445.70179599999994
 20
103.51965999999997
 42
-0.4142135623730951
 10
443.93402999999989
 20
103.51966
 10
443.93402999999989
 20
103.51966
 10
443.93402999999989
 20
103.51966
 42
0.4142135623731234
 10
445.70179599999994
 20
103.51965999999992
 10
445.70179599999994
 20
103.51965999999992
 42
0.4142135623730904
 10
445.701796
 20
105.287426
 10
445.701796
 20
105.287426
 10
445.701796
 20
105.287426
 42
0.414213562373095
 10
443.93403000000001
 20
105.28742600000002
 10
443.93403000000001
 20
105.28742600000002
 42
0.414213562373128
 10
443.93402999999989
 20
103.51966
 10
443.93402999999989
 20
103.51966
 10
443.93402999999978
 20
103.51965999999999
 42
-0.4142135623731092
 10
443.93403000000001
 20
105.28742600000008
 10
443.93403000000001
 20
105.28742600000008
 42
-0.4142135623731045
 10
445.701796
 20
105.287426
  0
ATTDEF
  5
174
100
AcDbEntity
  8
一般
 62
               0
100
AcDbText
 10
442.94291299999986
 20
94.618542999999988
 30
0.0
 40
4.2333333333333325
  1
M2.5
100
AcDbAttributeDefinition
  3

  2
ネジの直径
 70
               1
  0
ATTDEF
  5
175
100
AcDbEntity
  8
一般
 62
               0
100
AcDbText
 10
442.94291299999986
 20
86.998542999999984
 30
0.0
 40
4.2333333333333325
  1
6.911 mm
100
AcDbAttributeDefinition
  3

  2
直径
 70
               1
  0
ENDBLK
  5
176
100
AcDbEntity
  8
一般
100
AcDbBlockEnd
  0
BLOCK
  5
177
100
AcDbEntity
  8
一般
100
AcDbBlockBegin
  2
六咳オィエ_廟面図_426
 70
               2
 10
0.0
 20
0.0
 30
0.0
  3
六咳オィエ_廟面図_426
  1

  0
LWPOLYLINE
  5
178
100
AcDbEntity
  8
0
370
              15
  6
Continuous
 62
               7
100
AcDbPolyline
 90
       10
 70
             129
 10
342.088189
 20
93.129920999999996
 10
342.088189
 20
93.129920999999996
 42
-0.4142135623731046
 10
342.963189
 20
94.004920999999996
 10
342.963189
 20
94.004920999999996
 42
-0.414213562373095
 10
343.838189
 20
93.129920999999996
 10
343.838189
 20
93.129920999999996
 10
343.838189
 20
93.129920999999996
 42
-0.4142135623730855
 10
342.963189
 20
92.254920999999996
 10
342.963189
 20
92.254920999999996
 42
-0.414213562373095
 10
342.088189
 20
93.129920999999996
  0
LWPOLYLINE
  5
179
100
AcDbEntity
  8
0
370
              15
  6
Continuous
 62
               7
100
AcDbPolyline
 90
        5
 70
             128
 10
341.088189
 20
93.129920999999996
 42
-0.4142135623730995
 10
342.963189
 20
95.004920999999996
 10
342.963189
 20
95.004920999999996
 42
-0.414213562373095
 10
344.838189
 20
93.129920999999996
 10
344.838189
 20
93.129920999999996
  0
LWPOLYLINE
  5
17A
100
AcDbEntity
  8
0
370
              15
  6
Continuous
 62
               7
100
AcDbPolyline
 90
        5
 70
             128
 10
341.088189
 20
93.129920999999996
 42
0.414213562373095
 10
342.963189
 20
91.254920999999996
 10
342.963189
 20
91.254920999999996
 42
0.4142135623730906
 10
344.838189
 20
93.129920999999996
 10
344.838189
 20
93.129920999999996
  0
LWPOLYLINE
  5
17B
100
AcDbEntity
  8
0
370
              15
  6
Continuous
 62
               7
100
AcDbPolyline
 90
        6
 70
             129
 10
342.963189
 20
95.294921000000002
 10
341.088189
 20
94.212420999999992
 10
341.088189
 20
92.047421
 10
342.963189
 20
90.96492099999999
 10
344.838189
 20
92.047421
 10
344.838189
 20
94.212420999999992
  0
LWPOLYLINE
  5
17C
100
AcDbEntity
  8
0
370
              15
  6
Continuous
 62
               7
100
AcDbPolyline
 90
       20
 70
             129
 10
343.84707199999997
 20
94.013803999999993
 10
343.84707199999997
 20
94.013803999999993
 42
-0.4142135623731186
 10
343.84707199999997
 20
92.246038000000027
 10
343.84707199999997
 20
92.246038000000027
 42
-0.414213562373088
 10
342.07930599999997
 20
92.246037999999984
 10
342.07930599999997
 20
92.246037999999984
 10
342.07930600000003
 20
92.246037999999913
 42
0.4142135623730762
 10
343.84707200000003
 20
92.24603799999997
 10
343.84707200000003
 20
92.24603799999997
 42
0.4142135623730809
 10
343.84707199999997
 20
94.013803999999993
 10
343.84707199999997
 20
94.013803999999993
 10
343.84707199999997
 20
94.013803999999993
 42
0.4142135623731186
 10
342.07930600000003
 20
94.013803999999965
 10
342.07930600000003
 20
94.013803999999965
 42
0.4142135623730927
 10
342.07930599999997
 20
92.246037999999984
 10
342.07930599999997
 20
92.246037999999984
 10
342.07930599999992
 20
92.246038000000055
 42
-0.4142135623730597
 10
342.07930599999997
 20
94.013804000000022
 10
342.07930599999997
 20
94.013804000000022
 42
-0.4142135623730998
 10
343.84707199999997
 20
94.013803999999993
  0
ATTDEF
  5
17D
100
AcDbEntity
  8
一般
 62
               0
100
AcDbText
 10
341.088189
 20
83.344920999999985
 30
0.0
 40
4.2333333333333325
  1
M2.5
100
AcDbAttributeDefinition
  3

  2
ネジの直径
 70
               1
  0
ATTDEF
  5
17E
100
AcDbEntity
  8
一般
 62
               0
100
AcDbText
 10
341.088189
 20
75.724920999999981
 30
0.0
 40
4.2333333333333325
  1
6.911 mm
100
AcDbAttributeDefinition
  3

  2
直径
 70
               1
  0
ENDBLK
  5
17F
100
AcDbEntity
  8
一般
100
AcDbBlockEnd
  0
BLOCK
  5
180
100
AcDbEntity
  8
一般
100
AcDbBlockBegin
  2
六咳オィエ_廟面図_430
 70
               2
 10
0.0
 20
0.0
 30
0.0
  3
六咳オィエ_廟面図_430
  1

  0
LWPOLYLINE
  5
181
100
AcDbEntity
  8
0
370
              15
  6
Continuous
 62
               7
100
AcDbPolyline
 90
       10
 70
             129
 10
365.12559100000004
 20
93.129920999999996
 10
365.12559100000004
 20
93.129920999999996
 42
-0.4142135623731046
 10
366.00059100000004
 20
94.004920999999996
 10
366.00059100000004
 20
94.004920999999996
 42
-0.4142135623730761
 10
366.87559100000004
 20
93.129920999999996
 10
366.87559100000004
 20
93.129920999999996
 10
366.87559100000004
 20
93.129920999999996
 42
-0.4142135623730855
 10
366.00059100000004
 20
92.254920999999996
 10
366.00059100000004
 20
92.254920999999996
 42
-0.4142135623731141
 10
365.12559100000004
 20
93.129920999999996
  0
LWPOLYLINE
  5
182
100
AcDbEntity
  8
0
370
              15
  6
Continuous
 62
               7
100
AcDbPolyline
 90
        5
 70
             128
 10
364.12559100000004
 20
93.129920999999996
 42
-0.4142135623730995
 10
366.00059100000004
 20
95.004920999999996
 10
366.00059100000004
 20
95.004920999999996
 42
-0.4142135623730862
 10
367.87559100000004
 20
93.129920999999996
 10
367.87559100000004
 20
93.129920999999996
  0
LWPOLYLINE
  5
183
100
AcDbEntity
  8
0
370
              15
  6
Continuous
 62
               7
100
AcDbPolyline
 90
        5
 70
             128
 10
364.12559100000004
 20
93.129920999999996
 42
0.4142135623731039
 10
366.00059100000004
 20
91.254920999999996
 10
366.00059100000004
 20
91.254920999999996
 42
0.4142135623730906
 10
367.87559100000004
 20
93.129920999999996
 10
367.87559100000004
 20
93.129920999999996
  0
LWPOLYLINE
  5
184
100
AcDbEntity
  8
0
370
              15
  6
Continuous
 62
               7
100
AcDbPolyline
 90
        6
 70
             129
 10
366.00059100000004
 20
95.294921000000002
 10
364.12559100000004
 20
94.212420999999992
 10
364.12559100000004
 20
92.047421
 10
366.00059100000004
 20
90.96492099999999
 10
367.87559100000004
 20
92.047421
 10
367.87559100000004
 20
94.212420999999992
  0
LWPOLYLINE
  5
185
100
AcDbEntity
  8
0
370
              15
  6
Continuous
 62
               7
100
AcDbPolyline
 90
       20
 70
             129
 10
366.88447400000001
 20
94.013803999999993
 10
366.88447400000001
 20
94.013803999999993
 42
-0.4142135623731186
 10
366.88447400000001
 20
92.246038000000027
 10
366.88447400000001
 20
92.246038000000027
 42
-0.414213562373088
 10
365.11670800000002
 20
92.246037999999984
 10
365.11670800000002
 20
92.246037999999984
 10
365.11670800000013
 20
92.246037999999842
 42
0.4142135623730809
 10
366.88447400000007
 20
92.24603799999997
 10
366.88447400000013
 20
92.246038000000098
 42
0.414213562373102
 10
366.88447400000001
 20
94.013803999999993
 10
366.88447400000001
 20
94.013803999999993
 10
366.88447400000001
 20
94.013803999999993
 42
0.4142135623731186
 10
365.11670800000007
 20
94.013803999999965
 10
365.11670800000007
 20
94.013803999999965
 42
0.4142135623730927
 10
365.11670800000002
 20
92.246037999999984
 10
365.11670800000002
 20
92.246037999999984
 10
365.11670800000002
 20
92.246037999999984
 42
-0.4142135623730738
 10
365.11670800000002
 20
94.013804000000022
 10
365.11670800000002
 20
94.013804000000022
 42
-0.4142135623730998
 10
366.88447400000001
 20
94.013803999999993
  0
ATTDEF
  5
186
100
AcDbEntity
  8
一般
 62
               0
100
AcDbText
 10
364.12559100000004
 20
83.344920999999985
 30
0.0
 40
4.2333333333333325
  1
M2.5
100
AcDbAttributeDefinition
  3

  2
ネジの直径
 70
               1
  0
ATTDEF
  5
187
100
AcDbEntity
  8
一般
 62
               0
100
AcDbText
 10
364.12559100000004
 20
75.724920999999981
 30
0.0
 40
4.2333333333333325
  1
6.911 mm
100
AcDbAttributeDefinition
  3

  2
直径
 70
               1
  0
ENDBLK
  5
188
100
AcDbEntity
  8
一般
100
AcDbBlockEnd
  0
BLOCK
  5
189
100
AcDbEntity
  8
一般
100
AcDbBlockBegin
  2
六咳オィエ_廟面図_446
 70
               2
 10
0.0
 20
0.0
 30
0.0
  3
六咳オィエ_廟面図_446
  1

  0
LWPOLYLINE
  5
18A
100
AcDbEntity
  8
0
370
              15
  6
Continuous
 62
               7
100
AcDbPolyline
 90
       10
 70
             129
 10
304.73818899999998
 20
93.129920999999996
 10
304.73818899999998
 20
93.129920999999996
 42
-0.4142135623731046
 10
305.61318899999998
 20
94.004920999999996
 10
305.61318899999998
 20
94.004920999999996
 42
-0.414213562373095
 10
306.48818899999998
 20
93.129920999999996
 10
306.48818899999998
 20
93.129920999999996
 10
306.48818899999998
 20
93.129920999999996
 42
-0.4142135623730855
 10
305.61318899999998
 20
92.254920999999996
 10
305.61318899999998
 20
92.254920999999996
 42
-0.414213562373095
 10
304.73818899999998
 20
93.129920999999996
  0
LWPOLYLINE
  5
18B
100
AcDbEntity
  8
0
370
              15
  6
Continuous
 62
               7
100
AcDbPolyline
 90
        5
 70
             128
 10
303.73818899999998
 20
93.129920999999996
 42
-0.4142135623730995
 10
305.61318899999998
 20
95.004920999999996
 10
305.61318899999998
 20
95.004920999999996
 42
-0.414213562373095
 10
307.48818899999998
 20
93.129920999999996
 10
307.48818899999998
 20
93.129920999999996
  0
LWPOLYLINE
  5
18C
100
AcDbEntity
  8
0
370
              15
  6
Continuous
 62
               7
100
AcDbPolyline
 90
        5
 70
             128
 10
303.73818899999998
 20
93.129920999999996
 42
0.414213562373095
 10
305.61318899999998
 20
91.254920999999996
 10
305.61318899999998
 20
91.254920999999996
 42
0.4142135623730906
 10
307.48818899999998
 20
93.129920999999996
 10
307.48818899999998
 20
93.129920999999996
  0
LWPOLYLINE
  5
18D
100
AcDbEntity
  8
0
370
              15
  6
Continuous
 62
               7
100
AcDbPolyline
 90
        6
 70
             129
 10
305.61318899999998
 20
95.294921000000002
 10
303.73818899999998
 20
94.212420999999992
 10
303.73818899999998
 20
92.047421
 10
305.61318899999998
 20
90.96492099999999
 10
307.48818899999998
 20
92.047421
 10
307.48818899999998
 20
94.212420999999992
  0
LWPOLYLINE
  5
18E
100
AcDbEntity
  8
0
370
              15
  6
Continuous
 62
               7
100
AcDbPolyline
 90
       20
 70
             129
 10
306.497072
 20
94.013803999999993
 10
306.497072
 20
94.013803999999993
 42
-0.4142135623731186
 10
306.49707199999995
 20
92.24603799999997
 10
306.49707199999995
 20
92.24603799999997
 42
-0.4142135623730974
 10
304.72930599999995
 20
92.246037999999984
 10
304.72930599999995
 20
92.246037999999984
 10
304.72930600000001
 20
92.246037999999942
 42
0.414213562373095
 10
306.497072
 20
92.24603799999997
 10
306.497072
 20
92.24603799999997
 42
0.4142135623731091
 10
306.497072
 20
94.013803999999993
 10
306.497072
 20
94.013803999999993
 10
306.497072
 20
94.013803999999993
 42
0.4142135623730998
 10
304.72930600000001
 20
94.013804000000022
 10
304.72930600000001
 20
94.013804000000022
 42
0.4142135623730833
 10
304.72930599999995
 20
92.246037999999984
 10
304.72930599999995
 20
92.246037999999984
 10
304.72930599999995
 20
92.246037999999984
 42
-0.4142135623730738
 10
304.72930599999995
 20
94.013804000000022
 10
304.72930599999995
 20
94.013804000000007
 42
-0.4142135623731022
 10
306.497072
 20
94.013803999999993
  0
ATTDEF
  5
18F
100
AcDbEntity
  8
一般
 62
               0
100
AcDbText
 10
303.73818899999998
 20
83.344920999999985
 30
0.0
 40
4.2333333333333325
  1
M2.5
100
AcDbAttributeDefinition
  3

  2
ネジの直径
 70
               1
  0
ATTDEF
  5
190
100
AcDbEntity
  8
一般
 62
               0
100
AcDbText
 10
303.73818899999998
 20
75.724920999999981
 30
0.0
 40
4.2333333333333325
  1
6.911 mm
100
AcDbAttributeDefinition
  3

  2
直径
 70
               1
  0
ENDBLK
  5
191
100
AcDbEntity
  8
一般
100
AcDbBlockEnd
  0
BLOCK
  5
192
100
AcDbEntity
  8
一般
100
AcDbBlockBegin
  2
六咳オィエ_廟面図_450
 70
               2
 10
0.0
 20
0.0
 30
0.0
  3
六咳オィエ_廟面図_450
  1

  0
LWPOLYLINE
  5
193
100
AcDbEntity
  8
0
370
              15
  6
Continuous
 62
               7
100
AcDbPolyline
 90
       10
 70
             129
 10
327.77559100000002
 20
93.129920999999996
 10
327.77559100000002
 20
93.129920999999996
 42
-0.4142135623731046
 10
328.65059100000002
 20
94.004920999999996
 10
328.65059100000002
 20
94.004920999999996
 42
-0.414213562373095
 10
329.52559100000002
 20
93.129920999999996
 10
329.52559100000002
 20
93.129920999999996
 10
329.52559100000002
 20
93.129920999999996
 42
-0.4142135623730855
 10
328.65059100000002
 20
92.254920999999996
 10
328.65059100000002
 20
92.254920999999996
 42
-0.414213562373095
 10
327.77559100000002
 20
93.129920999999996
  0
LWPOLYLINE
  5
194
100
AcDbEntity
  8
0
370
              15
  6
Continuous
 62
               7
100
AcDbPolyline
 90
        5
 70
             128
 10
326.77559100000002
 20
93.129920999999996
 42
-0.4142135623730995
 10
328.65059100000002
 20
95.004920999999996
 10
328.65059100000002
 20
95.004920999999996
 42
-0.414213562373095
 10
330.52559100000002
 20
93.129920999999996
 10
330.52559100000002
 20
93.129920999999996
  0
LWPOLYLINE
  5
195
100
AcDbEntity
  8
0
370
              15
  6
Continuous
 62
               7
100
AcDbPolyline
 90
        5
 70
             128
 10
326.77559100000002
 20
93.129920999999996
 42
0.414213562373095
 10
328.65059100000002
 20
91.254920999999996
 10
328.65059100000002
 20
91.254920999999996
 42
0.4142135623730906
 10
330.52559100000002
 20
93.129920999999996
 10
330.52559100000002
 20
93.129920999999996
  0
LWPOLYLINE
  5
196
100
AcDbEntity
  8
0
370
              15
  6
Continuous
 62
               7
100
AcDbPolyline
 90
        6
 70
             129
 10
328.65059100000002
 20
95.294921000000002
 10
326.77559100000002
 20
94.212420999999992
 10
326.77559100000002
 20
92.047421
 10
328.65059100000002
 20
90.96492099999999
 10
330.52559100000002
 20
92.047421
 10
330.52559100000002
 20
94.212420999999992
  0
LWPOLYLINE
  5
197
100
AcDbEntity
  8
0
370
              15
  6
Continuous
 62
               7
100
AcDbPolyline
 90
       20
 70
             129
 10
329.53447400000005
 20
94.013803999999993
 10
329.53447400000005
 20
94.013803999999993
 42
-0.4142135623731186
 10
329.53447399999999
 20
92.24603799999997
 10
329.53447399999999
 20
92.24603799999997
 42
-0.4142135623730974
 10
327.76670799999999
 20
92.246037999999984
 10
327.76670799999999
 20
92.246037999999984
 10
327.76670800000005
 20
92.246037999999885
 42
0.4142135623730762
 10
329.53447400000005
 20
92.24603799999997
 10
329.53447400000005
 20
92.24603799999997
 42
0.4142135623731091
 10
329.53447400000005
 20
94.013803999999993
 10
329.53447400000005
 20
94.013803999999993
 10
329.53447400000005
 20
94.013803999999993
 42
0.4142135623730998
 10
327.76670800000005
 20
94.013804000000022
 10
327.76670799999999
 20
94.013803999999951
 42
0.4142135623730879
 10
327.76670799999999
 20
92.246037999999984
 10
327.76670799999999
 20
92.246037999999984
 10
327.76670799999999
 20
92.246037999999984
 42
-0.4142135623730738
 10
327.76670799999999
 20
94.013804000000022
 10
327.76670799999999
 20
94.013804000000007
 42
-0.4142135623731022
 10
329.53447400000005
 20
94.013803999999993
  0
ATTDEF
  5
198
100
AcDbEntity
  8
一般
 62
               0
100
AcDbText
 10
326.77559100000002
 20
83.344920999999985
 30
0.0
 40
4.2333333333333325
  1
M2.5
100
AcDbAttributeDefinition
  3

  2
ネジの直径
 70
               1
  0
ATTDEF
  5
199
100
AcDbEntity
  8
一般
 62
               0
100
AcDbText
 10
326.77559100000002
 20
75.724920999999981
 30
0.0
 40
4.2333333333333325
  1
6.911 mm
100
AcDbAttributeDefinition
  3

  2
直径
 70
               1
  0
ENDBLK
  5
19A
100
AcDbEntity
  8
一般
100
AcDbBlockEnd
  0
BLOCK
  5
19B
100
AcDbEntity
  8
一般
100
AcDbBlockBegin
  2
円_459
 70
               0
 10
0.0
 20
0.0
 30
0.0
  3
円_459
  1

  0
LWPOLYLINE
  5
19C
100
AcDbEntity
  8
0
370
              15
  6
Continuous
 62
               7
100
AcDbPolyline
 90
       10
 70
             129
 10
314.28385799999995
 20
108.202264
 10
314.28385799999995
 20
108.202264
 42
-0.4142135623730966
 10
317.03385799999995
 20
110.952264
 10
317.03385799999995
 20
110.952264
 42
-0.414213562373095
 10
319.78385799999995
 20
108.202264
 10
319.78385799999995
 20
108.202264
 10
319.78385799999995
 20
108.202264
 42
-0.4142135623730935
 10
317.03385799999995
 20
105.452264
 10
317.03385799999995
 20
105.452264
 42
-0.414213562373095
 10
314.28385799999995
 20
108.202264
  0
LWPOLYLINE
  5
19D
100
AcDbEntity
  8
0
370
              15
  6
Continuous
 62
               7
100
AcDbPolyline
 90
       10
 70
             129
 10
315.08129599999995
 20
108.202264
 10
315.08129599999995
 20
108.202264
 42
-0.4142135623730887
 10
317.03385799999995
 20
110.154826
 10
317.03385799999995
 20
110.154826
 42
-0.4142135623731035
 10
318.98641999999995
 20
108.202264
 10
318.98641999999995
 20
108.202264
 10
318.98641999999995
 20
108.202264
 42
-0.4142135623730929
 10
317.03385799999995
 20
106.249702
 10
317.03385799999995
 20
106.249702
 42
-0.414213562373095
 10
315.08129599999995
 20
108.202264
  0
ENDBLK
  5
19E
100
AcDbEntity
  8
一般
100
AcDbBlockEnd
  0
BLOCK
  5
19F
100
AcDbEntity
  8
一般
100
AcDbBlockBegin
  2
円_460
 70
               0
 10
0.0
 20
0.0
 30
0.0
  3
円_460
  1

  0
LWPOLYLINE
  5
1A0
100
AcDbEntity
  8
0
370
              15
  6
Continuous
 62
               7
100
AcDbPolyline
 90
       10
 70
             129
 10
352.02598399999999
 20
107.71210600000001
 10
352.02598399999999
 20
107.71210600000001
 42
-0.414213562373095
 10
354.77598399999999
 20
110.46210600000001
 10
354.77598399999999
 20
110.46210600000001
 42
-0.414213562373095
 10
357.52598399999999
 20
107.71210600000001
 10
357.52598399999999
 20
107.71210600000001
 10
357.52598399999999
 20
107.71210600000001
 42
-0.414213562373095
 10
354.77598399999999
 20
104.96210600000001
 10
354.77598399999999
 20
104.96210600000001
 42
-0.414213562373095
 10
352.02598399999999
 20
107.71210600000001
  0
LWPOLYLINE
  5
1A1
100
AcDbEntity
  8
0
370
              15
  6
Continuous
 62
               7
100
AcDbPolyline
 90
       10
 70
             129
 10
352.82342199999999
 20
107.71210600000001
 10
352.82342199999999
 20
107.71210600000001
 42
-0.4142135623731035
 10
354.77598399999999
 20
109.66466800000001
 10
354.77598399999999
 20
109.66466800000001
 42
-0.414213562373095
 10
356.72854599999999
 20
107.71210600000001
 10
356.72854599999999
 20
107.71210600000001
 10
356.72854599999999
 20
107.71210600000001
 42
-0.4142135623731035
 10
354.77598399999999
 20
105.75954400000001
 10
354.77598399999999
 20
105.75954400000001
 42
-0.414213562373095
 10
352.82342199999999
 20
107.71210600000001
  0
ENDBLK
  5
1A2
100
AcDbEntity
  8
一般
100
AcDbBlockEnd
  0
BLOCK
  5
1A3
100
AcDbEntity
  8
寸法
100
AcDbBlockBegin
  2
*D39
 70
               1
 10
0.0
 20
0.0
 30
0.0
  3
*D39
  1

  0
LINE
  5
1A4
100
AcDbEntity
  8
寸法
370
              -2
  6
Continuous
 62
               0
100
AcDbLine
 10
17.0
 20
180.32222200000001
 30
0.0
 11
-22.999999999999261
 21
180.32222200000001
 31
0.0
  0
LINE
  5
1A5
100
AcDbEntity
  8
寸法
370
              -2
  6
Continuous
 62
               0
100
AcDbLine
 10
33.0
 20
414.32222200000001
 30
0.0
 11
-22.999999999999261
 21
414.32222200000001
 31
0.0
  0
LINE
  5
1A6
100
AcDbEntity
  8
寸法
370
              -2
  6
Continuous
 62
               0
100
AcDbLine
 10
-19.0
 20
180.32222200000001
 30
0.0
 11
-19.0
 21
414.32222200000001
 31
0.0
  0
SOLID
  5
1A7
100
AcDbEntity
  8
寸法
370
              -2
 62
               0
100
AcDbTrace
 10
-19.0
 20
180.32222200000001
 30
0.0
 11
-20.701477371937642
 21
186.672222
 31
0.0
 12
-17.298522628062358
 22
186.672222
 32
0.0
 13
-17.298522628062358
 23
186.672222
 33
0.0
  0
SOLID
  5
1A8
100
AcDbEntity
  8
寸法
370
              -2
 62
               0
100
AcDbTrace
 10
-19.0
 20
414.32222200000001
 30
0.0
 11
-17.298522628062358
 21
407.97222199999999
 31
0.0
 12
-20.701477371937642
 22
407.97222199999999
 32
0.0
 13
-20.701477371937642
 23
407.97222199999999
 33
0.0
  0
MTEXT
  5
1A9
100
AcDbEntity
  8
寸法
 62
               0
100
AcDbMText
 10
-29.466666666668857
 20
290.46422248446657
 30
0.0
 40
6.7733333333333325
 41
0.0
 71
               1
 72
               1
  1
234
  7
HGSｺﾞｼｯｸE
 11
0.0
 21
1.0
 31
0.0
 73
               1
 44
1.0
  0
POINT
  5
1AA
100
AcDbEntity
  8
Defpoints
370
               0
 62
               0
100
AcDbPoint
 10
33.0
 20
414.32222200000001
 30
0.0
  0
POINT
  5
1AB
100
AcDbEntity
  8
Defpoints
370
               0
 62
               0
100
AcDbPoint
 10
17.0
 20
180.32222200000001
 30
0.0
  0
POINT
  5
1AC
100
AcDbEntity
  8
Defpoints
370
               0
 62
               0
100
AcDbPoint
 10
-19.0
 20
180.32222200000001
 30
0.0
  0
ENDBLK
  5
1AD
100
AcDbEntity
  8
寸法
100
AcDbBlockEnd
  0
BLOCK
  5
1AE
100
AcDbEntity
  8
寸法
100
AcDbBlockBegin
  2
*D40
 70
               1
 10
0.0
 20
0.0
 30
0.0
  3
*D40
  1

  0
LINE
  5
1AF
100
AcDbEntity
  8
寸法
370
              -2
  6
Continuous
 62
               0
100
AcDbLine
 10
48.824999999999989
 20
390.32222200000001
 30
0.0
 11
6.6499999999999773
 21
390.32222200000001
 31
0.0
  0
LINE
  5
1B0
100
AcDbEntity
  8
寸法
370
              -2
  6
Continuous
 62
               0
100
AcDbLine
 10
48.824999999999989
 20
230.32222200000001
 30
0.0
 11
6.6499999999999773
 21
230.32222200000001
 31
0.0
  0
LINE
  5
1B1
100
AcDbEntity
  8
寸法
370
              -2
  6
Continuous
 62
               0
100
AcDbLine
 10
13.0
 20
393.49722200000002
 30
0.0
 11
13.0
 21
390.32222200000001
 31
0.0
  0
LINE
  5
1B2
100
AcDbEntity
  8
寸法
370
              -2
  6
Continuous
 62
               0
100
AcDbLine
 10
13.0
 20
230.32222200000001
 30
0.0
 11
13.0
 21
227.147222
 31
0.0
  0
LINE
  5
1B3
100
AcDbEntity
  8
寸法
370
              -2
  6
Continuous
 62
               0
100
AcDbLine
 10
13.0
 20
390.32222200000001
 30
0.0
 11
13.0
 21
230.32222200000001
 31
0.0
  0
LINE
  5
1B4
100
AcDbEntity
  8
寸法
370
              20
  6
Continuous
 62
               0
100
AcDbLine
 10
15.245064030267315
 20
388.07715796973275
 30
0.0
 11
10.754935969732685
 21
392.56728603026727
 31
0.0
  0
LINE
  5
1B5
100
AcDbEntity
  8
寸法
370
              20
  6
Continuous
 62
               0
100
AcDbLine
 10
10.754935969732685
 20
232.5672860302673
 30
0.0
 11
15.245064030267315
 21
228.07715796973272
 31
0.0
  0
MTEXT
  5
1B6
100
AcDbEntity
  8
寸法
 62
               0
100
AcDbMText
 10
1.3583333333332916
 20
303.46422248446657
 30
0.0
 40
6.7733333333333325
 41
0.0
 71
               1
 72
               1
  1
160
  7
HGSｺﾞｼｯｸE
 11
0.0
 21
1.0
 31
0.0
 73
               1
 44
1.0
  0
POINT
  5
1B7
100
AcDbEntity
  8
Defpoints
370
               0
 62
               0
100
AcDbPoint
 10
52.0
 20
230.32222200000001
 30
0.0
  0
POINT
  5
1B8
100
AcDbEntity
  8
Defpoints
370
               0
 62
               0
100
AcDbPoint
 10
52.0
 20
390.32222200000001
 30
0.0
  0
POINT
  5
1B9
100
AcDbEntity
  8
Defpoints
370
               0
 62
               0
100
AcDbPoint
 10
13.0
 20
390.32222200000001
 30
0.0
  0
ENDBLK
  5
1BA
100
AcDbEntity
  8
寸法
100
AcDbBlockEnd
  0
BLOCK
  5
1BB
100
AcDbEntity
  8
寸法
100
AcDbBlockBegin
  2
*D41
 70
               1
 10
0.0
 20
0.0
 30
0.0
  3
*D41
  1

  0
LINE
  5
1BC
100
AcDbEntity
  8
寸法
370
              -2
  6
Continuous
 62
               0
100
AcDbLine
 10
40.0
 20
423.0
 30
0.0
 11
40.0
 21
456.9999999999992
 31
0.0
  0
LINE
  5
1BD
100
AcDbEntity
  8
寸法
370
              -2
  6
Continuous
 62
               0
100
AcDbLine
 10
474.0
 20
423.0
 30
0.0
 11
474.0
 21
456.9999999999992
 31
0.0
  0
LINE
  5
1BE
100
AcDbEntity
  8
寸法
370
              -2
  6
Continuous
 62
               0
100
AcDbLine
 10
40.0
 20
453.0
 30
0.0
 11
474.0
 21
453.0
 31
0.0
  0
SOLID
  5
1BF
100
AcDbEntity
  8
寸法
370
              -2
 62
               0
100
AcDbTrace
 10
40.0
 20
453.0
 30
0.0
 11
46.349999999999994
 21
454.70147737193764
 31
0.0
 12
46.349999999999994
 22
451.29852262806236
 32
0.0
 13
46.349999999999994
 23
451.29852262806236
 33
0.0
  0
SOLID
  5
1C0
100
AcDbEntity
  8
寸法
370
              -2
 62
               0
100
AcDbTrace
 10
474.0
 20
453.0
 30
0.0
 11
467.64999999999998
 21
451.29852262806236
 31
0.0
 12
467.64999999999998
 22
454.70147737193764
 32
0.0
 13
467.64999999999998
 23
454.70147737193764
 33
0.0
  0
MTEXT
  5
1C1
100
AcDbEntity
  8
寸法
 62
               0
100
AcDbMText
 10
250.14200048446656
 20
463.46666666666886
 30
0.0
 40
6.7733333333333325
 41
0.0
 71
               1
 72
               1
  1
434
  7
HGSｺﾞｼｯｸE
 73
               1
 44
1.0
  0
POINT
  5
1C2
100
AcDbEntity
  8
Defpoints
370
               0
 62
               0
100
AcDbPoint
 10
474.0
 20
423.0
 30
0.0
  0
POINT
  5
1C3
100
AcDbEntity
  8
Defpoints
370
               0
 62
               0
100
AcDbPoint
 10
40.0
 20
423.0
 30
0.0
  0
POINT
  5
1C4
100
AcDbEntity
  8
Defpoints
370
               0
 62
               0
100
AcDbPoint
 10
40.0
 20
453.0
 30
0.0
  0
ENDBLK
  5
1C5
100
AcDbEntity
  8
寸法
100
AcDbBlockEnd
  0
BLOCK
  5
1C6
100
AcDbEntity
  8
寸法
100
AcDbBlockBegin
  2
*D42
 70
               1
 10
0.0
 20
0.0
 30
0.0
  3
*D42
  1

  0
LINE
  5
1C7
100
AcDbEntity
  8
寸法
370
              -2
  6
Continuous
 62
               0
100
AcDbLine
 10
61.5
 20
395.82222200000001
 30
0.0
 11
61.5
 21
437.9999999999992
 31
0.0
  0
LINE
  5
1C8
100
AcDbEntity
  8
寸法
370
              -2
  6
Continuous
 62
               0
100
AcDbLine
 10
169.5
 20
395.82222200000001
 30
0.0
 11
169.5
 21
437.9999999999992
 31
0.0
  0
LINE
  5
1C9
100
AcDbEntity
  8
寸法
370
              -2
  6
Continuous
 62
               0
100
AcDbLine
 10
61.5
 20
434.0
 30
0.0
 11
169.5
 21
434.0
 31
0.0
  0
SOLID
  5
1CA
100
AcDbEntity
  8
寸法
370
              -2
 62
               0
100
AcDbTrace
 10
61.5
 20
434.0
 30
0.0
 11
67.849999999999994
 21
435.70147737193764
 31
0.0
 12
67.849999999999994
 22
432.29852262806236
 32
0.0
 13
67.849999999999994
 23
432.29852262806236
 33
0.0
  0
SOLID
  5
1CB
100
AcDbEntity
  8
寸法
370
              -2
 62
               0
100
AcDbTrace
 10
169.5
 20
434.0
 30
0.0
 11
163.15000000000001
 21
432.29852262806236
 31
0.0
 12
163.15000000000001
 22
435.70147737193764
 32
0.0
 13
163.15000000000001
 23
435.70147737193764
 33
0.0
  0
MTEXT
  5
1CC
100
AcDbEntity
  8
寸法
 62
               0
100
AcDbMText
 10
108.64200048446656
 20
444.46666666666886
 30
0.0
 40
6.7733333333333325
 41
0.0
 71
               1
 72
               1
  1
108
  7
HGSｺﾞｼｯｸE
 73
               1
 44
1.0
  0
POINT
  5
1CD
100
AcDbEntity
  8
Defpoints
370
               0
 62
               0
100
AcDbPoint
 10
169.5
 20
395.82222200000001
 30
0.0
  0
POINT
  5
1CE
100
AcDbEntity
  8
Defpoints
370
               0
 62
               0
100
AcDbPoint
 10
61.5
 20
395.82222200000001
 30
0.0
  0
POINT
  5
1CF
100
AcDbEntity
  8
Defpoints
370
               0
 62
               0
100
AcDbPoint
 10
61.5
 20
434.0
 30
0.0
  0
ENDBLK
  5
1D0
100
AcDbEntity
  8
寸法
100
AcDbBlockEnd
  0
BLOCK
  5
1D1
100
AcDbEntity
  8
寸法
100
AcDbBlockBegin
  2
*D43
 70
               1
 10
0.0
 20
0.0
 30
0.0
  3
*D43
  1

  0
LINE
  5
1D2
100
AcDbEntity
  8
寸法
370
              -2
  6
Continuous
 62
               0
100
AcDbLine
 10
169.5
 20
398.99722200000002
 30
0.0
 11
169.5
 21
437.9999999999992
 31
0.0
  0
LINE
  5
1D3
100
AcDbEntity
  8
寸法
370
              -2
  6
Continuous
 62
               0
100
AcDbLine
 10
236.5
 20
398.99722200000002
 30
0.0
 11
236.5
 21
437.9999999999992
 31
0.0
  0
LINE
  5
1D4
100
AcDbEntity
  8
寸法
370
              -2
  6
Continuous
 62
               0
100
AcDbLine
 10
169.5
 20
434.0
 30
0.0
 11
236.5
 21
434.0
 31
0.0
  0
SOLID
  5
1D5
100
AcDbEntity
  8
寸法
370
              -2
 62
               0
100
AcDbTrace
 10
169.5
 20
434.0
 30
0.0
 11
175.84999999999999
 21
435.70147737193764
 31
0.0
 12
175.84999999999999
 22
432.29852262806236
 32
0.0
 13
175.84999999999999
 23
432.29852262806236
 33
0.0
  0
SOLID
  5
1D6
100
AcDbEntity
  8
寸法
370
              -2
 62
               0
100
AcDbTrace
 10
236.5
 20
434.0
 30
0.0
 11
230.15000000000001
 21
432.29852262806236
 31
0.0
 12
230.15000000000001
 22
435.70147737193764
 32
0.0
 13
230.15000000000001
 23
435.70147737193764
 33
0.0
  0
MTEXT
  5
1D7
100
AcDbEntity
  8
寸法
 62
               0
100
AcDbMText
 10
198.4279999865426
 20
444.46666666666886
 30
0.0
 40
6.7733333333333325
 41
0.0
 71
               1
 72
               1
  1
67
  7
HGSｺﾞｼｯｸE
 73
               1
 44
1.0
  0
POINT
  5
1D8
100
AcDbEntity
  8
Defpoints
370
               0
 62
               0
100
AcDbPoint
 10
236.5
 20
398.99722200000002
 30
0.0
  0
POINT
  5
1D9
100
AcDbEntity
  8
Defpoints
370
               0
 62
               0
100
AcDbPoint
 10
169.5
 20
398.99722200000002
 30
0.0
  0
POINT
  5
1DA
100
AcDbEntity
  8
Defpoints
370
               0
 62
               0
100
AcDbPoint
 10
169.5
 20
434.0
 30
0.0
  0
ENDBLK
  5
1DB
100
AcDbEntity
  8
寸法
100
AcDbBlockEnd
  0
BLOCK
  5
1DC
100
AcDbEntity
  8
寸法
100
AcDbBlockBegin
  2
*D44
 70
               1
 10
0.0
 20
0.0
 30
0.0
  3
*D44
  1

  0
LINE
  5
1DD
100
AcDbEntity
  8
寸法
370
              -2
  6
Continuous
 62
               0
100
AcDbLine
 10
236.5
 20
400.0
 30
0.0
 11
236.5
 21
437.9999999999992
 31
0.0
  0
LINE
  5
1DE
100
AcDbEntity
  8
寸法
370
              -2
  6
Continuous
 62
               0
100
AcDbLine
 10
277.5
 20
400.0
 30
0.0
 11
277.5
 21
437.9999999999992
 31
0.0
  0
LINE
  5
1DF
100
AcDbEntity
  8
寸法
370
              -2
  6
Continuous
 62
               0
100
AcDbLine
 10
236.5
 20
434.0
 30
0.0
 11
277.5
 21
434.0
 31
0.0
  0
SOLID
  5
1E0
100
AcDbEntity
  8
寸法
370
              -2
 62
               0
100
AcDbTrace
 10
236.5
 20
434.0
 30
0.0
 11
242.84999999999999
 21
435.70147737193764
 31
0.0
 12
242.84999999999999
 22
432.29852262806236
 32
0.0
 13
242.84999999999999
 23
432.29852262806236
 33
0.0
  0
SOLID
  5
1E1
100
AcDbEntity
  8
寸法
370
              -2
 62
               0
100
AcDbTrace
 10
277.5
 20
434.0
 30
0.0
 11
271.14999999999998
 21
432.29852262806236
 31
0.0
 12
271.14999999999998
 22
435.70147737193764
 32
0.0
 13
271.14999999999998
 23
435.70147737193764
 33
0.0
  0
MTEXT
  5
1E2
100
AcDbEntity
  8
寸法
 62
               0
100
AcDbMText
 10
252.4279999865426
 20
444.46666666666886
 30
0.0
 40
6.7733333333333325
 41
0.0
 71
               1
 72
               1
  1
41
  7
HGSｺﾞｼｯｸE
 73
               1
 44
1.0
  0
POINT
  5
1E3
100
AcDbEntity
  8
Defpoints
370
               0
 62
               0
100
AcDbPoint
 10
277.5
 20
400.0
 30
0.0
  0
POINT
  5
1E4
100
AcDbEntity
  8
Defpoints
370
               0
 62
               0
100
AcDbPoint
 10
236.5
 20
400.0
 30
0.0
  0
POINT
  5
1E5
100
AcDbEntity
  8
Defpoints
370
               0
 62
               0
100
AcDbPoint
 10
236.5
 20
434.0
 30
0.0
  0
ENDBLK
  5
1E6
100
AcDbEntity
  8
寸法
100
AcDbBlockEnd
  0
BLOCK
  5
1E7
100
AcDbEntity
  8
寸法
100
AcDbBlockBegin
  2
*D45
 70
               1
 10
0.0
 20
0.0
 30
0.0
  3
*D45
  1

  0
LINE
  5
1E8
100
AcDbEntity
  8
寸法
370
              -2
  6
Continuous
 62
               0
100
AcDbLine
 10
277.5
 20
400.0
 30
0.0
 11
277.5
 21
437.9999999999992
 31
0.0
  0
LINE
  5
1E9
100
AcDbEntity
  8
寸法
370
              -2
  6
Continuous
 62
               0
100
AcDbLine
 10
344.5
 20
400.0
 30
0.0
 11
344.5
 21
437.9999999999992
 31
0.0
  0
LINE
  5
1EA
100
AcDbEntity
  8
寸法
370
              -2
  6
Continuous
 62
               0
100
AcDbLine
 10
277.5
 20
434.0
 30
0.0
 11
344.5
 21
434.0
 31
0.0
  0
SOLID
  5
1EB
100
AcDbEntity
  8
寸法
370
              -2
 62
               0
100
AcDbTrace
 10
277.5
 20
434.0
 30
0.0
 11
283.85000000000002
 21
435.70147737193764
 31
0.0
 12
283.85000000000002
 22
432.29852262806236
 32
0.0
 13
283.85000000000002
 23
432.29852262806236
 33
0.0
  0
SOLID
  5
1EC
100
AcDbEntity
  8
寸法
370
              -2
 62
               0
100
AcDbTrace
 10
344.5
 20
434.0
 30
0.0
 11
338.14999999999998
 21
432.29852262806236
 31
0.0
 12
338.14999999999998
 22
435.70147737193764
 32
0.0
 13
338.14999999999998
 23
435.70147737193764
 33
0.0
  0
MTEXT
  5
1ED
100
AcDbEntity
  8
寸法
 62
               0
100
AcDbMText
 10
306.4279999865426
 20
444.46666666666886
 30
0.0
 40
6.7733333333333325
 41
0.0
 71
               1
 72
               1
  1
67
  7
HGSｺﾞｼｯｸE
 73
               1
 44
1.0
  0
POINT
  5
1EE
100
AcDbEntity
  8
Defpoints
370
               0
 62
               0
100
AcDbPoint
 10
344.5
 20
400.0
 30
0.0
  0
POINT
  5
1EF
100
AcDbEntity
  8
Defpoints
370
               0
 62
               0
100
AcDbPoint
 10
277.5
 20
400.0
 30
0.0
  0
POINT
  5
1F0
100
AcDbEntity
  8
Defpoints
370
               0
 62
               0
100
AcDbPoint
 10
277.5
 20
434.0
 30
0.0
  0
ENDBLK
  5
1F1
100
AcDbEntity
  8
寸法
100
AcDbBlockEnd
  0
BLOCK
  5
1F2
100
AcDbEntity
  8
寸法
100
AcDbBlockBegin
  2
*D46
 70
               1
 10
0.0
 20
0.0
 30
0.0
  3
*D46
  1

  0
LINE
  5
1F3
100
AcDbEntity
  8
寸法
370
              -2
  6
Continuous
 62
               0
100
AcDbLine
 10
344.5
 20
400.0
 30
0.0
 11
344.5
 21
437.9999999999992
 31
0.0
  0
LINE
  5
1F4
100
AcDbEntity
  8
寸法
370
              -2
  6
Continuous
 62
               0
100
AcDbLine
 10
452.5
 20
400.0
 30
0.0
 11
452.5
 21
437.9999999999992
 31
0.0
  0
LINE
  5
1F5
100
AcDbEntity
  8
寸法
370
              -2
  6
Continuous
 62
               0
100
AcDbLine
 10
344.5
 20
434.0
 30
0.0
 11
452.5
 21
434.0
 31
0.0
  0
SOLID
  5
1F6
100
AcDbEntity
  8
寸法
370
              -2
 62
               0
100
AcDbTrace
 10
344.5
 20
434.0
 30
0.0
 11
350.85000000000002
 21
435.70147737193764
 31
0.0
 12
350.85000000000002
 22
432.29852262806236
 32
0.0
 13
350.85000000000002
 23
432.29852262806236
 33
0.0
  0
SOLID
  5
1F7
100
AcDbEntity
  8
寸法
370
              -2
 62
               0
100
AcDbTrace
 10
452.5
 20
434.0
 30
0.0
 11
446.14999999999998
 21
432.29852262806236
 31
0.0
 12
446.14999999999998
 22
435.70147737193764
 32
0.0
 13
446.14999999999998
 23
435.70147737193764
 33
0.0
  0
MTEXT
  5
1F8
100
AcDbEntity
  8
寸法
 62
               0
100
AcDbMText
 10
391.64200048446656
 20
444.46666666666886
 30
0.0
 40
6.7733333333333325
 41
0.0
 71
               1
 72
               1
  1
108
  7
HGSｺﾞｼｯｸE
 73
               1
 44
1.0
  0
POINT
  5
1F9
100
AcDbEntity
  8
Defpoints
370
               0
 62
               0
100
AcDbPoint
 10
452.5
 20
400.0
 30
0.0
  0
POINT
  5
1FA
100
AcDbEntity
  8
Defpoints
370
               0
 62
               0
100
AcDbPoint
 10
344.5
 20
400.0
 30
0.0
  0
POINT
  5
1FB
100
AcDbEntity
  8
Defpoints
370
               0
 62
               0
100
AcDbPoint
 10
344.5
 20
434.0
 30
0.0
  0
ENDBLK
  5
1FC
100
AcDbEntity
  8
寸法
100
AcDbBlockEnd
  0
BLOCK
  5
1FD
100
AcDbEntity
  8
寸法
100
AcDbBlockBegin
  2
*D47
 70
               1
 10
0.0
 20
0.0
 30
0.0
  3
*D47
  1

  0
LINE
  5
1FE
100
AcDbEntity
  8
寸法
370
              -2
  6
Continuous
 62
               0
100
AcDbLine
 10
485.0
 20
250.32222200000001
 30
0.0
 11
522.9999999999992
 21
250.32222200000001
 31
0.0
  0
LINE
  5
1FF
100
AcDbEntity
  8
寸法
370
              -2
  6
Continuous
 62
               0
100
AcDbLine
 10
502.0
 20
180.32222200000001
 30
0.0
 11
522.9999999999992
 21
180.32222200000001
 31
0.0
  0
LINE
  5
200
100
AcDbEntity
  8
寸法
370
              -2
  6
Continuous
 62
               0
100
AcDbLine
 10
519.0
 20
250.32222200000001
 30
0.0
 11
519.0
 21
180.32222200000001
 31
0.0
  0
SOLID
  5
201
100
AcDbEntity
  8
寸法
370
              -2
 62
               0
100
AcDbTrace
 10
519.0
 20
250.32222200000001
 30
0.0
 11
520.70147737193759
 21
243.97222200000002
 31
0.0
 12
517.2985226280623
 22
243.97222200000002
 32
0.0
 13
517.2985226280623
 23
243.97222200000002
 33
0.0
  0
SOLID
  5
202
100
AcDbEntity
  8
寸法
370
              -2
 62
               0
100
AcDbTrace
 10
519.0
 20
180.32222200000001
 30
0.0
 11
517.2985226280623
 21
186.672222
 31
0.0
 12
520.7014773719377
 22
186.672222
 32
0.0
 13
520.7014773719377
 23
186.672222
 33
0.0
  0
MTEXT
  5
203
100
AcDbEntity
  8
寸法
 62
               0
100
AcDbMText
 10
508.5333333333312
 20
210.75022198654261
 30
0.0
 40
6.7733333333333325
 41
0.0
 71
               1
 72
               1
  1
70
  7
HGSｺﾞｼｯｸE
 11
0.0
 21
1.0
 31
0.0
 73
               1
 44
1.0
  0
POINT
  5
204
100
AcDbEntity
  8
Defpoints
370
               0
 62
               0
100
AcDbPoint
 10
502.0
 20
180.32222200000001
 30
0.0
  0
POINT
  5
205
100
AcDbEntity
  8
Defpoints
370
               0
 62
               0
100
AcDbPoint
 10
485.0
 20
250.32222200000001
 30
0.0
  0
POINT
  5
206
100
AcDbEntity
  8
Defpoints
370
               0
 62
               0
100
AcDbPoint
 10
519.0
 20
250.32222200000001
 30
0.0
  0
ENDBLK
  5
207
100
AcDbEntity
  8
寸法
100
AcDbBlockEnd
  0
BLOCK
  5
208
100
AcDbEntity
  8
寸法
100
AcDbBlockBegin
  2
*D48
 70
               1
 10
0.0
 20
0.0
 30
0.0
  3
*D48
  1

  0
LINE
  5
209
100
AcDbEntity
  8
寸法
370
              -2
  6
Continuous
 62
               0
100
AcDbLine
 10
593.35441988381967
 20
415.32222200000001
 30
0.0
 11
593.35441988381967
 21
427.32222199999921
 31
0.0
  0
LINE
  5
20A
100
AcDbEntity
  8
寸法
370
              -2
  6
Continuous
 62
               0
100
AcDbLine
 10
585.35441988381967
 20
415.32222200000001
 30
0.0
 11
585.35441988381967
 21
427.32222199999921
 31
0.0
  0
LINE
  5
20B
100
AcDbEntity
  8
寸法
370
              -2
  6
Continuous
 62
               0
100
AcDbLine
 10
585.35441988381967
 20
423.32222200000001
 30
0.0
 11
593.35441988381967
 21
423.32222200000001
 31
0.0
  0
LINE
  5
20C
100
AcDbEntity
  8
寸法
370
              -2
  6
Continuous
 62
               0
100
AcDbLine
 10
593.35441988381967
 20
423.32222200000001
 30
0.0
 11
607.35441988381967
 21
423.32222200000001
 31
0.0
  0
SOLID
  5
20D
100
AcDbEntity
  8
寸法
370
              -2
 62
               0
100
AcDbTrace
 10
593.35441988381967
 20
423.32222200000001
 30
0.0
 11
599.70441988381981
 21
425.0236993719376
 31
0.0
 12
599.70441988381981
 22
421.62074462806231
 32
0.0
 13
599.70441988381981
 23
421.62074462806231
 33
0.0
  0
LINE
  5
20E
100
AcDbEntity
  8
寸法
370
              -2
  6
Continuous
 62
               0
100
AcDbLine
 10
585.35441988381967
 20
423.32222200000001
 30
0.0
 11
571.3544198838199
 21
423.32222200000001
 31
0.0
  0
SOLID
  5
20F
100
AcDbEntity
  8
寸法
370
              -2
 62
               0
100
AcDbTrace
 10
585.35441988381967
 20
423.32222200000001
 30
0.0
 11
579.00441988381976
 21
421.62074462806231
 31
0.0
 12
579.00441988381976
 22
425.0236993719376
 32
0.0
 13
579.00441988381976
 23
425.0236993719376
 33
0.0
  0
MTEXT
  5
210
100
AcDbEntity
  8
寸法
 62
               0
100
AcDbMText
 10
587.06841987709095
 20
433.78888866666887
 30
0.0
 40
6.7733333333333325
 41
0.0
 71
               1
 72
               1
  1
8
  7
HGSｺﾞｼｯｸE
 73
               1
 44
1.0
  0
POINT
  5
211
100
AcDbEntity
  8
Defpoints
370
               0
 62
               0
100
AcDbPoint
 10
585.35441988381967
 20
415.32222200000001
 30
0.0
  0
POINT
  5
212
100
AcDbEntity
  8
Defpoints
370
               0
 62
               0
100
AcDbPoint
 10
593.35441988381967
 20
415.32222200000001
 30
0.0
  0
POINT
  5
213
100
AcDbEntity
  8
Defpoints
370
               0
 62
               0
100
AcDbPoint
 10
593.35441988381967
 20
423.32222200000001
 30
0.0
  0
ENDBLK
  5
214
100
AcDbEntity
  8
寸法
100
AcDbBlockEnd
  0
BLOCK
  5
215
100
AcDbEntity
  8
寸法
100
AcDbBlockBegin
  2
*D49
 70
               1
 10
0.0
 20
0.0
 30
0.0
  3
*D49
  1

  0
LINE
  5
216
100
AcDbEntity
  8
寸法
370
              -2
  6
Continuous
 62
               0
100
AcDbLine
 10
474.0
 20
147.32222200000001
 30
0.0
 11
474.0
 21
167.99999999999923
 31
0.0
  0
LINE
  5
217
100
AcDbEntity
  8
寸法
370
              -2
  6
Continuous
 62
               0
100
AcDbLine
 10
497.0
 20
147.32222200000001
 30
0.0
 11
497.0
 21
167.99999999999923
 31
0.0
  0
LINE
  5
218
100
AcDbEntity
  8
寸法
370
              -2
  6
Continuous
 62
               0
100
AcDbLine
 10
497.0
 20
164.0
 30
0.0
 11
474.0
 21
164.0
 31
0.0
  0
LINE
  5
219
100
AcDbEntity
  8
寸法
370
              -2
  6
Continuous
 62
               0
100
AcDbLine
 10
474.0
 20
164.0
 30
0.0
 11
460.00000000000011
 21
164.0
 31
0.0
  0
SOLID
  5
21A
100
AcDbEntity
  8
寸法
370
              -2
 62
               0
100
AcDbTrace
 10
474.0
 20
164.0
 30
0.0
 11
467.64999999999998
 21
162.29852262806236
 31
0.0
 12
467.64999999999998
 22
165.70147737193764
 32
0.0
 13
467.64999999999998
 23
165.70147737193764
 33
0.0
  0
LINE
  5
21B
100
AcDbEntity
  8
寸法
370
              -2
  6
Continuous
 62
               0
100
AcDbLine
 10
497.0
 20
164.0
 30
0.0
 11
510.99999999999989
 21
164.0
 31
0.0
  0
SOLID
  5
21C
100
AcDbEntity
  8
寸法
370
              -2
 62
               0
100
AcDbTrace
 10
497.0
 20
164.0
 30
0.0
 11
503.35000000000002
 21
165.70147737193764
 31
0.0
 12
503.35000000000002
 22
162.29852262806236
 32
0.0
 13
503.35000000000002
 23
162.29852262806236
 33
0.0
  0
MTEXT
  5
21D
100
AcDbEntity
  8
寸法
 62
               0
100
AcDbMText
 10
480.9279999865426
 20
174.46666666666883
 30
0.0
 40
6.7733333333333325
 41
0.0
 71
               1
 72
               1
  1
23
  7
HGSｺﾞｼｯｸE
 73
               1
 44
1.0
  0
POINT
  5
21E
100
AcDbEntity
  8
Defpoints
370
               0
 62
               0
100
AcDbPoint
 10
497.0
 20
147.32222200000001
 30
0.0
  0
POINT
  5
21F
100
AcDbEntity
  8
Defpoints
370
               0
 62
               0
100
AcDbPoint
 10
474.0
 20
147.32222200000001
 30
0.0
  0
POINT
  5
220
100
AcDbEntity
  8
Defpoints
370
               0
 62
               0
100
AcDbPoint
 10
474.0
 20
164.0
 30
0.0
  0
ENDBLK
  5
221
100
AcDbEntity
  8
寸法
100
AcDbBlockEnd
  0
BLOCK
  5
222
100
AcDbEntity
  8
寸法
100
AcDbBlockBegin
  2
*D50
 70
               1
 10
0.0
 20
0.0
 30
0.0
  3
*D50
  1

  0
LINE
  5
223
100
AcDbEntity
  8
寸法
370
              -2
  6
Continuous
 62
               0
100
AcDbLine
 10
487.0
 20
143.32222200000001
 30
0.0
 11
487.0
 21
151.32222199999924
 31
0.0
  0
LINE
  5
224
100
AcDbEntity
  8
寸法
370
              -2
  6
Continuous
 62
               0
100
AcDbLine
 10
497.0
 20
140.32222200000001
 30
0.0
 11
497.0
 21
151.32222199999924
 31
0.0
  0
LINE
  5
225
100
AcDbEntity
  8
寸法
370
              -2
  6
Continuous
 62
               0
100
AcDbLine
 10
497.0
 20
147.32222200000001
 30
0.0
 11
487.0
 21
147.32222200000001
 31
0.0
  0
LINE
  5
226
100
AcDbEntity
  8
寸法
370
              -2
  6
Continuous
 62
               0
100
AcDbLine
 10
487.0
 20
147.32222200000001
 30
0.0
 11
473.00000000000011
 21
147.32222200000001
 31
0.0
  0
SOLID
  5
227
100
AcDbEntity
  8
寸法
370
              -2
 62
               0
100
AcDbTrace
 10
487.0
 20
147.32222200000001
 30
0.0
 11
480.64999999999998
 21
145.62074462806237
 31
0.0
 12
480.64999999999998
 22
149.02369937193765
 32
0.0
 13
480.64999999999998
 23
149.02369937193765
 33
0.0
  0
LINE
  5
228
100
AcDbEntity
  8
寸法
370
              -2
  6
Continuous
 62
               0
100
AcDbLine
 10
497.0
 20
147.32222200000001
 30
0.0
 11
510.99999999999989
 21
147.32222200000001
 31
0.0
  0
SOLID
  5
229
100
AcDbEntity
  8
寸法
370
              -2
 62
               0
100
AcDbTrace
 10
497.0
 20
147.32222200000001
 30
0.0
 11
503.35000000000002
 21
149.02369937193765
 31
0.0
 12
503.35000000000002
 22
145.62074462806237
 32
0.0
 13
503.35000000000002
 23
145.62074462806237
 33
0.0
  0
MTEXT
  5
22A
100
AcDbEntity
  8
寸法
 62
               0
100
AcDbMText
 10
487.4279999865426
 20
157.78888866666884
 30
0.0
 40
6.7733333333333325
 41
0.0
 71
               1
 72
               1
  1
10
  7
HGSｺﾞｼｯｸE
 73
               1
 44
1.0
  0
POINT
  5
22B
100
AcDbEntity
  8
Defpoints
370
               0
 62
               0
100
AcDbPoint
 10
497.0
 20
140.32222200000001
 30
0.0
  0
POINT
  5
22C
100
AcDbEntity
  8
Defpoints
370
               0
 62
               0
100
AcDbPoint
 10
487.0
 20
143.32222200000001
 30
0.0
  0
POINT
  5
22D
100
AcDbEntity
  8
Defpoints
370
               0
 62
               0
100
AcDbPoint
 10
487.0
 20
147.32222200000001
 30
0.0
  0
ENDBLK
  5
22E
100
AcDbEntity
  8
寸法
100
AcDbBlockEnd
  0
BLOCK
  5
22F
100
AcDbEntity
  8
寸法
100
AcDbBlockBegin
  2
*D51
 70
               1
 10
0.0
 20
0.0
 30
0.0
  3
*D51
  1

  0
LINE
  5
230
100
AcDbEntity
  8
寸法
370
              -2
  6
Continuous
 62
               0
100
AcDbLine
 10
503.0
 20
140.32222200000001
 30
0.0
 11
536.9999999999992
 21
140.32222200000001
 31
0.0
  0
LINE
  5
231
100
AcDbEntity
  8
寸法
370
              -2
  6
Continuous
 62
               0
100
AcDbLine
 10
503.0
 20
97.322222000000011
 30
0.0
 11
536.9999999999992
 21
97.322222000000011
 31
0.0
  0
LINE
  5
232
100
AcDbEntity
  8
寸法
370
              -2
  6
Continuous
 62
               0
100
AcDbLine
 10
533.0
 20
140.32222200000001
 30
0.0
 11
533.0
 21
97.322222000000011
 31
0.0
  0
SOLID
  5
233
100
AcDbEntity
  8
寸法
370
              -2
 62
               0
100
AcDbTrace
 10
533.0
 20
140.32222200000001
 30
0.0
 11
534.70147737193759
 21
133.97222200000002
 31
0.0
 12
531.2985226280623
 22
133.97222200000002
 32
0.0
 13
531.2985226280623
 23
133.97222200000002
 33
0.0
  0
SOLID
  5
234
100
AcDbEntity
  8
寸法
370
              -2
 62
               0
100
AcDbTrace
 10
533.0
 20
97.322222000000011
 30
0.0
 11
531.2985226280623
 21
103.672222
 31
0.0
 12
534.7014773719377
 22
103.672222
 32
0.0
 13
534.7014773719377
 23
103.672222
 33
0.0
  0
MTEXT
  5
235
100
AcDbEntity
  8
寸法
 62
               0
100
AcDbMText
 10
522.53333333333126
 20
114.2502219865426
 30
0.0
 40
6.7733333333333325
 41
0.0
 71
               1
 72
               1
  1
43
  7
HGSｺﾞｼｯｸE
 11
0.0
 21
1.0
 31
0.0
 73
               1
 44
1.0
  0
POINT
  5
236
100
AcDbEntity
  8
Defpoints
370
               0
 62
               0
100
AcDbPoint
 10
503.0
 20
97.322222000000011
 30
0.0
  0
POINT
  5
237
100
AcDbEntity
  8
Defpoints
370
               0
 62
               0
100
AcDbPoint
 10
503.0
 20
140.32222200000001
 30
0.0
  0
POINT
  5
238
100
AcDbEntity
  8
Defpoints
370
               0
 62
               0
100
AcDbPoint
 10
533.0
 20
140.32222200000001
 30
0.0
  0
ENDBLK
  5
239
100
AcDbEntity
  8
寸法
100
AcDbBlockEnd
  0
BLOCK
  5
23A
100
AcDbEntity
  8
寸法
100
AcDbBlockBegin
  2
*D52
 70
               1
 10
0.0
 20
0.0
 30
0.0
  3
*D52
  1

  0
LINE
  5
23B
100
AcDbEntity
  8
寸法
370
              -2
  6
Continuous
 62
               0
100
AcDbLine
 10
490.0
 20
134.82222200000001
 30
0.0
 11
518.9999999999992
 21
134.82222200000001
 31
0.0
  0
LINE
  5
23C
100
AcDbEntity
  8
寸法
370
              -2
  6
Continuous
 62
               0
100
AcDbLine
 10
490.0
 20
104.12222199999999
 30
0.0
 11
518.9999999999992
 21
104.12222199999999
 31
0.0
  0
LINE
  5
23D
100
AcDbEntity
  8
寸法
370
              -2
  6
Continuous
 62
               0
100
AcDbLine
 10
515.0
 20
104.12222199999999
 30
0.0
 11
515.0
 21
134.82222200000001
 31
0.0
  0
LINE
  5
23E
100
AcDbEntity
  8
寸法
370
              -2
  6
Continuous
 62
               0
100
AcDbLine
 10
515.0
 20
134.82222200000001
 30
0.0
 11
515.0
 21
148.8222219999999
 31
0.0
  0
SOLID
  5
23F
100
AcDbEntity
  8
寸法
370
              -2
 62
               0
100
AcDbTrace
 10
515.0
 20
134.82222200000001
 30
0.0
 11
513.2985226280623
 21
141.172222
 31
0.0
 12
516.7014773719377
 22
141.172222
 32
0.0
 13
516.7014773719377
 23
141.172222
 33
0.0
  0
LINE
  5
240
100
AcDbEntity
  8
寸法
370
              -2
  6
Continuous
 62
               0
100
AcDbLine
 10
515.0
 20
104.12222199999999
 30
0.0
 11
515.0
 21
90.122222000000107
 31
0.0
  0
SOLID
  5
241
100
AcDbEntity
  8
寸法
370
              -2
 62
               0
100
AcDbTrace
 10
515.0
 20
104.12222199999999
 30
0.0
 11
516.70147737193759
 21
97.772221999999999
 31
0.0
 12
513.2985226280623
 22
97.772221999999999
 32
0.0
 13
513.2985226280623
 23
97.772221999999999
 33
0.0
  0
MTEXT
  5
242
100
AcDbEntity
  8
寸法
 62
               0
100
AcDbMText
 10
504.5333333333312
 20
111.68288869358148
 30
0.0
 40
6.7733333333333325
 41
0.0
 71
               1
 72
               1
  1
30.7
  7
HGSｺﾞｼｯｸE
 11
0.0
 21
1.0
 31
0.0
 73
               1
 44
1.0
  0
POINT
  5
243
100
AcDbEntity
  8
Defpoints
370
               0
 62
               0
100
AcDbPoint
 10
490.0
 20
104.12222199999999
 30
0.0
  0
POINT
  5
244
100
AcDbEntity
  8
Defpoints
370
               0
 62
               0
100
AcDbPoint
 10
490.0
 20
134.82222200000001
 30
0.0
  0
POINT
  5
245
100
AcDbEntity
  8
Defpoints
370
               0
 62
               0
100
AcDbPoint
 10
515.0
 20
134.82222200000001
 30
0.0
  0
ENDBLK
  5
246
100
AcDbEntity
  8
寸法
100
AcDbBlockEnd
  0
BLOCK
  5
247
100
AcDbEntity
  8
寸法
100
AcDbBlockBegin
  2
*D53
 70
               1
 10
0.0
 20
0.0
 30
0.0
  3
*D53
  1

  0
LINE
  5
248
100
AcDbEntity
  8
寸法
370
              -2
  6
Continuous
 62
               0
100
AcDbLine
 10
41.000000000000028
 20
22.555554999999998
 30
0.0
 11
41.000000000000028
 21
8.0000000000007674
 31
0.0
  0
LINE
  5
249
100
AcDbEntity
  8
寸法
370
              -2
  6
Continuous
 62
               0
100
AcDbLine
 10
150.50000000000003
 20
21.0
 30
0.0
 11
150.50000000000003
 21
8.0000000000007674
 31
0.0
  0
LINE
  5
24A
100
AcDbEntity
  8
寸法
370
              -2
  6
Continuous
 62
               0
100
AcDbLine
 10
41.000000000000028
 20
12.0
 30
0.0
 11
150.50000000000003
 21
12.0
 31
0.0
  0
SOLID
  5
24B
100
AcDbEntity
  8
寸法
370
              -2
 62
               0
100
AcDbTrace
 10
41.000000000000028
 20
12.0
 30
0.0
 11
47.350000000000023
 21
13.701477371937642
 31
0.0
 12
47.350000000000023
 22
10.298522628062358
 32
0.0
 13
47.350000000000023
 23
10.298522628062358
 33
0.0
  0
SOLID
  5
24C
100
AcDbEntity
  8
寸法
370
              -2
 62
               0
100
AcDbTrace
 10
150.50000000000003
 20
12.0
 30
0.0
 11
144.15000000000003
 21
10.298522628062358
 31
0.0
 12
144.15000000000003
 22
13.701477371937642
 32
0.0
 13
144.15000000000003
 23
13.701477371937642
 33
0.0
  0
MTEXT
  5
24D
100
AcDbEntity
  8
寸法
 62
               0
100
AcDbMText
 10
85.67466685507037
 20
22.466666666668829
 30
0.0
 40
6.7733333333333325
 41
0.0
 71
               1
 72
               1
  1
109.5
  7
HGSｺﾞｼｯｸE
 73
               1
 44
1.0
  0
POINT
  5
24E
100
AcDbEntity
  8
Defpoints
370
               0
 62
               0
100
AcDbPoint
 10
150.50000000000003
 20
21.0
 30
0.0
  0
POINT
  5
24F
100
AcDbEntity
  8
Defpoints
370
               0
 62
               0
100
AcDbPoint
 10
41.000000000000028
 20
22.555554999999998
 30
0.0
  0
POINT
  5
250
100
AcDbEntity
  8
Defpoints
370
               0
 62
               0
100
AcDbPoint
 10
41.000000000000028
 20
12.0
 30
0.0
  0
ENDBLK
  5
251
100
AcDbEntity
  8
寸法
100
AcDbBlockEnd
  0
ENDSEC
  0
SECTION
  2
ENTITIES
  0
LWPOLYLINE
  5
252
100
AcDbEntity
  8
0
370
              40
  6
Continuous
 62
               7
100
AcDbPolyline
 90
        4
 70
             129
 10
40.0
 20
180.32222200000001
 10
474.0
 20
180.32222200000001
 10
474.0
 20
414.32222200000001
 10
40.0
 20
414.32222200000001
  0
LWPOLYLINE
  5
253
100
AcDbEntity
  8
0
370
              15
  6
Continuous
 62
               7
100
AcDbPolyline
 90
        4
 70
             129
 10
17.0
 20
180.32222200000001
 10
40.0
 20
180.32222200000001
 10
40.0
 20
182.32222200000001
 10
17.0
 20
182.32222200000001
  0
WIPEOUT
  5
254
100
AcDbEntity
  8
0
370
              15
 62
             253
 92
        0
100
AcDbWipeout
 90
        0
 10
474.0
 20
265.69913987500001
 30
0.0
 11
23.0
 21
0.0
 31
0.0
 12
0.0
 22
23.0
 32
0.0
 13
1.0
 23
1.0
340
0
 70
               7
280
               1
281
              50
282
              50
283
               0
360
0
 71
               2
 91
        4
 14
0.5
 24
4.2120399076086956
 14
0.5
 24
4.1250833858695657
 14
-0.5
 24
4.1250833858695657
 14
0.5
 24
4.2120399076086956
  0
POLYLINE
  5
255
100
AcDbEntity
  8
0
370
              15
 62
             253
100
AcDb2dPolyline
 66
               1
 10
0.0
 20
0.0
 30
0.0
 70
               1
 75
               5
  0
VERTEX
  5
256
100
AcDbEntity
  8
0
370
              15
 62
             253
100
AcDbVertex
100
AcDb2dVertex
 10
497.0
 20
180.32222200000001
 30
0.0
  0
VERTEX
  5
257
100
AcDbEntity
  8
0
370
              15
 62
             253
100
AcDbVertex
100
AcDb2dVertex
 10
497.0
 20
182.32222200000001
 30
0.0
  0
VERTEX
  5
258
100
AcDbEntity
  8
0
370
              15
 62
             253
100
AcDbVertex
100
AcDb2dVertex
 10
474.0
 20
182.32222200000001
 30
0.0
  0
SEQEND
  5
259
100
AcDbEntity
  8
0
370
              15
 62
             253
  0
WIPEOUT
  5
25A
100
AcDbEntity
  8
0
370
              15
 62
             253
 92
        0
100
AcDbWipeout
 90
        0
 10
474.0
 20
265.69913987500001
 30
0.0
 11
23.0
 21
0.0
 31
0.0
 12
0.0
 22
23.0
 32
0.0
 13
1.0
 23
1.0
340
0
 70
               7
280
               1
281
              50
282
              50
283
               0
360
0
 71
               2
 91
        4
 14
0.5
 24
4.2120399076086956
 14
-0.5
 24
4.1250833858695657
 14
-0.5
 24
4.2120399076086956
 14
0.5
 24
4.2120399076086956
  0
POLYLINE
  5
25B
100
AcDbEntity
  8
0
370
              15
 62
             253
100
AcDb2dPolyline
 66
               1
 10
0.0
 20
0.0
 30
0.0
 70
               1
 75
               5
  0
VERTEX
  5
25C
100
AcDbEntity
  8
0
370
              15
 62
             253
100
AcDbVertex
100
AcDb2dVertex
 10
497.0
 20
180.32222200000001
 30
0.0
  0
VERTEX
  5
25D
100
AcDbEntity
  8
0
370
              15
 62
             253
100
AcDbVertex
100
AcDb2dVertex
 10
474.0
 20
182.32222200000001
 30
0.0
  0
VERTEX
  5
25E
100
AcDbEntity
  8
0
370
              15
 62
             253
100
AcDbVertex
100
AcDb2dVertex
 10
474.0
 20
180.32222200000001
 30
0.0
  0
SEQEND
  5
25F
100
AcDbEntity
  8
0
370
              15
 62
             253
  0
WIPEOUT
  5
260
100
AcDbEntity
  8
0
370
              15
  6
Continuous
 62
               7
 92
        0
100
AcDbWipeout
 90
        0
 10
474.0
 20
265.69913987500001
 30
0.0
 11
23.0
 21
0.0
 31
0.0
 12
0.0
 22
23.0
 32
0.0
 13
1.0
 23
1.0
340
0
 70
               7
280
               1
281
              50
282
              50
283
               0
360
0
 71
               2
 91
        5
 14
-0.5
 24
4.2120399076086956
 14
0.5
 24
4.2120399076086956
 14
0.5
 24
4.1250833858695657
 14
-0.5
 24
4.1250833858695657
 14
-0.5
 24
4.2120399076086956
  0
LWPOLYLINE
  5
261
100
AcDbEntity
  8
0
370
              15
  6
Continuous
 62
               7
100
AcDbPolyline
 90
        4
 70
             129
 10
474.0
 20
180.32222200000001
 10
497.0
 20
180.32222200000001
 10
497.0
 20
182.32222200000001
 10
474.0
 20
182.32222200000001
  0
LWPOLYLINE
  5
262
100
AcDbEntity
  8
0
370
              15
  6
Continuous
 62
               7
100
AcDbPolyline
 90
        4
 70
             129
 10
40.0
 20
182.32222200000001
 10
40.0
 20
250.32222200000001
 10
38.0
 20
250.32222200000001
 10
38.0
 20
182.32222200000001
  0
WIPEOUT
  5
263
100
AcDbEntity
  8
0
370
              15
 62
             253
 92
        0
100
AcDbWipeout
 90
        0
 10
474.0
 20
267.69913987500001
 30
0.0
 11
68.0
 21
0.0
 31
0.0
 12
0.0
 22
68.0
 32
0.0
 13
1.0
 23
1.0
340
0
 70
               7
280
               1
281
              50
282
              50
283
               0
360
0
 71
               2
 91
        4
 14
-0.4705882352941176
 24
0.7555429099264707
 14
-0.5
 24
0.7555429099264707
 14
-0.5
 24
1.7555429099264706
 14
-0.4705882352941176
 24
0.7555429099264707
  0
POLYLINE
  5
264
100
AcDbEntity
  8
0
370
              15
 62
             253
100
AcDb2dPolyline
 66
               1
 10
0.0
 20
0.0
 30
0.0
 70
               1
 75
               5
  0
VERTEX
  5
265
100
AcDbEntity
  8
0
370
              15
 62
             253
100
AcDbVertex
100
AcDb2dVertex
 10
476.0
 20
250.32222200000001
 30
0.0
  0
VERTEX
  5
266
100
AcDbEntity
  8
0
370
              15
 62
             253
100
AcDbVertex
100
AcDb2dVertex
 10
474.0
 20
250.32222200000001
 30
0.0
  0
VERTEX
  5
267
100
AcDbEntity
  8
0
370
              15
 62
             253
100
AcDbVertex
100
AcDb2dVertex
 10
474.0
 20
182.32222200000001
 30
0.0
  0
SEQEND
  5
268
100
AcDbEntity
  8
0
370
              15
 62
             253
  0
WIPEOUT
  5
269
100
AcDbEntity
  8
0
370
              15
 62
             253
 92
        0
100
AcDbWipeout
 90
        0
 10
474.0
 20
267.69913987500001
 30
0.0
 11
68.0
 21
0.0
 31
0.0
 12
0.0
 22
68.0
 32
0.0
 13
1.0
 23
1.0
340
0
 70
               7
280
               1
281
              50
282
              50
283
               0
360
0
 71
               2
 91
        4
 14
-0.4705882352941176
 24
0.7555429099264707
 14
-0.5
 24
1.7555429099264706
 14
-0.4705882352941176
 24
1.7555429099264706
 14
-0.4705882352941176
 24
0.7555429099264707
  0
POLYLINE
  5
26A
100
AcDbEntity
  8
0
370
              15
 62
             253
100
AcDb2dPolyline
 66
               1
 10
0.0
 20
0.0
 30
0.0
 70
               1
 75
               5
  0
VERTEX
  5
26B
100
AcDbEntity
  8
0
370
              15
 62
             253
100
AcDbVertex
100
AcDb2dVertex
 10
476.0
 20
250.32222200000001
 30
0.0
  0
VERTEX
  5
26C
100
AcDbEntity
  8
0
370
              15
 62
             253
100
AcDbVertex
100
AcDb2dVertex
 10
474.0
 20
182.32222200000001
 30
0.0
  0
VERTEX
  5
26D
100
AcDbEntity
  8
0
370
              15
 62
             253
100
AcDbVertex
100
AcDb2dVertex
 10
476.0
 20
182.32222200000001
 30
0.0
  0
SEQEND
  5
26E
100
AcDbEntity
  8
0
370
              15
 62
             253
  0
WIPEOUT
  5
26F
100
AcDbEntity
  8
0
370
              15
  6
Continuous
 62
               7
 92
        0
100
AcDbWipeout
 90
        0
 10
474.0
 20
267.69913987500001
 30
0.0
 11
68.0
 21
0.0
 31
0.0
 12
0.0
 22
68.0
 32
0.0
 13
1.0
 23
1.0
340
0
 70
               7
280
               1
281
              50
282
              50
283
               0
360
0
 71
               2
 91
        5
 14
-0.4705882352941176
 24
1.7555429099264706
 14
-0.4705882352941176
 24
0.7555429099264707
 14
-0.5
 24
0.7555429099264707
 14
-0.5
 24
1.7555429099264706
 14
-0.4705882352941176
 24
1.7555429099264706
  0
LWPOLYLINE
  5
270
100
AcDbEntity
  8
0
370
              15
  6
Continuous
 62
               7
100
AcDbPolyline
 90
        4
 70
             129
 10
476.0
 20
182.32222200000001
 10
476.0
 20
250.32222200000001
 10
474.0
 20
250.32222200000001
 10
474.0
 20
182.32222200000001
  0
SOLID
  5
271
100
AcDbEntity
  8
0
370
              15
 62
             253
100
AcDbTrace
 10
60.5625
 20
391.94602000000003
 30
0.0
 11
62.4375
 21
391.94602000000003
 31
0.0
 12
63.375
 22
390.32222200000001
 32
0.0
 13
63.375
 23
390.32222200000001
 33
0.0
  0
SOLID
  5
272
100
AcDbEntity
  8
0
370
              15
 62
             253
100
AcDbTrace
 10
60.5625
 20
391.94602000000003
 30
0.0
 11
63.375
 21
390.32222200000001
 31
0.0
 12
62.4375
 22
388.69842399999999
 32
0.0
 13
62.4375
 23
388.69842399999999
 33
0.0
  0
SOLID
  5
273
100
AcDbEntity
  8
0
370
              15
 62
             253
100
AcDbTrace
 10
60.5625
 20
391.94602000000003
 30
0.0
 11
62.4375
 21
388.69842399999999
 31
0.0
 12
60.5625
 22
388.69842399999999
 32
0.0
 13
60.5625
 23
388.69842399999999
 33
0.0
  0
SOLID
  5
274
100
AcDbEntity
  8
0
370
              15
 62
             253
100
AcDbTrace
 10
60.5625
 20
391.94602000000003
 30
0.0
 11
60.5625
 21
388.69842399999999
 31
0.0
 12
59.625
 22
390.32222200000001
 32
0.0
 13
59.625
 23
390.32222200000001
 33
0.0
  0
LWPOLYLINE
  5
275
100
AcDbEntity
  8
0
370
              15
  6
Continuous
 62
               7
100
AcDbPolyline
 90
       10
 70
             129
 10
59.625
 20
390.32222200000001
 10
59.625
 20
390.32222200000001
 42
-0.414213562373095
 10
61.5
 20
392.19722200000001
 10
61.5
 20
392.19722200000001
 42
-0.4142135623730995
 10
63.375
 20
390.32222200000001
 10
63.375
 20
390.32222200000001
 10
63.375
 20
390.32222200000001
 42
-0.414213562373095
 10
61.5
 20
388.44722200000001
 10
61.5
 20
388.44722200000001
 42
-0.4142135623730906
 10
59.625
 20
390.32222200000001
  0
LINE
  5
276
100
AcDbEntity
  8
0
370
              15
  6
STYLE_01
 62
               7
100
AcDbLine
 10
452.5
 20
400.0
 30
0.0
 11
452.5
 21
216.82222200000001
 31
0.0
  0
SOLID
  5
277
100
AcDbEntity
  8
0
370
              15
 62
             253
100
AcDbTrace
 10
451.5625
 20
391.94602000000003
 30
0.0
 11
453.43749999999989
 21
391.94602000000003
 31
0.0
 12
454.375
 22
390.32222200000001
 32
0.0
 13
454.375
 23
390.32222200000001
 33
0.0
  0
SOLID
  5
278
100
AcDbEntity
  8
0
370
              15
 62
             253
100
AcDbTrace
 10
451.5625
 20
391.94602000000003
 30
0.0
 11
454.375
 21
390.32222200000001
 31
0.0
 12
453.43749999999989
 22
388.69842399999999
 32
0.0
 13
453.43749999999989
 23
388.69842399999999
 33
0.0
  0
SOLID
  5
279
100
AcDbEntity
  8
0
370
              15
 62
             253
100
AcDbTrace
 10
451.5625
 20
391.94602000000003
 30
0.0
 11
453.43749999999989
 21
388.69842399999999
 31
0.0
 12
451.5625
 22
388.69842399999999
 32
0.0
 13
451.5625
 23
388.69842399999999
 33
0.0
  0
SOLID
  5
27A
100
AcDbEntity
  8
0
370
              15
 62
             253
100
AcDbTrace
 10
451.5625
 20
391.94602000000003
 30
0.0
 11
451.5625
 21
388.69842399999999
 31
0.0
 12
450.625
 22
390.32222200000001
 32
0.0
 13
450.625
 23
390.32222200000001
 33
0.0
  0
LWPOLYLINE
  5
27B
100
AcDbEntity
  8
0
370
              15
  6
Continuous
 62
               7
100
AcDbPolyline
 90
       10
 70
             129
 10
450.625
 20
390.32222200000001
 10
450.625
 20
390.32222200000001
 42
-0.4142135623730906
 10
452.5
 20
392.19722200000001
 10
452.5
 20
392.19722200000001
 42
-0.414213562373095
 10
454.375
 20
390.32222200000001
 10
454.375
 20
390.32222200000001
 10
454.375
 20
390.32222200000001
 42
-0.4142135623730995
 10
452.5
 20
388.44722200000001
 10
452.5
 20
388.44722200000001
 42
-0.414213562373095
 10
450.625
 20
390.32222200000001
  0
LINE
  5
27C
100
AcDbEntity
  8
0
370
              15
  6
STYLE_01
 62
               7
100
AcDbLine
 10
56.0
 20
390.32222200000001
 30
0.0
 11
467.375
 21
390.32222200000001
 31
0.0
  0
SOLID
  5
27D
100
AcDbEntity
  8
0
370
              15
 62
             253
100
AcDbTrace
 10
235.5625
 20
391.94602000000003
 30
0.0
 11
237.4375
 21
391.94602000000003
 31
0.0
 12
238.375
 22
390.32222200000001
 32
0.0
 13
238.375
 23
390.32222200000001
 33
0.0
  0
SOLID
  5
27E
100
AcDbEntity
  8
0
370
              15
 62
             253
100
AcDbTrace
 10
235.5625
 20
391.94602000000003
 30
0.0
 11
238.375
 21
390.32222200000001
 31
0.0
 12
237.4375
 22
388.69842399999999
 32
0.0
 13
237.4375
 23
388.69842399999999
 33
0.0
  0
SOLID
  5
27F
100
AcDbEntity
  8
0
370
              15
 62
             253
100
AcDbTrace
 10
235.5625
 20
391.94602000000003
 30
0.0
 11
237.4375
 21
388.69842399999999
 31
0.0
 12
235.5625
 22
388.69842399999999
 32
0.0
 13
235.5625
 23
388.69842399999999
 33
0.0
  0
SOLID
  5
280
100
AcDbEntity
  8
0
370
              15
 62
             253
100
AcDbTrace
 10
235.5625
 20
391.94602000000003
 30
0.0
 11
235.5625
 21
388.69842399999999
 31
0.0
 12
234.625
 22
390.32222200000001
 32
0.0
 13
234.625
 23
390.32222200000001
 33
0.0
  0
LWPOLYLINE
  5
281
100
AcDbEntity
  8
0
370
              40
  6
Continuous
 62
               7
100
AcDbPolyline
 90
       10
 70
             129
 10
234.625
 20
390.32222200000001
 10
234.625
 20
390.32222200000001
 42
-0.414213562373095
 10
236.5
 20
392.19722200000001
 10
236.5
 20
392.19722200000001
 42
-0.414213562373095
 10
238.375
 20
390.32222200000001
 10
238.375
 20
390.32222200000001
 10
238.375
 20
390.32222200000001
 42
-0.414213562373095
 10
236.5
 20
388.44722200000001
 10
236.5
 20
388.44722200000001
 42
-0.414213562373095
 10
234.625
 20
390.32222200000001
  0
SOLID
  5
282
100
AcDbEntity
  8
0
370
              15
 62
             253
100
AcDbTrace
 10
276.5625
 20
391.94602000000003
 30
0.0
 11
278.4375
 21
391.94602000000003
 31
0.0
 12
279.375
 22
390.32222200000001
 32
0.0
 13
279.375
 23
390.32222200000001
 33
0.0
  0
SOLID
  5
283
100
AcDbEntity
  8
0
370
              15
 62
             253
100
AcDbTrace
 10
276.5625
 20
391.94602000000003
 30
0.0
 11
279.375
 21
390.32222200000001
 31
0.0
 12
278.4375
 22
388.69842399999999
 32
0.0
 13
278.4375
 23
388.69842399999999
 33
0.0
  0
SOLID
  5
284
100
AcDbEntity
  8
0
370
              15
 62
             253
100
AcDbTrace
 10
276.5625
 20
391.94602000000003
 30
0.0
 11
278.4375
 21
388.69842399999999
 31
0.0
 12
276.5625
 22
388.69842399999999
 32
0.0
 13
276.5625
 23
388.69842399999999
 33
0.0
  0
SOLID
  5
285
100
AcDbEntity
  8
0
370
              15
 62
             253
100
AcDbTrace
 10
276.5625
 20
391.94602000000003
 30
0.0
 11
276.5625
 21
388.69842399999999
 31
0.0
 12
275.625
 22
390.32222200000001
 32
0.0
 13
275.625
 23
390.32222200000001
 33
0.0
  0
LWPOLYLINE
  5
286
100
AcDbEntity
  8
0
370
              15
  6
Continuous
 62
               7
100
AcDbPolyline
 90
       10
 70
             129
 10
275.625
 20
390.32222200000001
 10
275.625
 20
390.32222200000001
 42
-0.414213562373095
 10
277.5
 20
392.19722200000001
 10
277.5
 20
392.19722200000001
 42
-0.414213562373095
 10
279.375
 20
390.32222200000001
 10
279.375
 20
390.32222200000001
 10
279.375
 20
390.32222200000001
 42
-0.414213562373095
 10
277.5
 20
388.44722200000001
 10
277.5
 20
388.44722200000001
 42
-0.414213562373095
 10
275.625
 20
390.32222200000001
  0
LINE
  5
287
100
AcDbEntity
  8
0
370
              15
  6
STYLE_02
 62
               7
100
AcDbLine
 10
61.5
 20
395.82222200000001
 30
0.0
 11
61.5
 21
225.32222200000001
 31
0.0
  0
LINE
  5
288
100
AcDbEntity
  8
0
370
              15
  6
STYLE_01
 62
               7
100
AcDbLine
 10
236.5
 20
400.0
 30
0.0
 11
236.5
 21
215.57222200000001
 31
0.0
  0
SOLID
  5
289
100
AcDbEntity
  8
0
370
              15
 62
             253
100
AcDbTrace
 10
235.5625
 20
231.94602
 30
0.0
 11
237.4375
 21
231.94602
 31
0.0
 12
238.375
 22
230.32222200000001
 32
0.0
 13
238.375
 23
230.32222200000001
 33
0.0
  0
SOLID
  5
28A
100
AcDbEntity
  8
0
370
              15
 62
             253
100
AcDbTrace
 10
235.5625
 20
231.94602
 30
0.0
 11
238.375
 21
230.32222200000001
 31
0.0
 12
237.4375
 22
228.69842400000002
 32
0.0
 13
237.4375
 23
228.69842400000002
 33
0.0
  0
SOLID
  5
28B
100
AcDbEntity
  8
0
370
              15
 62
             253
100
AcDbTrace
 10
235.5625
 20
231.94602
 30
0.0
 11
237.4375
 21
228.69842400000002
 31
0.0
 12
235.5625
 22
228.69842400000002
 32
0.0
 13
235.5625
 23
228.69842400000002
 33
0.0
  0
SOLID
  5
28C
100
AcDbEntity
  8
0
370
              15
 62
             253
100
AcDbTrace
 10
235.5625
 20
231.94602
 30
0.0
 11
235.5625
 21
228.69842400000002
 31
0.0
 12
234.625
 22
230.32222200000001
 32
0.0
 13
234.625
 23
230.32222200000001
 33
0.0
  0
LWPOLYLINE
  5
28D
100
AcDbEntity
  8
0
370
              15
  6
Continuous
 62
               7
100
AcDbPolyline
 90
       10
 70
             129
 10
234.625
 20
230.32222200000001
 10
234.625
 20
230.32222200000001
 42
-0.414213562373095
 10
236.5
 20
232.19722200000001
 10
236.5
 20
232.19722200000001
 42
-0.414213562373095
 10
238.375
 20
230.32222200000001
 10
238.375
 20
230.32222200000001
 10
238.375
 20
230.32222200000001
 42
-0.414213562373095
 10
236.5
 20
228.44722200000001
 10
236.5
 20
228.44722200000001
 42
-0.414213562373095
 10
234.625
 20
230.32222200000001
  0
LINE
  5
28E
100
AcDbEntity
  8
0
370
              15
  6
STYLE_01
 62
               7
100
AcDbLine
 10
277.5
 20
400.0
 30
0.0
 11
277.5
 21
215.17645423605151
 31
0.0
  0
SOLID
  5
28F
100
AcDbEntity
  8
0
370
              15
 62
             253
100
AcDbTrace
 10
276.5625
 20
231.94602
 30
0.0
 11
278.4375
 21
231.94602
 31
0.0
 12
279.375
 22
230.32222200000001
 32
0.0
 13
279.375
 23
230.32222200000001
 33
0.0
  0
SOLID
  5
290
100
AcDbEntity
  8
0
370
              15
 62
             253
100
AcDbTrace
 10
276.5625
 20
231.94602
 30
0.0
 11
279.375
 21
230.32222200000001
 31
0.0
 12
278.4375
 22
228.69842400000002
 32
0.0
 13
278.4375
 23
228.69842400000002
 33
0.0
  0
SOLID
  5
291
100
AcDbEntity
  8
0
370
              15
 62
             253
100
AcDbTrace
 10
276.5625
 20
231.94602
 30
0.0
 11
278.4375
 21
228.69842400000002
 31
0.0
 12
276.5625
 22
228.69842400000002
 32
0.0
 13
276.5625
 23
228.69842400000002
 33
0.0
  0
SOLID
  5
292
100
AcDbEntity
  8
0
370
              15
 62
             253
100
AcDbTrace
 10
276.5625
 20
231.94602
 30
0.0
 11
276.5625
 21
228.69842400000002
 31
0.0
 12
275.625
 22
230.32222200000001
 32
0.0
 13
275.625
 23
230.32222200000001
 33
0.0
  0
LWPOLYLINE
  5
293
100
AcDbEntity
  8
0
370
              15
  6
Continuous
 62
               7
100
AcDbPolyline
 90
       10
 70
             129
 10
275.625
 20
230.32222200000001
 10
275.625
 20
230.32222200000001
 42
-0.414213562373095
 10
277.5
 20
232.19722200000001
 10
277.5
 20
232.19722200000001
 42
-0.414213562373095
 10
279.375
 20
230.32222200000001
 10
279.375
 20
230.32222200000001
 10
279.375
 20
230.32222200000001
 42
-0.414213562373095
 10
277.5
 20
228.44722200000001
 10
277.5
 20
228.44722200000001
 42
-0.414213562373095
 10
275.625
 20
230.32222200000001
  0
SOLID
  5
294
100
AcDbEntity
  8
0
370
              15
 62
             253
100
AcDbTrace
 10
451.5625
 20
231.94602
 30
0.0
 11
453.43749999999989
 21
231.94602
 31
0.0
 12
454.375
 22
230.32222200000001
 32
0.0
 13
454.375
 23
230.32222200000001
 33
0.0
  0
SOLID
  5
295
100
AcDbEntity
  8
0
370
              15
 62
             253
100
AcDbTrace
 10
451.5625
 20
231.94602
 30
0.0
 11
454.375
 21
230.32222200000001
 31
0.0
 12
453.43749999999989
 22
228.69842400000002
 32
0.0
 13
453.43749999999989
 23
228.69842400000002
 33
0.0
  0
SOLID
  5
296
100
AcDbEntity
  8
0
370
              15
 62
             253
100
AcDbTrace
 10
451.5625
 20
231.94602
 30
0.0
 11
453.43749999999989
 21
228.69842400000002
 31
0.0
 12
451.5625
 22
228.69842400000002
 32
0.0
 13
451.5625
 23
228.69842400000002
 33
0.0
  0
SOLID
  5
297
100
AcDbEntity
  8
0
370
              15
 62
             253
100
AcDbTrace
 10
451.5625
 20
231.94602
 30
0.0
 11
451.5625
 21
228.69842400000002
 31
0.0
 12
450.625
 22
230.32222200000001
 32
0.0
 13
450.625
 23
230.32222200000001
 33
0.0
  0
LWPOLYLINE
  5
298
100
AcDbEntity
  8
0
370
              15
  6
Continuous
 62
               7
100
AcDbPolyline
 90
       10
 70
             129
 10
450.625
 20
230.32222200000001
 10
450.625
 20
230.32222200000001
 42
-0.414213562373095
 10
452.5
 20
232.19722200000001
 10
452.5
 20
232.19722200000001
 42
-0.414213562373095
 10
454.375
 20
230.32222200000001
 10
454.375
 20
230.32222200000001
 10
454.375
 20
230.32222200000001
 42
-0.414213562373095
 10
452.5
 20
228.44722200000001
 10
452.5
 20
228.44722200000001
 42
-0.414213562373095
 10
450.625
 20
230.32222200000001
  0
SOLID
  5
299
100
AcDbEntity
  8
0
370
              15
 62
             253
100
AcDbTrace
 10
168.5625
 20
391.94602000000003
 30
0.0
 11
170.4375
 21
391.94602000000003
 31
0.0
 12
171.375
 22
390.32222200000001
 32
0.0
 13
171.375
 23
390.32222200000001
 33
0.0
  0
SOLID
  5
29A
100
AcDbEntity
  8
0
370
              15
 62
             253
100
AcDbTrace
 10
168.5625
 20
391.94602000000003
 30
0.0
 11
171.375
 21
390.32222200000001
 31
0.0
 12
170.4375
 22
388.69842399999999
 32
0.0
 13
170.4375
 23
388.69842399999999
 33
0.0
  0
SOLID
  5
29B
100
AcDbEntity
  8
0
370
              15
 62
             253
100
AcDbTrace
 10
168.5625
 20
391.94602000000003
 30
0.0
 11
170.4375
 21
388.69842399999999
 31
0.0
 12
168.5625
 22
388.69842399999999
 32
0.0
 13
168.5625
 23
388.69842399999999
 33
0.0
  0
SOLID
  5
29C
100
AcDbEntity
  8
0
370
              15
 62
             253
100
AcDbTrace
 10
168.5625
 20
391.94602000000003
 30
0.0
 11
168.5625
 21
388.69842399999999
 31
0.0
 12
167.625
 22
390.32222200000001
 32
0.0
 13
167.625
 23
390.32222200000001
 33
0.0
  0
LWPOLYLINE
  5
29D
100
AcDbEntity
  8
0
370
              15
  6
Continuous
 62
               7
100
AcDbPolyline
 90
       10
 70
             129
 10
167.625
 20
390.32222200000001
 10
167.625
 20
390.32222200000001
 42
-0.414213562373095
 10
169.5
 20
392.19722200000001
 10
169.5
 20
392.19722200000001
 42
-0.4142135623730995
 10
171.375
 20
390.32222200000001
 10
171.375
 20
390.32222200000001
 10
171.375
 20
390.32222200000001
 42
-0.414213562373095
 10
169.5
 20
388.44722200000001
 10
169.5
 20
388.44722200000001
 42
-0.4142135623730906
 10
167.625
 20
390.32222200000001
  0
LINE
  5
29E
100
AcDbEntity
  8
0
370
              15
  6
STYLE_01
 62
               7
100
AcDbLine
 10
55.0
 20
230.32222200000001
 30
0.0
 11
464.0
 21
230.32222200000001
 31
0.0
  0
SOLID
  5
29F
100
AcDbEntity
  8
0
370
              15
 62
             253
100
AcDbTrace
 10
168.66249999999999
 20
231.94602
 30
0.0
 11
170.53749999999999
 21
231.94602
 31
0.0
 12
171.47499999999999
 22
230.32222200000001
 32
0.0
 13
171.47499999999999
 23
230.32222200000001
 33
0.0
  0
SOLID
  5
2A0
100
AcDbEntity
  8
0
370
              15
 62
             253
100
AcDbTrace
 10
168.66249999999999
 20
231.94602
 30
0.0
 11
171.47499999999999
 21
230.32222200000001
 31
0.0
 12
170.53749999999999
 22
228.69842400000002
 32
0.0
 13
170.53749999999999
 23
228.69842400000002
 33
0.0
  0
SOLID
  5
2A1
100
AcDbEntity
  8
0
370
              15
 62
             253
100
AcDbTrace
 10
168.66249999999999
 20
231.94602
 30
0.0
 11
170.53749999999999
 21
228.69842400000002
 31
0.0
 12
168.66249999999999
 22
228.69842400000002
 32
0.0
 13
168.66249999999999
 23
228.69842400000002
 33
0.0
  0
SOLID
  5
2A2
100
AcDbEntity
  8
0
370
              15
 62
             253
100
AcDbTrace
 10
168.66249999999999
 20
231.94602
 30
0.0
 11
168.66249999999999
 21
228.69842400000002
 31
0.0
 12
167.72499999999999
 22
230.32222200000001
 32
0.0
 13
167.72499999999999
 23
230.32222200000001
 33
0.0
  0
LWPOLYLINE
  5
2A3
100
AcDbEntity
  8
0
370
              15
  6
Continuous
 62
               7
100
AcDbPolyline
 90
       10
 70
             129
 10
167.72499999999999
 20
230.32222200000001
 10
167.72499999999999
 20
230.32222200000001
 42
-0.414213562373095
 10
169.59999999999999
 20
232.19722200000001
 10
169.59999999999999
 20
232.19722200000001
 42
-0.414213562373095
 10
171.47499999999999
 20
230.32222200000001
 10
171.47499999999999
 20
230.32222200000001
 10
171.47499999999999
 20
230.32222200000001
 42
-0.414213562373095
 10
169.59999999999999
 20
228.44722200000001
 10
169.59999999999999
 20
228.44722200000001
 42
-0.414213562373095
 10
167.72499999999999
 20
230.32222200000001
  0
SOLID
  5
2A4
100
AcDbEntity
  8
0
370
              15
 62
             253
100
AcDbTrace
 10
343.5625
 20
391.94602000000003
 30
0.0
 11
345.4375
 21
391.94602000000003
 31
0.0
 12
346.375
 22
390.32222200000001
 32
0.0
 13
346.375
 23
390.32222200000001
 33
0.0
  0
SOLID
  5
2A5
100
AcDbEntity
  8
0
370
              15
 62
             253
100
AcDbTrace
 10
343.5625
 20
391.94602000000003
 30
0.0
 11
346.375
 21
390.32222200000001
 31
0.0
 12
345.4375
 22
388.69842399999999
 32
0.0
 13
345.4375
 23
388.69842399999999
 33
0.0
  0
SOLID
  5
2A6
100
AcDbEntity
  8
0
370
              15
 62
             253
100
AcDbTrace
 10
343.5625
 20
391.94602000000003
 30
0.0
 11
345.4375
 21
388.69842399999999
 31
0.0
 12
343.5625
 22
388.69842399999999
 32
0.0
 13
343.5625
 23
388.69842399999999
 33
0.0
  0
SOLID
  5
2A7
100
AcDbEntity
  8
0
370
              15
 62
             253
100
AcDbTrace
 10
343.5625
 20
391.94602000000003
 30
0.0
 11
343.5625
 21
388.69842399999999
 31
0.0
 12
342.625
 22
390.32222200000001
 32
0.0
 13
342.625
 23
390.32222200000001
 33
0.0
  0
LWPOLYLINE
  5
2A8
100
AcDbEntity
  8
0
370
              15
  6
Continuous
 62
               7
100
AcDbPolyline
 90
       10
 70
             129
 10
342.625
 20
390.32222200000001
 10
342.625
 20
390.32222200000001
 42
-0.414213562373095
 10
344.5
 20
392.19722200000001
 10
344.5
 20
392.19722200000001
 42
-0.414213562373095
 10
346.375
 20
390.32222200000001
 10
346.375
 20
390.32222200000001
 10
346.375
 20
390.32222200000001
 42
-0.414213562373095
 10
344.5
 20
388.44722200000001
 10
344.5
 20
388.44722200000001
 42
-0.414213562373095
 10
342.625
 20
390.32222200000001
  0
SOLID
  5
2A9
100
AcDbEntity
  8
0
370
              15
 62
             253
100
AcDbTrace
 10
343.5625
 20
231.94602
 30
0.0
 11
345.4375
 21
231.94602
 31
0.0
 12
346.375
 22
230.32222200000001
 32
0.0
 13
346.375
 23
230.32222200000001
 33
0.0
  0
SOLID
  5
2AA
100
AcDbEntity
  8
0
370
              15
 62
             253
100
AcDbTrace
 10
343.5625
 20
231.94602
 30
0.0
 11
346.375
 21
230.32222200000001
 31
0.0
 12
345.4375
 22
228.69842400000002
 32
0.0
 13
345.4375
 23
228.69842400000002
 33
0.0
  0
SOLID
  5
2AB
100
AcDbEntity
  8
0
370
              15
 62
             253
100
AcDbTrace
 10
343.5625
 20
231.94602
 30
0.0
 11
345.4375
 21
228.69842400000002
 31
0.0
 12
343.5625
 22
228.69842400000002
 32
0.0
 13
343.5625
 23
228.69842400000002
 33
0.0
  0
SOLID
  5
2AC
100
AcDbEntity
  8
0
370
              15
 62
             253
100
AcDbTrace
 10
343.5625
 20
231.94602
 30
0.0
 11
343.5625
 21
228.69842400000002
 31
0.0
 12
342.625
 22
230.32222200000001
 32
0.0
 13
342.625
 23
230.32222200000001
 33
0.0
  0
LWPOLYLINE
  5
2AD
100
AcDbEntity
  8
0
370
              15
  6
Continuous
 62
               7
100
AcDbPolyline
 90
       10
 70
             129
 10
342.625
 20
230.32222200000001
 10
342.625
 20
230.32222200000001
 42
-0.414213562373095
 10
344.5
 20
232.19722200000001
 10
344.5
 20
232.19722200000001
 42
-0.414213562373095
 10
346.375
 20
230.32222200000001
 10
346.375
 20
230.32222200000001
 10
346.375
 20
230.32222200000001
 42
-0.414213562373095
 10
344.5
 20
228.44722200000001
 10
344.5
 20
228.44722200000001
 42
-0.414213562373095
 10
342.625
 20
230.32222200000001
  0
LINE
  5
2AE
100
AcDbEntity
  8
0
370
              15
  6
STYLE_01
 62
               7
100
AcDbLine
 10
169.5
 20
400.0
 30
0.0
 11
169.5
 21
220.40555500000002
 31
0.0
  0
LINE
  5
2AF
100
AcDbEntity
  8
0
370
              15
  6
STYLE_01
 62
               7
100
AcDbLine
 10
344.5
 20
400.0
 30
0.0
 11
344.5
 21
215.57222200000001
 31
0.0
  0
INSERT
  5
2B0
100
AcDbEntity
  8
寸法
100
AcDbBlockReference
 66
               1
  2
半窟外側-2
 10
1.2106299999999806
 20
38.18049000000002
 30
0.0
  0
ATTRIB
  5
2B1
100
AcDbEntity
  8
一般
 62
               0
100
AcDbText
 10
59.499999999999979
 20
220.70222200000001
 30
0.0
 40
4.2333333333333325
  1
User.LPrecVal
100
AcDbAttribute
  2
精度
 70
               1
  0
ATTRIB
  5
2B2
100
AcDbEntity
  8
一般
 62
               0
100
AcDbText
 10
59.499999999999979
 20
213.082222
 30
0.0
 40
4.2333333333333325
  1
User.LUnitsVal
100
AcDbAttribute
  2
単位
 70
               1
  0
ATTRIB
  5
2B3
100
AcDbEntity
  8
一般
 62
               0
100
AcDbText
 10
59.499999999999979
 20
205.462222
 30
0.0
 40
4.2333333333333325
  1
User.ShowUnitsVal
100
AcDbAttribute
  2
単位の表示
 70
               1
  0
ATTRIB
  5
2B4
100
AcDbEntity
  8
一般
 62
               0
100
AcDbText
 10
59.499999999999979
 20
197.84222199999999
 30
0.0
 40
4.2333333333333325
  1
両端
100
AcDbAttribute
  2
寸法補助線
 70
               1
  0
SEQEND
  5
2B6
100
AcDbEntity
  8
0
  0
LWPOLYLINE
  5
2B7
100
AcDbEntity
  8
0
370
              15
  6
Continuous
 62
               7
100
AcDbPolyline
 90
        4
 70
             129
 10
593.35441988381967
 20
180.32222200000001
 10
593.35441988381967
 20
247.54949500000001
 10
550.35441988381967
 20
247.54949500000001
 10
550.35441988381967
 20
180.32222200000001
  0
WIPEOUT
  5
2B8
100
AcDbEntity
  8
0
370
              15
 62
             253
 92
        0
100
AcDbWipeout
 90
        0
 10
550.35441988381967
 20
265.69913987500001
 30
0.0
 11
43.0
 21
0.0
 31
0.0
 12
0.0
 22
43.0
 32
0.0
 13
1.0
 23
1.0
340
0
 70
               7
280
               1
281
              50
282
              50
283
               0
360
0
 71
               2
 91
        4
 14
0.5
 24
2.4855097180232559
 14
0.5
 24
2.4389980901162791
 14
-0.5
 24
2.4389980901162791
 14
0.5
 24
2.4855097180232559
  0
POLYLINE
  5
2B9
100
AcDbEntity
  8
0
370
              15
 62
             253
100
AcDb2dPolyline
 66
               1
 10
0.0
 20
0.0
 30
0.0
 70
               1
 75
               5
  0
VERTEX
  5
2BA
100
AcDbEntity
  8
0
370
              15
 62
             253
100
AcDbVertex
100
AcDb2dVertex
 10
593.35441988381967
 20
180.32222200000001
 30
0.0
  0
VERTEX
  5
2BB
100
AcDbEntity
  8
0
370
              15
 62
             253
100
AcDbVertex
100
AcDb2dVertex
 10
593.35441988381967
 20
182.32222200000001
 30
0.0
  0
VERTEX
  5
2BC
100
AcDbEntity
  8
0
370
              15
 62
             253
100
AcDbVertex
100
AcDb2dVertex
 10
550.35441988381967
 20
182.32222200000001
 30
0.0
  0
SEQEND
  5
2BD
100
AcDbEntity
  8
0
370
              15
 62
             253
  0
WIPEOUT
  5
2BE
100
AcDbEntity
  8
0
370
              15
 62
             253
 92
        0
100
AcDbWipeout
 90
        0
 10
550.35441988381967
 20
265.69913987500001
 30
0.0
 11
43.0
 21
0.0
 31
0.0
 12
0.0
 22
43.0
 32
0.0
 13
1.0
 23
1.0
340
0
 70
               7
280
               1
281
              50
282
              50
283
               0
360
0
 71
               2
 91
        4
 14
0.5
 24
2.4855097180232559
 14
-0.5
 24
2.4389980901162791
 14
-0.5
 24
2.4855097180232559
 14
0.5
 24
2.4855097180232559
  0
POLYLINE
  5
2BF
100
AcDbEntity
  8
0
370
              15
 62
             253
100
AcDb2dPolyline
 66
               1
 10
0.0
 20
0.0
 30
0.0
 70
               1
 75
               5
  0
VERTEX
  5
2C0
100
AcDbEntity
  8
0
370
              15
 62
             253
100
AcDbVertex
100
AcDb2dVertex
 10
593.35441988381967
 20
180.32222200000001
 30
0.0
  0
VERTEX
  5
2C1
100
AcDbEntity
  8
0
370
              15
 62
             253
100
AcDbVertex
100
AcDb2dVertex
 10
550.35441988381967
 20
182.32222200000001
 30
0.0
  0
VERTEX
  5
2C2
100
AcDbEntity
  8
0
370
              15
 62
             253
100
AcDbVertex
100
AcDb2dVertex
 10
550.35441988381967
 20
180.32222200000001
 30
0.0
  0
SEQEND
  5
2C3
100
AcDbEntity
  8
0
370
              15
 62
             253
  0
WIPEOUT
  5
2C4
100
AcDbEntity
  8
0
370
              15
  6
Continuous
 62
               7
 92
        0
100
AcDbWipeout
 90
        0
 10
550.35441988381967
 20
265.69913987500001
 30
0.0
 11
43.0
 21
0.0
 31
0.0
 12
0.0
 22
43.0
 32
0.0
 13
1.0
 23
1.0
340
0
 70
               7
280
               1
281
              50
282
              50
283
               0
360
0
 71
               2
 91
        5
 14
-0.5
 24
2.4855097180232559
 14
0.5
 24
2.4855097180232559
 14
0.5
 24
2.4389980901162791
 14
-0.5
 24
2.4389980901162791
 14
-0.5
 24
2.4855097180232559
  0
LWPOLYLINE
  5
2C5
100
AcDbEntity
  8
0
370
              15
  6
Continuous
 62
               7
100
AcDbPolyline
 90
        4
 70
             129
 10
550.35441988381967
 20
180.32222200000001
 10
593.35441988381967
 20
180.32222200000001
 10
593.35441988381967
 20
182.32222200000001
 10
550.35441988381967
 20
182.32222200000001
  0
LINE
  5
2C6
100
AcDbEntity
  8
0
370
              15
  6
Continuous
 62
               7
100
AcDbLine
 10
555.95441988381958
 20
233.64444400000002
 30
0.0
 11
560.95441988381981
 21
228.64444400000002
 31
0.0
  0
LINE
  5
2C7
100
AcDbEntity
  8
0
370
              15
  6
Continuous
 62
               7
100
AcDbLine
 10
560.95441988381981
 20
233.64444400000002
 30
0.0
 11
555.95441988381958
 21
228.64444400000002
 31
0.0
  0
LINE
  5
2C8
100
AcDbEntity
  8
0
370
              15
  6
Continuous
 62
               7
100
AcDbLine
 10
580.31275288381971
 20
199.28055500000002
 30
0.0
 11
585.31275288381971
 21
194.28055500000002
 31
0.0
  0
LINE
  5
2C9
100
AcDbEntity
  8
0
370
              15
  6
Continuous
 62
               7
100
AcDbLine
 10
585.35441988381967
 20
199.32222200000001
 30
0.0
 11
580.35441988381967
 21
194.32222200000001
 31
0.0
  0
LINE
  5
2CA
100
AcDbEntity
  8
0
370
              15
  6
Continuous
 62
               7
100
AcDbLine
 10
556.35441988381967
 20
274.044444
 30
0.0
 11
561.35441988381967
 21
269.044444
 31
0.0
  0
LINE
  5
2CB
100
AcDbEntity
  8
0
370
              15
  6
Continuous
 62
               7
100
AcDbLine
 10
561.35441988381967
 20
274.24444400000004
 30
0.0
 11
556.35441988381967
 21
269.24444400000004
 31
0.0
  0
LINE
  5
2CC
100
AcDbEntity
  8
0
370
              15
  6
Continuous
 62
               7
100
AcDbLine
 10
580.31275288381971
 20
239.88055500000002
 30
0.0
 11
585.31275288381971
 21
234.88055500000002
 31
0.0
  0
LINE
  5
2CD
100
AcDbEntity
  8
0
370
              15
  6
Continuous
 62
               7
100
AcDbLine
 10
585.35441988381967
 20
239.72222200000002
 30
0.0
 11
580.35441988381967
 21
234.72222200000002
 31
0.0
  0
LWPOLYLINE
  5
2CE
100
AcDbEntity
  8
0
370
              15
  6
Continuous
 62
               7
100
AcDbPolyline
 90
        3
 70
             128
 10
593.35441988381967
 20
247.82222200000001
 10
593.35441988381967
 20
414.32222200000001
 10
589.35441988381967
 20
414.32222200000001
  0
LINE
  5
2CF
100
AcDbEntity
  8
0
370
              15
  6
Continuous
 62
               7
100
AcDbLine
 10
585.35441988381967
 20
414.32222200000001
 30
0.0
 11
593.35441988381967
 21
414.32222200000001
 31
0.0
  0
LWPOLYLINE
  5
2D0
100
AcDbEntity
  8
0
370
              15
  6
Continuous
 62
               7
100
AcDbPolyline
 90
        4
 70
             129
 10
585.35441988381967
 20
413.32222200000001
 10
593.35441988381967
 20
413.32222200000001
 10
593.35441988381967
 20
414.32222200000001
 10
585.35441988381967
 20
414.32222200000001
  0
LINE
  5
2D1
100
AcDbEntity
  8
0
370
              15
  6
Continuous
 62
               7
100
AcDbLine
 10
585.25982688381964
 20
412.37493100000006
 30
0.0
 11
550.35441988381967
 21
247.32222200000001
 31
0.0
  0
LINE
  5
2D2
100
AcDbEntity
  8
0
370
              15
  6
STYLE_02
 62
               7
100
AcDbLine
 10
592.35441988381967
 20
180.32222200000001
 30
0.0
 11
592.35441988381967
 21
412.32222200000001
 31
0.0
  0
LINE
  5
2D3
100
AcDbEntity
  8
0
370
              15
  6
Continuous
 62
               7
100
AcDbLine
 10
593.35441988381967
 20
412.32222200000001
 30
0.0
 11
585.35441988381967
 21
412.32222200000001
 31
0.0
  0
LINE
  5
2D4
100
AcDbEntity
  8
0
370
              15
  6
Continuous
 62
               7
100
AcDbLine
 10
592.35441988381967
 20
413.12222200000008
 30
0.0
 11
592.35441988381967
 21
412.47222199999999
 31
0.0
  0
LINE
  5
2D5
100
AcDbEntity
  8
0
370
              15
  6
Continuous
 62
               7
100
AcDbLine
 10
502.0
 20
180.32222200000001
 30
0.0
 11
496.0
 21
180.32222200000001
 31
0.0
  0
LINE
  5
2D6
100
AcDbEntity
  8
0
370
              15
  6
Continuous
 62
               7
100
AcDbLine
 10
40.0
 20
140.32222200000001
 30
0.0
 11
17.0
 21
140.32222200000001
 31
0.0
  0
LINE
  5
2D7
100
AcDbEntity
  8
0
370
              15
  6
Continuous
 62
               7
100
AcDbLine
 10
40.0
 20
97.322222000000011
 30
0.0
 11
17.0
 21
97.322222000000011
 31
0.0
  0
LINE
  5
2D8
100
AcDbEntity
  8
0
370
              15
  6
Continuous
 62
               7
100
AcDbLine
 10
17.0
 20
140.32222200000001
 30
0.0
 11
17.0
 21
137.32222200000001
 31
0.0
  0
LINE
  5
2D9
100
AcDbEntity
  8
0
370
              15
  6
Continuous
 62
               7
100
AcDbLine
 10
17.0
 20
97.322222000000011
 30
0.0
 11
17.0
 21
101.922222
 31
0.0
  0
LINE
  5
2DA
100
AcDbEntity
  8
0
370
              15
  6
Continuous
 62
               7
100
AcDbLine
 10
27.0
 20
137.08888899999999
 30
0.0
 11
16.966667000000029
 21
137.08888899999999
 31
0.0
  0
LINE
  5
2DB
100
AcDbEntity
  8
0
370
              15
  6
Continuous
 62
               7
100
AcDbLine
 10
27.0
 20
133.55555500000003
 30
0.0
 11
17.0
 21
133.55555500000003
 31
0.0
  0
LWPOLYLINE
  5
2DC
100
AcDbEntity
  8
0
370
              15
  6
Continuous
 62
               7
100
AcDbPolyline
 90
        5
 70
             128
 10
27.0
 20
133.55555500000003
 42
0.4142135623730998
 10
28.766666999999984
 20
135.32222200000001
 10
28.766666999999984
 20
135.32222200000001
 42
0.414213562373095
 10
27.0
 20
137.08888899999999
 10
27.0
 20
137.08888899999999
  0
LINE
  5
2DD
100
AcDbEntity
  8
0
370
              15
  6
Continuous
 62
               7
100
AcDbLine
 10
27.033333000000027
 20
105.58888899999999
 30
0.0
 11
17.0
 21
105.58888899999999
 31
0.0
  0
LINE
  5
2DE
100
AcDbEntity
  8
0
370
              15
  6
Continuous
 62
               7
100
AcDbLine
 10
27.033333000000027
 20
102.05555500000003
 30
0.0
 11
17.033332999999971
 21
102.05555500000003
 31
0.0
  0
LWPOLYLINE
  5
2DF
100
AcDbEntity
  8
0
370
              15
  6
Continuous
 62
               7
100
AcDbPolyline
 90
        5
 70
             128
 10
27.033333000000027
 20
102.05555500000003
 42
0.4142135623730904
 10
28.800000000000011
 20
103.82222200000001
 10
28.800000000000011
 20
103.82222200000001
 42
0.414213562373095
 10
27.033333000000027
 20
105.58888899999999
 10
27.033333000000027
 20
105.58888899999999
  0
LINE
  5
2E0
100
AcDbEntity
  8
0
370
              15
  6
Continuous
 62
               7
100
AcDbLine
 10
17.0
 20
105.52222200000003
 30
0.0
 11
17.0
 21
133.522222
 31
0.0
  0
LINE
  5
2E1
100
AcDbEntity
  8
0
370
              15
  6
Continuous
 62
               7
100
AcDbLine
 10
40.0
 20
140.32222200000001
 30
0.0
 11
40.0
 21
97.322222000000011
 31
0.0
  0
LINE
  5
2E2
100
AcDbEntity
  8
0
370
              15
  6
Continuous
 62
               7
100
AcDbLine
 10
497.0
 20
140.32222200000001
 30
0.0
 11
474.0
 21
140.32222200000001
 31
0.0
  0
LINE
  5
2E3
100
AcDbEntity
  8
0
370
              15
  6
Continuous
 62
               7
100
AcDbLine
 10
497.0
 20
97.322222000000011
 30
0.0
 11
474.0
 21
97.322222000000011
 31
0.0
  0
LINE
  5
2E4
100
AcDbEntity
  8
0
370
              15
  6
Continuous
 62
               7
100
AcDbLine
 10
497.0
 20
140.32222200000001
 30
0.0
 11
497.0
 21
136.62222200000002
 31
0.0
  0
LINE
  5
2E5
100
AcDbEntity
  8
0
370
              15
  6
Continuous
 62
               7
100
AcDbLine
 10
497.0
 20
97.322222000000011
 30
0.0
 11
497.0
 21
102.32222200000001
 31
0.0
  0
LINE
  5
2E6
100
AcDbEntity
  8
0
370
              15
  6
Continuous
 62
               7
100
AcDbLine
 10
496.89999999999998
 20
136.58888899999999
 30
0.0
 11
487.0
 21
136.58888899999999
 31
0.0
  0
LINE
  5
2E7
100
AcDbEntity
  8
0
370
              15
  6
Continuous
 62
               7
100
AcDbLine
 10
496.97500000000002
 20
133.05555500000003
 30
0.0
 11
487.0
 21
133.05555500000003
 31
0.0
  0
LWPOLYLINE
  5
2E8
100
AcDbEntity
  8
0
370
              15
  6
Continuous
 62
               7
100
AcDbPolyline
 90
        5
 70
             128
 10
487.0
 20
133.05555500000003
 42
-0.4142135623730904
 10
485.23333300000002
 20
134.82222200000001
 10
485.23333300000002
 20
134.82222200000001
 42
-0.414213562373095
 10
487.0
 20
136.58888899999999
 10
487.0
 20
136.58888899999999
  0
LINE
  5
2E9
100
AcDbEntity
  8
0
370
              15
  6
Continuous
 62
               7
100
AcDbLine
 10
497.03333300000003
 20
105.85555500000001
 30
0.0
 11
487.0
 21
105.85555500000001
 31
0.0
  0
LINE
  5
2EA
100
AcDbEntity
  8
0
370
              15
  6
Continuous
 62
               7
100
AcDbLine
 10
497.0
 20
102.32222200000001
 30
0.0
 11
487.0
 21
102.32222200000001
 31
0.0
  0
LWPOLYLINE
  5
2EB
100
AcDbEntity
  8
0
370
              15
  6
Continuous
 62
               7
100
AcDbPolyline
 90
        5
 70
             128
 10
487.0
 20
102.32222200000001
 42
-0.414213562373095
 10
485.23333350000001
 20
104.08888850000002
 10
485.23333350000001
 20
104.08888850000002
 42
-0.414213562373095
 10
487.0
 20
105.85555500000001
 10
487.0
 20
105.85555500000001
  0
LINE
  5
2EC
100
AcDbEntity
  8
0
370
              15
  6
Continuous
 62
               7
100
AcDbLine
 10
497.0
 20
105.82222200000001
 30
0.0
 11
497.0
 21
133.07222200000001
 31
0.0
  0
LINE
  5
2ED
100
AcDbEntity
  8
0
370
              15
  6
Continuous
 62
               7
100
AcDbLine
 10
474.0
 20
140.32222200000001
 30
0.0
 11
474.0
 21
97.322222000000011
 31
0.0
  0
LINE
  5
2EE
100
AcDbEntity
  8
0
370
              15
  6
Continuous
 62
               7
100
AcDbLine
 10
40.0
 20
97.322222000000011
 30
0.0
 11
474.0
 21
97.322222000000011
 31
0.0
  0
LWPOLYLINE
  5
2EF
100
AcDbEntity
  8
0
370
              15
  6
Continuous
 62
               7
100
AcDbPolyline
 90
        3
 70
             128
 10
40.800000000000011
 20
98.322222000000011
 10
40.800000000000011
 20
140.32222200000001
 10
40.0
 20
140.32222200000001
  0
LINE
  5
2F0
100
AcDbEntity
  8
0
370
              15
  6
Continuous
 62
               7
100
AcDbLine
 10
40.800000000000011
 20
98.122221999999994
 30
0.0
 11
473.0
 21
98.122221999999994
 31
0.0
  0
LINE
  5
2F1
100
AcDbEntity
  8
0
370
              15
  6
Continuous
 62
               7
100
AcDbLine
 10
473.19999999999999
 20
140.32222200000001
 30
0.0
 11
473.19999999999999
 21
98.122221999999994
 31
0.0
  0
LINE
  5
2F2
100
AcDbEntity
  8
0
370
              15
  6
Continuous
 62
               7
100
AcDbLine
 10
474.0
 20
140.32222200000001
 30
0.0
 11
473.19999999999999
 21
140.32222200000001
 31
0.0
  0
LINE
  5
2F3
100
AcDbEntity
  8
0
370
              15
  6
STYLE_02
 62
               7
100
AcDbLine
 10
490.0
 20
134.82222200000001
 30
0.0
 11
482.0
 21
134.82222200000001
 31
0.0
  0
LINE
  5
2F4
100
AcDbEntity
  8
0
370
              15
  6
STYLE_02
 62
               7
100
AcDbLine
 10
490.5
 20
104.12222199999999
 30
0.0
 11
481.97499999999991
 21
104.12222199999999
 31
0.0
  0
LINE
  5
2F5
100
AcDbEntity
  8
0
370
              15
  6
STYLE_02
 62
               7
100
AcDbLine
 10
487.0
 20
143.32222200000001
 30
0.0
 11
487.0
 21
94.322222000000011
 31
0.0
  0
LINE
  5
2F6
100
AcDbEntity
  8
0
370
              15
  6
Continuous
 62
               7
100
AcDbLine
 10
487.0
 20
134.82222200000001
 30
0.0
 11
489.0
 21
134.82222200000001
 31
0.0
  0
LINE
  5
2F7
100
AcDbEntity
  8
0
370
              15
  6
Continuous
 62
               7
100
AcDbLine
 10
474.0
 20
147.32222200000001
 30
0.0
 11
474.0
 21
140.32222200000001
 31
0.0
  0
LWPOLYLINE
  5
2F8
100
AcDbEntity
  8
0
370
              15
  6
Continuous
 62
               7
100
AcDbPolyline
 90
        4
 70
             129
 10
42.0
 20
98.122221999999994
 10
472.0
 20
98.122221999999994
 10
472.0
 20
102.32222200000001
 10
42.0
 20
102.32222200000001
  0
LWPOLYLINE
  5
2F9
100
AcDbEntity
  8
0
370
              15
  6
Continuous
 62
               7
100
AcDbPolyline
 90
       10
 70
             129
 10
59.625
 20
230.32222200000001
 10
59.625
 20
230.32222200000001
 42
-0.414213562373095
 10
61.5
 20
232.19722200000001
 10
61.5
 20
232.19722200000001
 42
-0.414213562373095
 10
63.375
 20
230.32222200000001
 10
63.375
 20
230.32222200000001
 10
63.375
 20
230.32222200000001
 42
-0.414213562373095
 10
61.5
 20
228.44722200000001
 10
61.5
 20
228.44722200000001
 42
-0.414213562373095
 10
59.625
 20
230.32222200000001
  0
LINE
  5
2FA
100
AcDbEntity
  8
0
370
              15
  6
Continuous
 62
               7
100
AcDbLine
 10
40.033332999999999
 20
53.0
 30
0.0
 11
17.033332999999971
 21
53.0
 31
0.0
  0
LINE
  5
2FB
100
AcDbEntity
  8
0
370
              15
  6
Continuous
 62
               7
100
AcDbLine
 10
40.033332999999999
 20
10.0
 30
0.0
 11
17.033332999999971
 21
10.0
 31
0.0
  0
LINE
  5
2FC
100
AcDbEntity
  8
0
370
              15
  6
Continuous
 62
               7
100
AcDbLine
 10
17.033332999999971
 20
53.0
 30
0.0
 11
17.033332999999971
 21
50.0
 31
0.0
  0
LINE
  5
2FD
100
AcDbEntity
  8
0
370
              15
  6
Continuous
 62
               7
100
AcDbLine
 10
17.033332999999971
 20
10.0
 30
0.0
 11
17.033332999999971
 21
14.599999999999994
 31
0.0
  0
LINE
  5
2FE
100
AcDbEntity
  8
0
370
              15
  6
Continuous
 62
               7
100
AcDbLine
 10
27.033333000000027
 20
49.766667000000012
 30
0.0
 11
17.0
 21
49.766667000000012
 31
0.0
  0
LINE
  5
2FF
100
AcDbEntity
  8
0
370
              15
  6
Continuous
 62
               7
100
AcDbLine
 10
27.033333000000027
 20
46.233332999999988
 30
0.0
 11
17.033332999999971
 21
46.233332999999988
 31
0.0
  0
LWPOLYLINE
  5
300
100
AcDbEntity
  8
0
370
              15
  6
Continuous
 62
               7
100
AcDbPolyline
 90
        5
 70
             128
 10
27.033333000000027
 20
46.233332999999988
 42
0.4142135623730998
 10
28.800000000000011
 20
48.0
 10
28.800000000000011
 20
48.0
 42
0.4142135623730856
 10
27.033333000000027
 20
49.766667000000012
 10
27.033333000000027
 20
49.766667000000012
  0
LINE
  5
301
100
AcDbEntity
  8
0
370
              15
  6
Continuous
 62
               7
100
AcDbLine
 10
27.066666999999995
 20
18.266667000000012
 30
0.0
 11
17.033332999999971
 21
18.266667000000012
 31
0.0
  0
LINE
  5
302
100
AcDbEntity
  8
0
370
              15
  6
Continuous
 62
               7
100
AcDbLine
 10
27.066666999999995
 20
14.733332999999988
 30
0.0
 11
17.066666999999995
 21
14.733332999999988
 31
0.0
  0
LWPOLYLINE
  5
303
100
AcDbEntity
  8
0
370
              15
  6
Continuous
 62
               7
100
AcDbPolyline
 90
        5
 70
             128
 10
27.066666999999995
 20
14.733332999999988
 42
0.4142135623730998
 10
28.833333999999979
 20
16.5
 10
28.833333999999979
 20
16.5
 42
0.4142135623730856
 10
27.066666999999995
 20
18.266667000000012
 10
27.066666999999995
 20
18.266667000000012
  0
LINE
  5
304
100
AcDbEntity
  8
0
370
              15
  6
Continuous
 62
               7
100
AcDbLine
 10
17.033332999999971
 20
18.200000000000017
 30
0.0
 11
17.033332999999971
 21
46.200000000000017
 31
0.0
  0
LINE
  5
305
100
AcDbEntity
  8
0
370
              15
  6
Continuous
 62
               7
100
AcDbLine
 10
40.033332999999999
 20
53.0
 30
0.0
 11
40.033332999999999
 21
10.0
 31
0.0
  0
LINE
  5
306
100
AcDbEntity
  8
0
370
              15
  6
Continuous
 62
               7
100
AcDbLine
 10
497.03333300000003
 20
53.0
 30
0.0
 11
474.03333300000003
 21
53.0
 31
0.0
  0
LINE
  5
307
100
AcDbEntity
  8
0
370
              15
  6
Continuous
 62
               7
100
AcDbLine
 10
497.03333300000003
 20
10.0
 30
0.0
 11
474.03333300000003
 21
10.0
 31
0.0
  0
LINE
  5
308
100
AcDbEntity
  8
0
370
              15
  6
Continuous
 62
               7
100
AcDbLine
 10
497.03333300000003
 20
53.0
 30
0.0
 11
497.03333300000003
 21
49.299999999999983
 31
0.0
  0
LINE
  5
309
100
AcDbEntity
  8
0
370
              15
  6
Continuous
 62
               7
100
AcDbLine
 10
497.03333300000003
 20
10.0
 30
0.0
 11
497.03333300000003
 21
15.0
 31
0.0
  0
LINE
  5
30A
100
AcDbEntity
  8
0
370
              15
  6
Continuous
 62
               7
100
AcDbLine
 10
496.933333
 20
49.266667000000012
 30
0.0
 11
487.03333300000003
 21
49.266667000000012
 31
0.0
  0
LINE
  5
30B
100
AcDbEntity
  8
0
370
              15
  6
Continuous
 62
               7
100
AcDbLine
 10
497.00833299999999
 20
45.733332999999988
 30
0.0
 11
487.03333300000003
 21
45.733332999999988
 31
0.0
  0
LWPOLYLINE
  5
30C
100
AcDbEntity
  8
0
370
              15
  6
Continuous
 62
               7
100
AcDbPolyline
 90
        5
 70
             128
 10
487.03333300000003
 20
45.733332999999988
 42
-0.4142135623730904
 10
485.26666600000004
 20
47.5
 10
485.26666600000004
 20
47.5
 42
-0.4142135623730998
 10
487.03333300000003
 20
49.266667000000012
 10
487.03333300000003
 20
49.266667000000012
  0
LINE
  5
30D
100
AcDbEntity
  8
0
370
              15
  6
Continuous
 62
               7
100
AcDbLine
 10
497.06666699999988
 20
18.533332999999999
 30
0.0
 11
487.03333300000003
 21
18.533332999999999
 31
0.0
  0
LINE
  5
30E
100
AcDbEntity
  8
0
370
              15
  6
Continuous
 62
               7
100
AcDbLine
 10
497.03333300000003
 20
15.0
 30
0.0
 11
487.03333300000003
 21
15.0
 31
0.0
  0
LWPOLYLINE
  5
30F
100
AcDbEntity
  8
0
370
              15
  6
Continuous
 62
               7
100
AcDbPolyline
 90
        5
 70
             128
 10
487.03333300000003
 20
15.0
 42
-0.4142135623730856
 10
485.26666650000004
 20
16.766666500000014
 10
485.26666650000004
 20
16.766666500000014
 42
-0.414213562373095
 10
487.03333300000003
 20
18.533332999999999
 10
487.03333300000003
 20
18.533332999999999
  0
LINE
  5
310
100
AcDbEntity
  8
0
370
              15
  6
Continuous
 62
               7
100
AcDbLine
 10
497.03333300000003
 20
18.5
 30
0.0
 11
497.03333300000003
 21
45.75
 31
0.0
  0
LINE
  5
311
100
AcDbEntity
  8
0
370
              15
  6
Continuous
 62
               7
100
AcDbLine
 10
474.03333300000003
 20
53.0
 30
0.0
 11
474.03333300000003
 21
10.0
 31
0.0
  0
LINE
  5
312
100
AcDbEntity
  8
0
370
              15
  6
Continuous
 62
               7
100
AcDbLine
 10
40.033332999999999
 20
10.0
 30
0.0
 11
474.03333300000003
 21
10.0
 31
0.0
  0
LWPOLYLINE
  5
313
100
AcDbEntity
  8
0
370
              15
  6
Continuous
 62
               7
100
AcDbPolyline
 90
        3
 70
             128
 10
40.83333300000001
 20
11.0
 10
40.83333300000001
 20
53.0
 10
40.033332999999999
 20
53.0
  0
LINE
  5
314
100
AcDbEntity
  8
0
370
              15
  6
Continuous
 62
               7
100
AcDbLine
 10
40.83333300000001
 20
10.800000000000011
 30
0.0
 11
473.03333300000003
 21
10.800000000000011
 31
0.0
  0
LINE
  5
315
100
AcDbEntity
  8
0
370
              15
  6
Continuous
 62
               7
100
AcDbLine
 10
473.23333300000002
 20
53.0
 30
0.0
 11
473.23333300000002
 21
10.800000000000011
 31
0.0
  0
LINE
  5
316
100
AcDbEntity
  8
0
370
              15
  6
Continuous
 62
               7
100
AcDbLine
 10
474.03333300000003
 20
53.0
 30
0.0
 11
473.23333300000002
 21
53.0
 31
0.0
  0
LINE
  5
317
100
AcDbEntity
  8
0
370
              15
  6
Continuous
 62
               7
100
AcDbLine
 10
487.03333300000003
 20
47.5
 30
0.0
 11
489.03333300000003
 21
47.5
 31
0.0
  0
LWPOLYLINE
  5
318
100
AcDbEntity
  8
0
370
              15
  6
Continuous
 62
               7
100
AcDbPolyline
 90
        4
 70
             129
 10
42.033332999999999
 20
10.800000000000011
 10
472.03333300000003
 20
10.800000000000011
 10
472.03333300000003
 20
15.0
 10
42.033332999999999
 20
15.0
  0
LWPOLYLINE
  5
319
100
AcDbEntity
  8
0
370
              15
  6
Continuous
 62
               7
100
AcDbPolyline
 90
        4
 70
             129
 10
41.0
 20
98.322222000000011
 10
256.0
 20
98.322222000000011
 10
256.0
 20
140.32222200000001
 10
41.0
 20
140.32222200000001
  0
LWPOLYLINE
  5
31A
100
AcDbEntity
  8
0
370
              15
  6
Continuous
 62
               7
100
AcDbPolyline
 90
        4
 70
             129
 10
232.0
 20
103.32222200000001
 10
242.741908
 20
103.32222200000001
 10
242.741908
 20
105.32222200000001
 10
232.0
 20
105.32222200000001
  0
LWPOLYLINE
  5
31B
100
AcDbEntity
  8
0
370
              15
  6
Continuous
 62
               7
100
AcDbPolyline
 90
       10
 70
             129
 10
243.0
 20
107.32222200000001
 10
243.0
 20
107.32222200000001
 42
0.414213562373095
 10
242.0
 20
108.32222200000001
 10
242.0
 20
108.32222200000001
 42
0.414213562373095
 10
241.0
 20
107.32222200000001
 10
241.0
 20
107.32222200000001
 10
241.0
 20
107.32222200000001
 42
0.414213562373095
 10
242.0
 20
106.32222200000001
 10
242.0
 20
106.32222200000001
 42
0.414213562373095
 10
243.0
 20
107.32222200000001
  0
LWPOLYLINE
  5
31C
100
AcDbEntity
  8
0
370
              15
  6
Continuous
 62
               7
100
AcDbPolyline
 90
        4
 70
             129
 10
209.5
 20
103.32222200000001
 10
226.0
 20
103.32222200000001
 10
226.0
 20
117.32222200000001
 10
209.5
 20
117.32222200000001
  0
LWPOLYLINE
  5
31D
100
AcDbEntity
  8
0
370
              15
  6
Continuous
 62
               7
100
AcDbPolyline
 90
        6
 70
             128
 10
173.40000000000001
 20
110.922222
 42
0.4142140000000055
 10
171.80000000000001
 20
109.32222200000001
 10
171.80000000000001
 20
109.32222200000001
 10
171.80000000000001
 20
109.32222200000001
 42
0.4142139999999925
 10
173.40000000000001
 20
107.72222200000002
 10
173.40000000000001
 20
107.72222200000002
  0
LWPOLYLINE
  5
31E
100
AcDbEntity
  8
0
370
              15
  6
Continuous
 62
               7
100
AcDbPolyline
 90
        6
 70
             128
 10
198.40000000000001
 20
110.922222
 42
-0.4142139999999873
 10
200.0
 20
109.32222200000001
 10
200.0
 20
109.32222200000001
 10
200.0
 20
109.32222200000001
 42
-0.4142140000000055
 10
198.40000000000001
 20
107.72222200000002
 10
198.40000000000001
 20
107.72222200000002
  0
LINE
  5
31F
100
AcDbEntity
  8
0
370
              15
  6
Continuous
 62
               7
100
AcDbLine
 10
175.90000000000001
 20
103.32222200000001
 30
0.0
 11
195.90000000000001
 21
103.32222200000001
 31
0.0
  0
LINE
  5
320
100
AcDbEntity
  8
0
370
              15
  6
Continuous
 62
               7
100
AcDbLine
 10
173.40000000000001
 20
107.72222200000002
 30
0.0
 11
175.90000000000001
 21
107.72222200000002
 31
0.0
  0
LINE
  5
321
100
AcDbEntity
  8
0
370
              15
  6
Continuous
 62
               7
100
AcDbLine
 10
173.40000000000001
 20
110.922222
 30
0.0
 11
175.90000000000001
 21
110.922222
 31
0.0
  0
LINE
  5
322
100
AcDbEntity
  8
0
370
              15
  6
Continuous
 62
               7
100
AcDbLine
 10
195.90000000000001
 20
107.72222200000002
 30
0.0
 11
198.40000000000001
 21
107.72222200000002
 31
0.0
  0
LINE
  5
323
100
AcDbEntity
  8
0
370
              15
  6
Continuous
 62
               7
100
AcDbLine
 10
195.90000000000001
 20
110.922222
 30
0.0
 11
198.40000000000001
 21
110.922222
 31
0.0
  0
LINE
  5
324
100
AcDbEntity
  8
0
370
              15
  6
Continuous
 62
               7
100
AcDbLine
 10
175.90000000000001
 20
115.32222200000001
 30
0.0
 11
175.90000000000001
 21
110.922222
 31
0.0
  0
LINE
  5
325
100
AcDbEntity
  8
0
370
              15
  6
Continuous
 62
               7
100
AcDbLine
 10
176.0
 20
115.32222200000001
 30
0.0
 11
195.75999999999999
 21
115.32222200000001
 31
0.0
  0
LINE
  5
326
100
AcDbEntity
  8
0
370
              15
  6
Continuous
 62
               7
100
AcDbLine
 10
175.91999999999999
 20
107.72222200000002
 30
0.0
 11
175.91999999999999
 21
103.32222200000001
 31
0.0
  0
LINE
  5
327
100
AcDbEntity
  8
0
370
              15
  6
Continuous
 62
               7
100
AcDbLine
 10
195.90000000000001
 20
115.32222200000001
 30
0.0
 11
195.90000000000001
 21
110.922222
 31
0.0
  0
LINE
  5
328
100
AcDbEntity
  8
0
370
              15
  6
Continuous
 62
               7
100
AcDbLine
 10
195.91999999999999
 20
107.72222200000002
 30
0.0
 11
195.91999999999999
 21
103.32222200000001
 31
0.0
  0
INSERT
  5
329
100
AcDbEntity
  8
0
100
AcDbBlockReference
 66
               1
  2
六咳オィエ_廟面図-2
 10
3.4301179999999931
 20
22.074191000000013
 30
0.0
  0
ATTRIB
  5
32A
100
AcDbEntity
  8
一般
 62
               0
100
AcDbText
 10
172.375
 20
99.537222
 30
0.0
 40
4.2333333333333325
  1
M2.5
100
AcDbAttribute
  2
ネジの直径
 70
               1
  0
ATTRIB
  5
32B
100
AcDbEntity
  8
一般
 62
               0
100
AcDbText
 10
172.375
 20
91.917221999999995
 30
0.0
 40
4.2333333333333325
  1
6.911 mm
100
AcDbAttribute
  2
直径
 70
               1
  0
SEQEND
  5
32D
100
AcDbEntity
  8
0
  0
INSERT
  5
32E
100
AcDbEntity
  8
0
100
AcDbBlockReference
 66
               1
  2
六咳オィエ_廟面図_48
 10
3.8927170000000046
 20
22.074191000000013
 30
0.0
  0
ATTRIB
  5
32F
100
AcDbEntity
  8
一般
 62
               0
100
AcDbText
 10
195.875
 20
99.537222
 30
0.0
 40
4.2333333333333325
  1
M2.5
100
AcDbAttribute
  2
ネジの直径
 70
               1
  0
ATTRIB
  5
330
100
AcDbEntity
  8
一般
 62
               0
100
AcDbText
 10
195.875
 20
91.917221999999995
 30
0.0
 40
4.2333333333333325
  1
6.911 mm
100
AcDbAttribute
  2
直径
 70
               1
  0
SEQEND
  5
332
100
AcDbEntity
  8
0
  0
LWPOLYLINE
  5
333
100
AcDbEntity
  8
0
370
              15
  6
Continuous
 62
               7
100
AcDbPolyline
 90
        6
 70
             128
 10
173.40000000000001
 20
128.422222
 42
0.4142140000000055
 10
171.80000000000001
 20
126.82222200000001
 10
171.80000000000001
 20
126.82222200000001
 10
171.80000000000001
 20
126.82222200000001
 42
0.4142139999999925
 10
173.40000000000001
 20
125.22222200000002
 10
173.40000000000001
 20
125.22222200000002
  0
LWPOLYLINE
  5
334
100
AcDbEntity
  8
0
370
              15
  6
Continuous
 62
               7
100
AcDbPolyline
 90
        6
 70
             128
 10
198.40000000000001
 20
128.422222
 42
-0.4142139999999873
 10
200.0
 20
126.82222200000001
 10
200.0
 20
126.82222200000001
 10
200.0
 20
126.82222200000001
 42
-0.4142140000000055
 10
198.40000000000001
 20
125.22222200000002
 10
198.40000000000001
 20
125.22222200000002
  0
LINE
  5
335
100
AcDbEntity
  8
0
370
              15
  6
Continuous
 62
               7
100
AcDbLine
 10
175.90000000000001
 20
120.82222200000001
 30
0.0
 11
195.90000000000001
 21
120.82222200000001
 31
0.0
  0
LINE
  5
336
100
AcDbEntity
  8
0
370
              15
  6
Continuous
 62
               7
100
AcDbLine
 10
173.40000000000001
 20
125.22222200000002
 30
0.0
 11
175.90000000000001
 21
125.22222200000002
 31
0.0
  0
LINE
  5
337
100
AcDbEntity
  8
0
370
              15
  6
Continuous
 62
               7
100
AcDbLine
 10
173.40000000000001
 20
128.422222
 30
0.0
 11
175.90000000000001
 21
128.422222
 31
0.0
  0
LINE
  5
338
100
AcDbEntity
  8
0
370
              15
  6
Continuous
 62
               7
100
AcDbLine
 10
195.90000000000001
 20
125.22222200000002
 30
0.0
 11
198.40000000000001
 21
125.22222200000002
 31
0.0
  0
LINE
  5
339
100
AcDbEntity
  8
0
370
              15
  6
Continuous
 62
               7
100
AcDbLine
 10
195.90000000000001
 20
128.422222
 30
0.0
 11
198.40000000000001
 21
128.422222
 31
0.0
  0
LINE
  5
33A
100
AcDbEntity
  8
0
370
              15
  6
Continuous
 62
               7
100
AcDbLine
 10
175.90000000000001
 20
132.82222200000001
 30
0.0
 11
175.90000000000001
 21
128.422222
 31
0.0
  0
LINE
  5
33B
100
AcDbEntity
  8
0
370
              15
  6
Continuous
 62
               7
100
AcDbLine
 10
176.0
 20
132.82222200000001
 30
0.0
 11
195.75999999999999
 21
132.82222200000001
 31
0.0
  0
LINE
  5
33C
100
AcDbEntity
  8
0
370
              15
  6
Continuous
 62
               7
100
AcDbLine
 10
175.91999999999999
 20
125.22222200000002
 30
0.0
 11
175.91999999999999
 21
120.82222200000001
 31
0.0
  0
LINE
  5
33D
100
AcDbEntity
  8
0
370
              15
  6
Continuous
 62
               7
100
AcDbLine
 10
195.90000000000001
 20
132.82222200000001
 30
0.0
 11
195.90000000000001
 21
128.422222
 31
0.0
  0
LINE
  5
33E
100
AcDbEntity
  8
0
370
              15
  6
Continuous
 62
               7
100
AcDbLine
 10
195.91999999999999
 20
125.22222200000002
 30
0.0
 11
195.91999999999999
 21
120.82222200000001
 31
0.0
  0
INSERT
  5
33F
100
AcDbEntity
  8
0
100
AcDbBlockReference
 66
               1
  2
六咳オィエ_廟面図_64
 10
3.4301179999999931
 20
22.418678999999997
 30
0.0
  0
ATTRIB
  5
340
100
AcDbEntity
  8
一般
 62
               0
100
AcDbText
 10
172.375
 20
117.03722199999999
 30
0.0
 40
4.2333333333333325
  1
M2.5
100
AcDbAttribute
  2
ネジの直径
 70
               1
  0
ATTRIB
  5
341
100
AcDbEntity
  8
一般
 62
               0
100
AcDbText
 10
172.375
 20
109.41722199999998
 30
0.0
 40
4.2333333333333325
  1
6.911 mm
100
AcDbAttribute
  2
直径
 70
               1
  0
SEQEND
  5
343
100
AcDbEntity
  8
0
  0
INSERT
  5
344
100
AcDbEntity
  8
0
100
AcDbBlockReference
 66
               1
  2
六咳オィエ_廟面図_72
 10
3.8927170000000046
 20
22.418678999999997
 30
0.0
  0
ATTRIB
  5
345
100
AcDbEntity
  8
一般
 62
               0
100
AcDbText
 10
195.875
 20
117.03722199999999
 30
0.0
 40
4.2333333333333325
  1
M2.5
100
AcDbAttribute
  2
ネジの直径
 70
               1
  0
ATTRIB
  5
346
100
AcDbEntity
  8
一般
 62
               0
100
AcDbText
 10
195.875
 20
109.41722199999998
 30
0.0
 40
4.2333333333333325
  1
6.911 mm
100
AcDbAttribute
  2
直径
 70
               1
  0
SEQEND
  5
348
100
AcDbEntity
  8
0
  0
LWPOLYLINE
  5
349
100
AcDbEntity
  8
0
370
              15
  6
Continuous
 62
               7
100
AcDbPolyline
 90
        6
 70
             128
 10
215.40000000000001
 20
128.422222
 42
0.4142140000000003
 10
213.80000000000001
 20
126.82222200000001
 10
213.80000000000001
 20
126.82222200000001
 10
213.80000000000001
 20
126.82222200000001
 42
0.4142139999999951
 10
215.40000000000001
 20
125.22222200000002
 10
215.40000000000001
 20
125.22222200000002
  0
LWPOLYLINE
  5
34A
100
AcDbEntity
  8
0
370
              15
  6
Continuous
 62
               7
100
AcDbPolyline
 90
        6
 70
             128
 10
240.40000000000001
 20
128.422222
 42
-0.4142139999999925
 10
242.0
 20
126.82222200000001
 10
242.0
 20
126.82222200000001
 10
242.0
 20
126.82222200000001
 42
-0.4142140000000055
 10
240.40000000000001
 20
125.22222200000002
 10
240.40000000000001
 20
125.22222200000002
  0
LINE
  5
34B
100
AcDbEntity
  8
0
370
              15
  6
Continuous
 62
               7
100
AcDbLine
 10
217.90000000000001
 20
120.82222200000001
 30
0.0
 11
237.90000000000001
 21
120.82222200000001
 31
0.0
  0
LINE
  5
34C
100
AcDbEntity
  8
0
370
              15
  6
Continuous
 62
               7
100
AcDbLine
 10
215.40000000000001
 20
125.22222200000002
 30
0.0
 11
217.90000000000001
 21
125.22222200000002
 31
0.0
  0
LINE
  5
34D
100
AcDbEntity
  8
0
370
              15
  6
Continuous
 62
               7
100
AcDbLine
 10
215.40000000000001
 20
128.422222
 30
0.0
 11
217.90000000000001
 21
128.422222
 31
0.0
  0
LINE
  5
34E
100
AcDbEntity
  8
0
370
              15
  6
Continuous
 62
               7
100
AcDbLine
 10
237.90000000000001
 20
125.22222200000002
 30
0.0
 11
240.40000000000001
 21
125.22222200000002
 31
0.0
  0
LINE
  5
34F
100
AcDbEntity
  8
0
370
              15
  6
Continuous
 62
               7
100
AcDbLine
 10
237.90000000000001
 20
128.422222
 30
0.0
 11
240.40000000000001
 21
128.422222
 31
0.0
  0
LINE
  5
350
100
AcDbEntity
  8
0
370
              15
  6
Continuous
 62
               7
100
AcDbLine
 10
217.90000000000001
 20
132.82222200000001
 30
0.0
 11
217.90000000000001
 21
128.422222
 31
0.0
  0
LINE
  5
351
100
AcDbEntity
  8
0
370
              15
  6
Continuous
 62
               7
100
AcDbLine
 10
218.0
 20
132.82222200000001
 30
0.0
 11
237.75999999999999
 21
132.82222200000001
 31
0.0
  0
LINE
  5
352
100
AcDbEntity
  8
0
370
              15
  6
Continuous
 62
               7
100
AcDbLine
 10
217.91999999999999
 20
125.22222200000002
 30
0.0
 11
217.91999999999999
 21
120.82222200000001
 31
0.0
  0
LINE
  5
353
100
AcDbEntity
  8
0
370
              15
  6
Continuous
 62
               7
100
AcDbLine
 10
237.90000000000001
 20
132.82222200000001
 30
0.0
 11
237.90000000000001
 21
128.422222
 31
0.0
  0
LINE
  5
354
100
AcDbEntity
  8
0
370
              15
  6
Continuous
 62
               7
100
AcDbLine
 10
237.91999999999999
 20
125.22222200000002
 30
0.0
 11
237.91999999999999
 21
120.82222200000001
 31
0.0
  0
INSERT
  5
355
100
AcDbEntity
  8
0
100
AcDbBlockReference
 66
               1
  2
六咳オィエ_廟面図_84
 10
4.2568899999999985
 20
22.418678999999997
 30
0.0
  0
ATTRIB
  5
356
100
AcDbEntity
  8
一般
 62
               0
100
AcDbText
 10
214.375
 20
117.03722199999999
 30
0.0
 40
4.2333333333333325
  1
M2.5
100
AcDbAttribute
  2
ネジの直径
 70
               1
  0
ATTRIB
  5
357
100
AcDbEntity
  8
一般
 62
               0
100
AcDbText
 10
214.375
 20
109.41722199999998
 30
0.0
 40
4.2333333333333325
  1
6.911 mm
100
AcDbAttribute
  2
直径
 70
               1
  0
SEQEND
  5
359
100
AcDbEntity
  8
0
  0
INSERT
  5
35A
100
AcDbEntity
  8
0
100
AcDbBlockReference
 66
               1
  2
六咳オィエ_廟面図_88
 10
4.7194880000000126
 20
22.418678999999997
 30
0.0
  0
ATTRIB
  5
35B
100
AcDbEntity
  8
一般
 62
               0
100
AcDbText
 10
237.875
 20
117.03722199999999
 30
0.0
 40
4.2333333333333325
  1
M2.5
100
AcDbAttribute
  2
ネジの直径
 70
               1
  0
ATTRIB
  5
35C
100
AcDbEntity
  8
一般
 62
               0
100
AcDbText
 10
237.875
 20
109.41722199999998
 30
0.0
 40
4.2333333333333325
  1
6.911 mm
100
AcDbAttribute
  2
直径
 70
               1
  0
SEQEND
  5
35E
100
AcDbEntity
  8
0
  0
LWPOLYLINE
  5
35F
100
AcDbEntity
  8
0
370
              15
  6
Continuous
 62
               7
100
AcDbPolyline
 90
        6
 70
             128
 10
135.0
 20
116.922222
 42
0.4142140000000055
 10
133.40000000000001
 20
115.32222200000001
 10
133.40000000000001
 20
115.32222200000001
 10
133.40000000000001
 20
115.32222200000001
 42
0.4142140000000055
 10
135.0
 20
113.72222200000002
 10
135.0
 20
113.72222200000002
  0
LWPOLYLINE
  5
360
100
AcDbEntity
  8
0
370
              15
  6
Continuous
 62
               7
100
AcDbPolyline
 90
        6
 70
             128
 10
160.0
 20
116.922222
 42
-0.4142140000000003
 10
161.59999999999999
 20
115.32222200000001
 10
161.59999999999999
 20
115.32222200000001
 10
161.59999999999999
 20
115.32222200000001
 42
-0.4142139999999951
 10
160.0
 20
113.72222200000002
 10
160.0
 20
113.72222200000002
  0
LINE
  5
361
100
AcDbEntity
  8
0
370
              15
  6
Continuous
 62
               7
100
AcDbLine
 10
137.5
 20
109.32222200000001
 30
0.0
 11
157.5
 21
109.32222200000001
 31
0.0
  0
LINE
  5
362
100
AcDbEntity
  8
0
370
              15
  6
Continuous
 62
               7
100
AcDbLine
 10
135.0
 20
113.72222200000002
 30
0.0
 11
137.5
 21
113.72222200000002
 31
0.0
  0
LINE
  5
363
100
AcDbEntity
  8
0
370
              15
  6
Continuous
 62
               7
100
AcDbLine
 10
135.0
 20
116.922222
 30
0.0
 11
137.5
 21
116.922222
 31
0.0
  0
LINE
  5
364
100
AcDbEntity
  8
0
370
              15
  6
Continuous
 62
               7
100
AcDbLine
 10
157.5
 20
113.72222200000002
 30
0.0
 11
160.0
 21
113.72222200000002
 31
0.0
  0
LINE
  5
365
100
AcDbEntity
  8
0
370
              15
  6
Continuous
 62
               7
100
AcDbLine
 10
157.5
 20
116.922222
 30
0.0
 11
160.0
 21
116.922222
 31
0.0
  0
LINE
  5
366
100
AcDbEntity
  8
0
370
              15
  6
Continuous
 62
               7
100
AcDbLine
 10
137.5
 20
121.32222200000001
 30
0.0
 11
137.5
 21
116.922222
 31
0.0
  0
LINE
  5
367
100
AcDbEntity
  8
0
370
              15
  6
Continuous
 62
               7
100
AcDbLine
 10
137.59999999999999
 20
121.32222200000001
 30
0.0
 11
157.36000000000001
 21
121.32222200000001
 31
0.0
  0
LINE
  5
368
100
AcDbEntity
  8
0
370
              15
  6
Continuous
 62
               7
100
AcDbLine
 10
137.52000000000001
 20
113.72222200000002
 30
0.0
 11
137.52000000000001
 21
109.32222200000001
 31
0.0
  0
LINE
  5
369
100
AcDbEntity
  8
0
370
              15
  6
Continuous
 62
               7
100
AcDbLine
 10
157.5
 20
121.32222200000001
 30
0.0
 11
157.5
 21
116.922222
 31
0.0
  0
LINE
  5
36A
100
AcDbEntity
  8
0
370
              15
  6
Continuous
 62
               7
100
AcDbLine
 10
157.52000000000001
 20
113.72222200000002
 30
0.0
 11
157.52000000000001
 21
109.32222200000001
 31
0.0
  0
INSERT
  5
36B
100
AcDbEntity
  8
0
100
AcDbBlockReference
 66
               1
  2
六咳オィエ_廟面図_104
 10
2.6742130000000088
 20
22.192301000000015
 30
0.0
  0
ATTRIB
  5
36C
100
AcDbEntity
  8
一般
 62
               0
100
AcDbText
 10
133.97499999999999
 20
105.537222
 30
0.0
 40
4.2333333333333325
  1
M2.5
100
AcDbAttribute
  2
ネジの直径
 70
               1
  0
ATTRIB
  5
36D
100
AcDbEntity
  8
一般
 62
               0
100
AcDbText
 10
133.97499999999999
 20
97.917221999999995
 30
0.0
 40
4.2333333333333325
  1
6.911 mm
100
AcDbAttribute
  2
直径
 70
               1
  0
SEQEND
  5
36F
100
AcDbEntity
  8
0
  0
INSERT
  5
370
100
AcDbEntity
  8
0
100
AcDbBlockReference
 66
               1
  2
六咳オィエ_廟面図_108
 10
3.1368110000000229
 20
22.192301000000015
 30
0.0
  0
ATTRIB
  5
371
100
AcDbEntity
  8
一般
 62
               0
100
AcDbText
 10
157.47500000000002
 20
105.537222
 30
0.0
 40
4.2333333333333325
  1
M2.5
100
AcDbAttribute
  2
ネジの直径
 70
               1
  0
ATTRIB
  5
372
100
AcDbEntity
  8
一般
 62
               0
100
AcDbText
 10
157.47500000000002
 20
97.917221999999995
 30
0.0
 40
4.2333333333333325
  1
6.911 mm
100
AcDbAttribute
  2
直径
 70
               1
  0
SEQEND
  5
374
100
AcDbEntity
  8
0
  0
LWPOLYLINE
  5
375
100
AcDbEntity
  8
0
370
              15
  6
Continuous
 62
               7
100
AcDbPolyline
 90
        6
 70
             128
 10
96.900000000000006
 20
116.922222
 42
0.4142140000000107
 10
95.299999999999983
 20
115.32222200000001
 10
95.299999999999983
 20
115.32222200000001
 10
95.299999999999983
 20
115.32222200000001
 42
0.4142140000000133
 10
96.900000000000006
 20
113.72222200000002
 10
96.900000000000006
 20
113.72222200000002
  0
LWPOLYLINE
  5
376
100
AcDbEntity
  8
0
370
              15
  6
Continuous
 62
               7
100
AcDbPolyline
 90
        6
 70
             128
 10
121.90000000000001
 20
116.922222
 42
-0.4142139999999951
 10
123.5
 20
115.32222200000001
 10
123.5
 20
115.32222200000001
 10
123.5
 20
115.32222200000001
 42
-0.4142140000000003
 10
121.90000000000001
 20
113.72222200000002
 10
121.90000000000001
 20
113.72222200000002
  0
LINE
  5
377
100
AcDbEntity
  8
0
370
              15
  6
Continuous
 62
               7
100
AcDbLine
 10
99.400000000000006
 20
109.32222200000001
 30
0.0
 11
119.40000000000001
 21
109.32222200000001
 31
0.0
  0
LINE
  5
378
100
AcDbEntity
  8
0
370
              15
  6
Continuous
 62
               7
100
AcDbLine
 10
96.900000000000006
 20
113.72222200000002
 30
0.0
 11
99.400000000000006
 21
113.72222200000002
 31
0.0
  0
LINE
  5
379
100
AcDbEntity
  8
0
370
              15
  6
Continuous
 62
               7
100
AcDbLine
 10
96.900000000000006
 20
116.922222
 30
0.0
 11
99.400000000000006
 21
116.922222
 31
0.0
  0
LINE
  5
37A
100
AcDbEntity
  8
0
370
              15
  6
Continuous
 62
               7
100
AcDbLine
 10
119.40000000000001
 20
113.72222200000002
 30
0.0
 11
121.90000000000001
 21
113.72222200000002
 31
0.0
  0
LINE
  5
37B
100
AcDbEntity
  8
0
370
              15
  6
Continuous
 62
               7
100
AcDbLine
 10
119.40000000000001
 20
116.922222
 30
0.0
 11
121.90000000000001
 21
116.922222
 31
0.0
  0
LINE
  5
37C
100
AcDbEntity
  8
0
370
              15
  6
Continuous
 62
               7
100
AcDbLine
 10
99.400000000000006
 20
121.32222200000001
 30
0.0
 11
99.400000000000006
 21
116.922222
 31
0.0
  0
LINE
  5
37D
100
AcDbEntity
  8
0
370
              15
  6
Continuous
 62
               7
100
AcDbLine
 10
99.5
 20
121.32222200000001
 30
0.0
 11
119.25999999999999
 21
121.32222200000001
 31
0.0
  0
LINE
  5
37E
100
AcDbEntity
  8
0
370
              15
  6
Continuous
 62
               7
100
AcDbLine
 10
99.420000000000016
 20
113.72222200000002
 30
0.0
 11
99.420000000000016
 21
109.32222200000001
 31
0.0
  0
LINE
  5
37F
100
AcDbEntity
  8
0
370
              15
  6
Continuous
 62
               7
100
AcDbLine
 10
119.40000000000001
 20
121.32222200000001
 30
0.0
 11
119.40000000000001
 21
116.922222
 31
0.0
  0
LINE
  5
380
100
AcDbEntity
  8
0
370
              15
  6
Continuous
 62
               7
100
AcDbLine
 10
119.42000000000002
 20
113.72222200000002
 30
0.0
 11
119.42000000000002
 21
109.32222200000001
 31
0.0
  0
INSERT
  5
381
100
AcDbEntity
  8
0
100
AcDbBlockReference
 66
               1
  2
六咳オィエ_廟面図_124
 10
1.9242130000000088
 20
22.192301000000015
 30
0.0
  0
ATTRIB
  5
382
100
AcDbEntity
  8
一般
 62
               0
100
AcDbText
 10
95.875000000000014
 20
105.537222
 30
0.0
 40
4.2333333333333325
  1
M2.5
100
AcDbAttribute
  2
ネジの直径
 70
               1
  0
ATTRIB
  5
383
100
AcDbEntity
  8
一般
 62
               0
100
AcDbText
 10
95.875000000000014
 20
97.917221999999995
 30
0.0
 40
4.2333333333333325
  1
6.911 mm
100
AcDbAttribute
  2
直径
 70
               1
  0
SEQEND
  5
385
100
AcDbEntity
  8
0
  0
INSERT
  5
386
100
AcDbEntity
  8
0
100
AcDbBlockReference
 66
               1
  2
六咳オィエ_廟面図_128
 10
2.3868110000000229
 20
22.192301000000015
 30
0.0
  0
ATTRIB
  5
387
100
AcDbEntity
  8
一般
 62
               0
100
AcDbText
 10
119.37500000000003
 20
105.537222
 30
0.0
 40
4.2333333333333325
  1
M2.5
100
AcDbAttribute
  2
ネジの直径
 70
               1
  0
ATTRIB
  5
388
100
AcDbEntity
  8
一般
 62
               0
100
AcDbText
 10
119.37500000000003
 20
97.917221999999995
 30
0.0
 40
4.2333333333333325
  1
6.911 mm
100
AcDbAttribute
  2
直径
 70
               1
  0
SEQEND
  5
38A
100
AcDbEntity
  8
0
  0
INSERT
  5
38B
100
AcDbEntity
  8
0
100
AcDbBlockReference
  2
円-2
 10
2.1535430000000133
 20
22.494957999999997
 30
0.0
  0
INSERT
  5
38C
100
AcDbEntity
  8
0
100
AcDbBlockReference
  2
円_133
 10
2.9114169999999717
 20
22.485116000000005
 30
0.0
  0
LWPOLYLINE
  5
38D
100
AcDbEntity
  8
0
370
              15
  6
Continuous
 62
               7
100
AcDbPolyline
 90
        4
 70
             129
 10
150.5
 20
11.0
 10
365.5
 20
11.0
 10
365.5
 20
53.0
 10
150.5
 20
53.0
  0
LWPOLYLINE
  5
38E
100
AcDbEntity
  8
0
370
              15
  6
Continuous
 62
               7
100
AcDbPolyline
 90
        4
 70
             129
 10
339.0
 20
16.0
 10
349.74190800000002
 20
16.0
 10
349.74190800000002
 20
18.0
 10
339.0
 20
18.0
  0
LWPOLYLINE
  5
38F
100
AcDbEntity
  8
0
370
              15
  6
Continuous
 62
               7
100
AcDbPolyline
 90
       10
 70
             129
 10
350.0
 20
20.0
 10
350.0
 20
20.0
 42
0.414213562373095
 10
349.0
 20
21.0
 10
349.0
 20
21.0
 42
0.414213562373095
 10
348.0
 20
20.0
 10
348.0
 20
20.0
 10
348.0
 20
20.0
 42
0.414213562373095
 10
349.0
 20
19.0
 10
349.0
 20
19.0
 42
0.414213562373095
 10
350.0
 20
20.0
  0
LWPOLYLINE
  5
390
100
AcDbEntity
  8
0
370
              15
  6
Continuous
 62
               7
100
AcDbPolyline
 90
        4
 70
             129
 10
316.5
 20
16.0
 10
333.0
 20
16.0
 10
333.0
 20
30.0
 10
316.5
 20
30.0
  0
LWPOLYLINE
  5
391
100
AcDbEntity
  8
0
370
              15
  6
Continuous
 62
               7
100
AcDbPolyline
 90
        6
 70
             128
 10
280.39999999999998
 20
23.599999999999994
 42
0.4142139999999905
 10
278.80000000000001
 20
22.0
 10
278.80000000000001
 20
22.0
 10
278.80000000000001
 20
21.999999999999972
 42
0.4142139999999883
 10
280.39999999999998
 20
20.400000000000006
 10
280.39999999999998
 20
20.400000000000006
  0
LWPOLYLINE
  5
392
100
AcDbEntity
  8
0
370
              15
  6
Continuous
 62
               7
100
AcDbPolyline
 90
        6
 70
             128
 10
305.39999999999998
 20
23.599999999999994
 42
-0.4142139999999961
 10
307.0
 20
22.0
 10
307.0
 20
22.0
 10
307.0
 20
22.0
 42
-0.4142139999999958
 10
305.39999999999998
 20
20.400000000000006
 10
305.39999999999998
 20
20.400000000000006
  0
LINE
  5
393
100
AcDbEntity
  8
0
370
              15
  6
Continuous
 62
               7
100
AcDbLine
 10
282.89999999999998
 20
16.0
 30
0.0
 11
302.89999999999998
 21
16.0
 31
0.0
  0
LINE
  5
394
100
AcDbEntity
  8
0
370
              15
  6
Continuous
 62
               7
100
AcDbLine
 10
280.39999999999998
 20
20.400000000000006
 30
0.0
 11
282.89999999999998
 21
20.400000000000006
 31
0.0
  0
LINE
  5
395
100
AcDbEntity
  8
0
370
              15
  6
Continuous
 62
               7
100
AcDbLine
 10
280.39999999999998
 20
23.599999999999994
 30
0.0
 11
282.89999999999998
 21
23.599999999999994
 31
0.0
  0
LINE
  5
396
100
AcDbEntity
  8
0
370
              15
  6
Continuous
 62
               7
100
AcDbLine
 10
302.89999999999998
 20
20.400000000000006
 30
0.0
 11
305.39999999999998
 21
20.400000000000006
 31
0.0
  0
LINE
  5
397
100
AcDbEntity
  8
0
370
              15
  6
Continuous
 62
               7
100
AcDbLine
 10
302.89999999999998
 20
23.599999999999994
 30
0.0
 11
305.39999999999998
 21
23.599999999999994
 31
0.0
  0
LINE
  5
398
100
AcDbEntity
  8
0
370
              15
  6
Continuous
 62
               7
100
AcDbLine
 10
282.89999999999998
 20
28.0
 30
0.0
 11
282.89999999999998
 21
23.599999999999994
 31
0.0
  0
LINE
  5
399
100
AcDbEntity
  8
0
370
              15
  6
Continuous
 62
               7
100
AcDbLine
 10
283.0
 20
28.0
 30
0.0
 11
302.75999999999999
 21
28.0
 31
0.0
  0
LINE
  5
39A
100
AcDbEntity
  8
0
370
              15
  6
Continuous
 62
               7
100
AcDbLine
 10
282.92000000000002
 20
20.400000000000006
 30
0.0
 11
282.92000000000002
 21
16.0
 31
0.0
  0
LINE
  5
39B
100
AcDbEntity
  8
0
370
              15
  6
Continuous
 62
               7
100
AcDbLine
 10
302.89999999999998
 20
28.0
 30
0.0
 11
302.89999999999998
 21
23.599999999999994
 31
0.0
  0
LINE
  5
39C
100
AcDbEntity
  8
0
370
              15
  6
Continuous
 62
               7
100
AcDbLine
 10
302.92000000000002
 20
20.400000000000006
 30
0.0
 11
302.92000000000002
 21
16.0
 31
0.0
  0
INSERT
  5
39D
100
AcDbEntity
  8
0
100
AcDbBlockReference
 66
               1
  2
六咳オィエ_廟面図_255
 10
5.5364170000000286
 20
-13.291338999999994
 30
0.0
  0
ATTRIB
  5
39E
100
AcDbEntity
  8
一般
 62
               0
100
AcDbText
 10
279.375
 20
12.215000000000011
 30
0.0
 40
4.2333333333333325
  1
M2.5
100
AcDbAttribute
  2
ネジの直径
 70
               1
  0
ATTRIB
  5
39F
100
AcDbEntity
  8
一般
 62
               0
100
AcDbText
 10
279.375
 20
4.5950000000000131
 30
0.0
 40
4.2333333333333325
  1
6.911 mm
100
AcDbAttribute
  2
直径
 70
               1
  0
SEQEND
  5
3A1
100
AcDbEntity
  8
0
  0
INSERT
  5
3A2
100
AcDbEntity
  8
0
100
AcDbBlockReference
 66
               1
  2
六咳オィエ_廟面図_259
 10
5.9990159999999833
 20
-13.291338999999994
 30
0.0
  0
ATTRIB
  5
3A3
100
AcDbEntity
  8
一般
 62
               0
100
AcDbText
 10
302.875
 20
12.215000000000011
 30
0.0
 40
4.2333333333333325
  1
M2.5
100
AcDbAttribute
  2
ネジの直径
 70
               1
  0
ATTRIB
  5
3A4
100
AcDbEntity
  8
一般
 62
               0
100
AcDbText
 10
302.875
 20
4.5950000000000131
 30
0.0
 40
4.2333333333333325
  1
6.911 mm
100
AcDbAttribute
  2
直径
 70
               1
  0
SEQEND
  5
3A6
100
AcDbEntity
  8
0
  0
LWPOLYLINE
  5
3A7
100
AcDbEntity
  8
0
370
              15
  6
Continuous
 62
               7
100
AcDbPolyline
 90
        6
 70
             128
 10
280.39999999999998
 20
41.099999999999994
 42
0.4142139999999905
 10
278.80000000000001
 20
39.5
 10
278.80000000000001
 20
39.5
 10
278.80000000000001
 20
39.499999999999972
 42
0.4142139999999883
 10
280.39999999999998
 20
37.900000000000006
 10
280.39999999999998
 20
37.900000000000006
  0
LWPOLYLINE
  5
3A8
100
AcDbEntity
  8
0
370
              15
  6
Continuous
 62
               7
100
AcDbPolyline
 90
        6
 70
             128
 10
305.39999999999998
 20
41.099999999999994
 42
-0.4142139999999961
 10
307.0
 20
39.5
 10
307.0
 20
39.5
 10
307.0
 20
39.5
 42
-0.4142139999999958
 10
305.39999999999998
 20
37.900000000000006
 10
305.39999999999998
 20
37.900000000000006
  0
LINE
  5
3A9
100
AcDbEntity
  8
0
370
              15
  6
Continuous
 62
               7
100
AcDbLine
 10
282.89999999999998
 20
33.5
 30
0.0
 11
302.89999999999998
 21
33.5
 31
0.0
  0
LINE
  5
3AA
100
AcDbEntity
  8
0
370
              15
  6
Continuous
 62
               7
100
AcDbLine
 10
280.39999999999998
 20
37.900000000000006
 30
0.0
 11
282.89999999999998
 21
37.900000000000006
 31
0.0
  0
LINE
  5
3AB
100
AcDbEntity
  8
0
370
              15
  6
Continuous
 62
               7
100
AcDbLine
 10
280.39999999999998
 20
41.099999999999994
 30
0.0
 11
282.89999999999998
 21
41.099999999999994
 31
0.0
  0
LINE
  5
3AC
100
AcDbEntity
  8
0
370
              15
  6
Continuous
 62
               7
100
AcDbLine
 10
302.89999999999998
 20
37.900000000000006
 30
0.0
 11
305.39999999999998
 21
37.900000000000006
 31
0.0
  0
LINE
  5
3AD
100
AcDbEntity
  8
0
370
              15
  6
Continuous
 62
               7
100
AcDbLine
 10
302.89999999999998
 20
41.099999999999994
 30
0.0
 11
305.39999999999998
 21
41.099999999999994
 31
0.0
  0
LINE
  5
3AE
100
AcDbEntity
  8
0
370
              15
  6
Continuous
 62
               7
100
AcDbLine
 10
282.89999999999998
 20
45.5
 30
0.0
 11
282.89999999999998
 21
41.099999999999994
 31
0.0
  0
LINE
  5
3AF
100
AcDbEntity
  8
0
370
              15
  6
Continuous
 62
               7
100
AcDbLine
 10
283.0
 20
45.5
 30
0.0
 11
302.75999999999999
 21
45.5
 31
0.0
  0
LINE
  5
3B0
100
AcDbEntity
  8
0
370
              15
  6
Continuous
 62
               7
100
AcDbLine
 10
282.92000000000002
 20
37.900000000000006
 30
0.0
 11
282.92000000000002
 21
33.5
 31
0.0
  0
LINE
  5
3B1
100
AcDbEntity
  8
0
370
              15
  6
Continuous
 62
               7
100
AcDbLine
 10
302.89999999999998
 20
45.5
 30
0.0
 11
302.89999999999998
 21
41.099999999999994
 31
0.0
  0
LINE
  5
3B2
100
AcDbEntity
  8
0
370
              15
  6
Continuous
 62
               7
100
AcDbLine
 10
302.92000000000002
 20
37.900000000000006
 30
0.0
 11
302.92000000000002
 21
33.5
 31
0.0
  0
INSERT
  5
3B3
100
AcDbEntity
  8
0
100
AcDbBlockReference
 66
               1
  2
六咳オィエ_廟面図_275
 10
5.5364170000000286
 20
-12.946850000000012
 30
0.0
  0
ATTRIB
  5
3B4
100
AcDbEntity
  8
一般
 62
               0
100
AcDbText
 10
279.375
 20
29.714999999999989
 30
0.0
 40
4.2333333333333325
  1
M2.5
100
AcDbAttribute
  2
ネジの直径
 70
               1
  0
ATTRIB
  5
3B5
100
AcDbEntity
  8
一般
 62
               0
100
AcDbText
 10
279.375
 20
22.094999999999992
 30
0.0
 40
4.2333333333333325
  1
6.911 mm
100
AcDbAttribute
  2
直径
 70
               1
  0
SEQEND
  5
3B7
100
AcDbEntity
  8
0
  0
INSERT
  5
3B8
100
AcDbEntity
  8
0
100
AcDbBlockReference
 66
               1
  2
六咳オィエ_廟面図_279
 10
5.9990159999999833
 20
-12.946850000000012
 30
0.0
  0
ATTRIB
  5
3B9
100
AcDbEntity
  8
一般
 62
               0
100
AcDbText
 10
302.875
 20
29.714999999999989
 30
0.0
 40
4.2333333333333325
  1
M2.5
100
AcDbAttribute
  2
ネジの直径
 70
               1
  0
ATTRIB
  5
3BA
100
AcDbEntity
  8
一般
 62
               0
100
AcDbText
 10
302.875
 20
22.094999999999992
 30
0.0
 40
4.2333333333333325
  1
6.911 mm
100
AcDbAttribute
  2
直径
 70
               1
  0
SEQEND
  5
3BC
100
AcDbEntity
  8
0
  0
LWPOLYLINE
  5
3BD
100
AcDbEntity
  8
0
370
              15
  6
Continuous
 62
               7
100
AcDbPolyline
 90
        6
 70
             128
 10
322.39999999999998
 20
41.099999999999994
 42
0.4142139999999912
 10
320.80000000000001
 20
39.5
 10
320.80000000000001
 20
39.5
 10
320.80000000000001
 20
39.499999999999972
 42
0.4142139999999886
 10
322.39999999999998
 20
37.900000000000006
 10
322.39999999999998
 20
37.900000000000006
  0
LWPOLYLINE
  5
3BE
100
AcDbEntity
  8
0
370
              15
  6
Continuous
 62
               7
100
AcDbPolyline
 90
        6
 70
             128
 10
347.39999999999998
 20
41.099999999999994
 42
-0.4142139999999951
 10
349.0
 20
39.5
 10
349.0
 20
39.5
 10
349.0
 20
39.5
 42
-0.4142139999999964
 10
347.39999999999998
 20
37.900000000000006
 10
347.39999999999998
 20
37.900000000000006
  0
LINE
  5
3BF
100
AcDbEntity
  8
0
370
              15
  6
Continuous
 62
               7
100
AcDbLine
 10
324.89999999999998
 20
33.5
 30
0.0
 11
344.89999999999998
 21
33.5
 31
0.0
  0
LINE
  5
3C0
100
AcDbEntity
  8
0
370
              15
  6
Continuous
 62
               7
100
AcDbLine
 10
322.39999999999998
 20
37.900000000000006
 30
0.0
 11
324.89999999999998
 21
37.900000000000006
 31
0.0
  0
LINE
  5
3C1
100
AcDbEntity
  8
0
370
              15
  6
Continuous
 62
               7
100
AcDbLine
 10
322.39999999999998
 20
41.099999999999994
 30
0.0
 11
324.89999999999998
 21
41.099999999999994
 31
0.0
  0
LINE
  5
3C2
100
AcDbEntity
  8
0
370
              15
  6
Continuous
 62
               7
100
AcDbLine
 10
344.89999999999998
 20
37.900000000000006
 30
0.0
 11
347.39999999999998
 21
37.900000000000006
 31
0.0
  0
LINE
  5
3C3
100
AcDbEntity
  8
0
370
              15
  6
Continuous
 62
               7
100
AcDbLine
 10
344.89999999999998
 20
41.099999999999994
 30
0.0
 11
347.39999999999998
 21
41.099999999999994
 31
0.0
  0
LINE
  5
3C4
100
AcDbEntity
  8
0
370
              15
  6
Continuous
 62
               7
100
AcDbLine
 10
324.89999999999998
 20
45.5
 30
0.0
 11
324.89999999999998
 21
41.099999999999994
 31
0.0
  0
LINE
  5
3C5
100
AcDbEntity
  8
0
370
              15
  6
Continuous
 62
               7
100
AcDbLine
 10
325.0
 20
45.5
 30
0.0
 11
344.75999999999999
 21
45.5
 31
0.0
  0
LINE
  5
3C6
100
AcDbEntity
  8
0
370
              15
  6
Continuous
 62
               7
100
AcDbLine
 10
324.92000000000002
 20
37.900000000000006
 30
0.0
 11
324.92000000000002
 21
33.5
 31
0.0
  0
LINE
  5
3C7
100
AcDbEntity
  8
0
370
              15
  6
Continuous
 62
               7
100
AcDbLine
 10
344.89999999999998
 20
45.5
 30
0.0
 11
344.89999999999998
 21
41.099999999999994
 31
0.0
  0
LINE
  5
3C8
100
AcDbEntity
  8
0
370
              15
  6
Continuous
 62
               7
100
AcDbLine
 10
344.92000000000002
 20
37.900000000000006
 30
0.0
 11
344.92000000000002
 21
33.5
 31
0.0
  0
INSERT
  5
3C9
100
AcDbEntity
  8
0
100
AcDbBlockReference
 66
               1
  2
六咳オィエ_廟面図_295
 10
6.3631889999999771
 20
-12.946850000000012
 30
0.0
  0
ATTRIB
  5
3CA
100
AcDbEntity
  8
一般
 62
               0
100
AcDbText
 10
321.375
 20
29.714999999999989
 30
0.0
 40
4.2333333333333325
  1
M2.5
100
AcDbAttribute
  2
ネジの直径
 70
               1
  0
ATTRIB
  5
3CB
100
AcDbEntity
  8
一般
 62
               0
100
AcDbText
 10
321.375
 20
22.094999999999992
 30
0.0
 40
4.2333333333333325
  1
6.911 mm
100
AcDbAttribute
  2
直径
 70
               1
  0
SEQEND
  5
3CD
100
AcDbEntity
  8
0
  0
INSERT
  5
3CE
100
AcDbEntity
  8
0
100
AcDbBlockReference
 66
               1
  2
六咳オィエ_廟面図_299
 10
6.8257869999999912
 20
-12.946850000000012
 30
0.0
  0
ATTRIB
  5
3CF
100
AcDbEntity
  8
一般
 62
               0
100
AcDbText
 10
344.875
 20
29.714999999999989
 30
0.0
 40
4.2333333333333325
  1
M2.5
100
AcDbAttribute
  2
ネジの直径
 70
               1
  0
ATTRIB
  5
3D0
100
AcDbEntity
  8
一般
 62
               0
100
AcDbText
 10
344.875
 20
22.094999999999992
 30
0.0
 40
4.2333333333333325
  1
6.911 mm
100
AcDbAttribute
  2
直径
 70
               1
  0
SEQEND
  5
3D2
100
AcDbEntity
  8
0
  0
LWPOLYLINE
  5
3D3
100
AcDbEntity
  8
0
370
              15
  6
Continuous
 62
               7
100
AcDbPolyline
 90
        6
 70
             128
 10
242.0
 20
29.599999999999994
 42
0.4142139999999938
 10
240.40000000000001
 20
28.0
 10
240.40000000000001
 20
28.0
 10
240.40000000000001
 20
28.0
 42
0.4142140000000081
 10
242.0
 20
26.400000000000006
 10
242.0
 20
26.400000000000006
  0
LWPOLYLINE
  5
3D4
100
AcDbEntity
  8
0
370
              15
  6
Continuous
 62
               7
100
AcDbPolyline
 90
        6
 70
             128
 10
267.0
 20
29.599999999999994
 42
-0.4142139999999951
 10
268.60000000000002
 20
28.0
 10
268.60000000000002
 20
28.0
 10
268.60000000000002
 20
28.0
 42
-0.4142139999999958
 10
267.0
 20
26.400000000000006
 10
267.0
 20
26.400000000000006
  0
LINE
  5
3D5
100
AcDbEntity
  8
0
370
              15
  6
Continuous
 62
               7
100
AcDbLine
 10
244.5
 20
22.0
 30
0.0
 11
264.5
 21
22.0
 31
0.0
  0
LINE
  5
3D6
100
AcDbEntity
  8
0
370
              15
  6
Continuous
 62
               7
100
AcDbLine
 10
242.0
 20
26.400000000000006
 30
0.0
 11
244.5
 21
26.400000000000006
 31
0.0
  0
LINE
  5
3D7
100
AcDbEntity
  8
0
370
              15
  6
Continuous
 62
               7
100
AcDbLine
 10
242.0
 20
29.599999999999994
 30
0.0
 11
244.5
 21
29.599999999999994
 31
0.0
  0
LINE
  5
3D8
100
AcDbEntity
  8
0
370
              15
  6
Continuous
 62
               7
100
AcDbLine
 10
264.5
 20
26.400000000000006
 30
0.0
 11
267.0
 21
26.400000000000006
 31
0.0
  0
LINE
  5
3D9
100
AcDbEntity
  8
0
370
              15
  6
Continuous
 62
               7
100
AcDbLine
 10
264.5
 20
29.599999999999994
 30
0.0
 11
267.0
 21
29.599999999999994
 31
0.0
  0
LINE
  5
3DA
100
AcDbEntity
  8
0
370
              15
  6
Continuous
 62
               7
100
AcDbLine
 10
244.5
 20
34.0
 30
0.0
 11
244.5
 21
29.599999999999994
 31
0.0
  0
LINE
  5
3DB
100
AcDbEntity
  8
0
370
              15
  6
Continuous
 62
               7
100
AcDbLine
 10
244.59999999999999
 20
34.0
 30
0.0
 11
264.36000000000001
 21
34.0
 31
0.0
  0
LINE
  5
3DC
100
AcDbEntity
  8
0
370
              15
  6
Continuous
 62
               7
100
AcDbLine
 10
244.52000000000001
 20
26.400000000000006
 30
0.0
 11
244.52000000000001
 21
22.0
 31
0.0
  0
LINE
  5
3DD
100
AcDbEntity
  8
0
370
              15
  6
Continuous
 62
               7
100
AcDbLine
 10
264.5
 20
34.0
 30
0.0
 11
264.5
 21
29.599999999999994
 31
0.0
  0
LINE
  5
3DE
100
AcDbEntity
  8
0
370
              15
  6
Continuous
 62
               7
100
AcDbLine
 10
264.51999999999998
 20
26.400000000000006
 30
0.0
 11
264.51999999999998
 21
22.0
 31
0.0
  0
INSERT
  5
3DF
100
AcDbEntity
  8
0
100
AcDbBlockReference
 66
               1
  2
六咳オィエ_廟面図_315
 10
4.7805119999999874
 20
-13.173227999999995
 30
0.0
  0
ATTRIB
  5
3E0
100
AcDbEntity
  8
一般
 62
               0
100
AcDbText
 10
240.97499999999999
 20
18.215000000000011
 30
0.0
 40
4.2333333333333325
  1
M2.5
100
AcDbAttribute
  2
ネジの直径
 70
               1
  0
ATTRIB
  5
3E1
100
AcDbEntity
  8
一般
 62
               0
100
AcDbText
 10
240.97499999999999
 20
10.595000000000013
 30
0.0
 40
4.2333333333333325
  1
6.911 mm
100
AcDbAttribute
  2
直径
 70
               1
  0
SEQEND
  5
3E3
100
AcDbEntity
  8
0
  0
INSERT
  5
3E4
100
AcDbEntity
  8
0
100
AcDbBlockReference
 66
               1
  2
六咳オィエ_廟面図_319
 10
5.2431100000000015
 20
-13.173227999999995
 30
0.0
  0
ATTRIB
  5
3E5
100
AcDbEntity
  8
一般
 62
               0
100
AcDbText
 10
264.47500000000002
 20
18.215000000000011
 30
0.0
 40
4.2333333333333325
  1
M2.5
100
AcDbAttribute
  2
ネジの直径
 70
               1
  0
ATTRIB
  5
3E6
100
AcDbEntity
  8
一般
 62
               0
100
AcDbText
 10
264.47500000000002
 20
10.595000000000013
 30
0.0
 40
4.2333333333333325
  1
6.911 mm
100
AcDbAttribute
  2
直径
 70
               1
  0
SEQEND
  5
3E8
100
AcDbEntity
  8
0
  0
LWPOLYLINE
  5
3E9
100
AcDbEntity
  8
0
370
              15
  6
Continuous
 62
               7
100
AcDbPolyline
 90
        6
 70
             128
 10
203.90000000000001
 20
29.599999999999994
 42
0.4142140000000081
 10
202.30000000000001
 20
28.0
 10
202.30000000000001
 20
28.0
 10
202.30000000000001
 20
28.0
 42
0.4142139999999951
 10
203.90000000000001
 20
26.400000000000006
 10
203.90000000000001
 20
26.400000000000006
  0
LWPOLYLINE
  5
3EA
100
AcDbEntity
  8
0
370
              15
  6
Continuous
 62
               7
100
AcDbPolyline
 90
        6
 70
             128
 10
228.90000000000001
 20
29.599999999999994
 42
-0.4142139999999899
 10
230.5
 20
28.0
 10
230.5
 20
28.0
 10
230.5
 20
28.0
 42
-0.4142140000000003
 10
228.90000000000001
 20
26.400000000000006
 10
228.90000000000001
 20
26.400000000000006
  0
LINE
  5
3EB
100
AcDbEntity
  8
0
370
              15
  6
Continuous
 62
               7
100
AcDbLine
 10
206.40000000000001
 20
22.0
 30
0.0
 11
226.40000000000001
 21
22.0
 31
0.0
  0
LINE
  5
3EC
100
AcDbEntity
  8
0
370
              15
  6
Continuous
 62
               7
100
AcDbLine
 10
203.90000000000001
 20
26.400000000000006
 30
0.0
 11
206.40000000000001
 21
26.400000000000006
 31
0.0
  0
LINE
  5
3ED
100
AcDbEntity
  8
0
370
              15
  6
Continuous
 62
               7
100
AcDbLine
 10
203.90000000000001
 20
29.599999999999994
 30
0.0
 11
206.40000000000001
 21
29.599999999999994
 31
0.0
  0
LINE
  5
3EE
100
AcDbEntity
  8
0
370
              15
  6
Continuous
 62
               7
100
AcDbLine
 10
226.40000000000001
 20
26.400000000000006
 30
0.0
 11
228.90000000000001
 21
26.400000000000006
 31
0.0
  0
LINE
  5
3EF
100
AcDbEntity
  8
0
370
              15
  6
Continuous
 62
               7
100
AcDbLine
 10
226.40000000000001
 20
29.599999999999994
 30
0.0
 11
228.90000000000001
 21
29.599999999999994
 31
0.0
  0
LINE
  5
3F0
100
AcDbEntity
  8
0
370
              15
  6
Continuous
 62
               7
100
AcDbLine
 10
206.40000000000001
 20
34.0
 30
0.0
 11
206.40000000000001
 21
29.599999999999994
 31
0.0
  0
LINE
  5
3F1
100
AcDbEntity
  8
0
370
              15
  6
Continuous
 62
               7
100
AcDbLine
 10
206.5
 20
34.0
 30
0.0
 11
226.25999999999999
 21
34.0
 31
0.0
  0
LINE
  5
3F2
100
AcDbEntity
  8
0
370
              15
  6
Continuous
 62
               7
100
AcDbLine
 10
206.41999999999999
 20
26.400000000000006
 30
0.0
 11
206.41999999999999
 21
22.0
 31
0.0
  0
LINE
  5
3F3
100
AcDbEntity
  8
0
370
              15
  6
Continuous
 62
               7
100
AcDbLine
 10
226.40000000000001
 20
34.0
 30
0.0
 11
226.40000000000001
 21
29.599999999999994
 31
0.0
  0
LINE
  5
3F4
100
AcDbEntity
  8
0
370
              15
  6
Continuous
 62
               7
100
AcDbLine
 10
226.41999999999999
 20
26.400000000000006
 30
0.0
 11
226.41999999999999
 21
22.0
 31
0.0
  0
INSERT
  5
3F5
100
AcDbEntity
  8
0
100
AcDbBlockReference
 66
               1
  2
六咳オィエ_廟面図_335
 10
4.0305119999999874
 20
-13.173227999999995
 30
0.0
  0
ATTRIB
  5
3F6
100
AcDbEntity
  8
一般
 62
               0
100
AcDbText
 10
202.875
 20
18.215000000000011
 30
0.0
 40
4.2333333333333325
  1
M2.5
100
AcDbAttribute
  2
ネジの直径
 70
               1
  0
ATTRIB
  5
3F7
100
AcDbEntity
  8
一般
 62
               0
100
AcDbText
 10
202.875
 20
10.595000000000013
 30
0.0
 40
4.2333333333333325
  1
6.911 mm
100
AcDbAttribute
  2
直径
 70
               1
  0
SEQEND
  5
3F9
100
AcDbEntity
  8
0
  0
INSERT
  5
3FA
100
AcDbEntity
  8
0
100
AcDbBlockReference
 66
               1
  2
六咳オィエ_廟面図_339
 10
4.4931100000000015
 20
-13.173227999999995
 30
0.0
  0
ATTRIB
  5
3FB
100
AcDbEntity
  8
一般
 62
               0
100
AcDbText
 10
226.375
 20
18.215000000000011
 30
0.0
 40
4.2333333333333325
  1
M2.5
100
AcDbAttribute
  2
ネジの直径
 70
               1
  0
ATTRIB
  5
3FC
100
AcDbEntity
  8
一般
 62
               0
100
AcDbText
 10
226.375
 20
10.595000000000013
 30
0.0
 40
4.2333333333333325
  1
6.911 mm
100
AcDbAttribute
  2
直径
 70
               1
  0
SEQEND
  5
3FE
100
AcDbEntity
  8
0
  0
INSERT
  5
3FF
100
AcDbEntity
  8
0
100
AcDbBlockReference
  2
円_348
 10
4.2598429999999894
 20
-12.870571000000012
 30
0.0
  0
INSERT
  5
400
100
AcDbEntity
  8
0
100
AcDbBlockReference
  2
円_349
 10
5.0177170000000046
 20
-12.880413000000004
 30
0.0
  0
LWPOLYLINE
  5
401
100
AcDbEntity
  8
0
370
              15
  6
Continuous
 62
               7
100
AcDbPolyline
 90
        4
 70
             129
 10
256.5
 20
98.322222000000011
 10
473.0
 20
98.322222000000011
 10
473.0
 20
140.32222200000001
 10
256.5
 20
140.32222200000001
  0
LWPOLYLINE
  5
402
100
AcDbEntity
  8
0
370
              15
  6
Continuous
 62
               7
100
AcDbPolyline
 90
        4
 70
             129
 10
446.0
 20
103.32222200000001
 10
456.74190800000002
 20
103.32222200000001
 10
456.74190800000002
 20
105.32222200000001
 10
446.0
 20
105.32222200000001
  0
LWPOLYLINE
  5
403
100
AcDbEntity
  8
0
370
              15
  6
Continuous
 62
               7
100
AcDbPolyline
 90
       10
 70
             129
 10
457.0
 20
107.32222200000001
 10
457.0
 20
107.32222200000001
 42
0.4142135623731034
 10
456.0
 20
108.32222200000001
 10
456.0
 20
108.32222200000001
 42
0.414213562373095
 10
455.0
 20
107.32222200000001
 10
455.0
 20
107.32222200000001
 10
455.0
 20
107.32222200000001
 42
0.4142135623730867
 10
456.0
 20
106.32222200000001
 10
456.0
 20
106.32222200000001
 42
0.414213562373095
 10
457.0
 20
107.32222200000001
  0
LWPOLYLINE
  5
404
100
AcDbEntity
  8
0
370
              15
  6
Continuous
 62
               7
100
AcDbPolyline
 90
        4
 70
             129
 10
423.5
 20
103.32222200000001
 10
440.0
 20
103.32222200000001
 10
440.0
 20
117.32222200000001
 10
423.5
 20
117.32222200000001
  0
LWPOLYLINE
  5
405
100
AcDbEntity
  8
0
370
              15
  6
Continuous
 62
               7
100
AcDbPolyline
 90
        6
 70
             128
 10
387.39999999999998
 20
110.922222
 42
0.4142139999999821
 10
385.80000000000001
 20
109.32222200000001
 10
385.80000000000001
 20
109.32222200000001
 10
385.80000000000001
 20
109.32222200000001
 42
0.4142139999999847
 10
387.39999999999998
 20
107.72222200000002
 10
387.39999999999998
 20
107.72222200000002
  0
LWPOLYLINE
  5
406
100
AcDbEntity
  8
0
370
              15
  6
Continuous
 62
               7
100
AcDbPolyline
 90
        6
 70
             128
 10
412.39999999999992
 20
110.922222
 42
-0.4142139999999899
 10
414.0
 20
109.32222200000001
 10
414.0
 20
109.32222200000001
 10
414.0
 20
109.32222200000001
 42
-0.4142140000000003
 10
412.39999999999992
 20
107.72222200000002
 10
412.39999999999992
 20
107.72222200000002
  0
LINE
  5
407
100
AcDbEntity
  8
0
370
              15
  6
Continuous
 62
               7
100
AcDbLine
 10
389.89999999999998
 20
103.32222200000001
 30
0.0
 11
409.89999999999998
 21
103.32222200000001
 31
0.0
  0
LINE
  5
408
100
AcDbEntity
  8
0
370
              15
  6
Continuous
 62
               7
100
AcDbLine
 10
387.39999999999998
 20
107.72222200000002
 30
0.0
 11
389.89999999999998
 21
107.72222200000002
 31
0.0
  0
LINE
  5
409
100
AcDbEntity
  8
0
370
              15
  6
Continuous
 62
               7
100
AcDbLine
 10
387.39999999999998
 20
110.922222
 30
0.0
 11
389.89999999999998
 21
110.922222
 31
0.0
  0
LINE
  5
40A
100
AcDbEntity
  8
0
370
              15
  6
Continuous
 62
               7
100
AcDbLine
 10
409.89999999999998
 20
107.72222200000002
 30
0.0
 11
412.39999999999992
 21
107.72222200000002
 31
0.0
  0
LINE
  5
40B
100
AcDbEntity
  8
0
370
              15
  6
Continuous
 62
               7
100
AcDbLine
 10
409.89999999999998
 20
110.922222
 30
0.0
 11
412.39999999999992
 21
110.922222
 31
0.0
  0
LINE
  5
40C
100
AcDbEntity
  8
0
370
              15
  6
Continuous
 62
               7
100
AcDbLine
 10
389.89999999999998
 20
115.32222200000001
 30
0.0
 11
389.89999999999998
 21
110.922222
 31
0.0
  0
LINE
  5
40D
100
AcDbEntity
  8
0
370
              15
  6
Continuous
 62
               7
100
AcDbLine
 10
390.0
 20
115.32222200000001
 30
0.0
 11
409.75999999999988
 21
115.32222200000001
 31
0.0
  0
LINE
  5
40E
100
AcDbEntity
  8
0
370
              15
  6
Continuous
 62
               7
100
AcDbLine
 10
389.92000000000002
 20
107.72222200000002
 30
0.0
 11
389.92000000000002
 21
103.32222200000001
 31
0.0
  0
LINE
  5
40F
100
AcDbEntity
  8
0
370
              15
  6
Continuous
 62
               7
100
AcDbLine
 10
409.89999999999998
 20
115.32222200000001
 30
0.0
 11
409.89999999999998
 21
110.922222
 31
0.0
  0
LINE
  5
410
100
AcDbEntity
  8
0
370
              15
  6
Continuous
 62
               7
100
AcDbLine
 10
409.92000000000002
 20
107.72222200000002
 30
0.0
 11
409.92000000000002
 21
103.32222200000001
 31
0.0
  0
INSERT
  5
411
100
AcDbEntity
  8
0
100
AcDbBlockReference
 66
               1
  2
六咳オィエ_廟面図_366
 10
7.6427170000000046
 20
22.074191000000013
 30
0.0
  0
ATTRIB
  5
412
100
AcDbEntity
  8
一般
 62
               0
100
AcDbText
 10
386.375
 20
99.537222
 30
0.0
 40
4.2333333333333325
  1
M2.5
100
AcDbAttribute
  2
ネジの直径
 70
               1
  0
ATTRIB
  5
413
100
AcDbEntity
  8
一般
 62
               0
100
AcDbText
 10
386.375
 20
91.917221999999995
 30
0.0
 40
4.2333333333333325
  1
6.911 mm
100
AcDbAttribute
  2
直径
 70
               1
  0
SEQEND
  5
415
100
AcDbEntity
  8
0
  0
INSERT
  5
416
100
AcDbEntity
  8
0
100
AcDbBlockReference
 66
               1
  2
六咳オィエ_廟面図_370
 10
8.1053150000000187
 20
22.074191000000013
 30
0.0
  0
ATTRIB
  5
417
100
AcDbEntity
  8
一般
 62
               0
100
AcDbText
 10
409.87499999999989
 20
99.537222
 30
0.0
 40
4.2333333333333325
  1
M2.5
100
AcDbAttribute
  2
ネジの直径
 70
               1
  0
ATTRIB
  5
418
100
AcDbEntity
  8
一般
 62
               0
100
AcDbText
 10
409.87499999999989
 20
91.917221999999995
 30
0.0
 40
4.2333333333333325
  1
6.911 mm
100
AcDbAttribute
  2
直径
 70
               1
  0
SEQEND
  5
41A
100
AcDbEntity
  8
0
  0
LWPOLYLINE
  5
41B
100
AcDbEntity
  8
0
370
              15
  6
Continuous
 62
               7
100
AcDbPolyline
 90
        6
 70
             128
 10
387.39999999999998
 20
128.422222
 42
0.4142139999999925
 10
385.80000000000001
 20
126.82222200000001
 10
385.80000000000001
 20
126.82222200000001
 10
385.80000000000001
 20
126.82222200000001
 42
0.4142139999999847
 10
387.39999999999998
 20
125.22222200000002
 10
387.39999999999998
 20
125.22222200000002
  0
LWPOLYLINE
  5
41C
100
AcDbEntity
  8
0
370
              15
  6
Continuous
 62
               7
100
AcDbPolyline
 90
        6
 70
             128
 10
412.39999999999992
 20
128.422222
 42
-0.4142139999999899
 10
414.0
 20
126.82222200000001
 10
414.0
 20
126.82222200000001
 10
414.0
 20
126.82222200000001
 42
-0.4142140000000055
 10
412.39999999999992
 20
125.22222200000002
 10
412.39999999999992
 20
125.22222200000002
  0
LINE
  5
41D
100
AcDbEntity
  8
0
370
              15
  6
Continuous
 62
               7
100
AcDbLine
 10
389.89999999999998
 20
120.82222200000001
 30
0.0
 11
409.89999999999998
 21
120.82222200000001
 31
0.0
  0
LINE
  5
41E
100
AcDbEntity
  8
0
370
              15
  6
Continuous
 62
               7
100
AcDbLine
 10
387.39999999999998
 20
125.22222200000002
 30
0.0
 11
389.89999999999998
 21
125.22222200000002
 31
0.0
  0
LINE
  5
41F
100
AcDbEntity
  8
0
370
              15
  6
Continuous
 62
               7
100
AcDbLine
 10
387.39999999999998
 20
128.422222
 30
0.0
 11
389.89999999999998
 21
128.422222
 31
0.0
  0
LINE
  5
420
100
AcDbEntity
  8
0
370
              15
  6
Continuous
 62
               7
100
AcDbLine
 10
409.89999999999998
 20
125.22222200000002
 30
0.0
 11
412.39999999999992
 21
125.22222200000002
 31
0.0
  0
LINE
  5
421
100
AcDbEntity
  8
0
370
              15
  6
Continuous
 62
               7
100
AcDbLine
 10
409.89999999999998
 20
128.422222
 30
0.0
 11
412.39999999999992
 21
128.422222
 31
0.0
  0
LINE
  5
422
100
AcDbEntity
  8
0
370
              15
  6
Continuous
 62
               7
100
AcDbLine
 10
389.89999999999998
 20
132.82222200000001
 30
0.0
 11
389.89999999999998
 21
128.422222
 31
0.0
  0
LINE
  5
423
100
AcDbEntity
  8
0
370
              15
  6
Continuous
 62
               7
100
AcDbLine
 10
390.0
 20
132.82222200000001
 30
0.0
 11
409.75999999999988
 21
132.82222200000001
 31
0.0
  0
LINE
  5
424
100
AcDbEntity
  8
0
370
              15
  6
Continuous
 62
               7
100
AcDbLine
 10
389.92000000000002
 20
125.22222200000002
 30
0.0
 11
389.92000000000002
 21
120.82222200000001
 31
0.0
  0
LINE
  5
425
100
AcDbEntity
  8
0
370
              15
  6
Continuous
 62
               7
100
AcDbLine
 10
409.89999999999998
 20
132.82222200000001
 30
0.0
 11
409.89999999999998
 21
128.422222
 31
0.0
  0
LINE
  5
426
100
AcDbEntity
  8
0
370
              15
  6
Continuous
 62
               7
100
AcDbLine
 10
409.92000000000002
 20
125.22222200000002
 30
0.0
 11
409.92000000000002
 21
120.82222200000001
 31
0.0
  0
INSERT
  5
427
100
AcDbEntity
  8
0
100
AcDbBlockReference
 66
               1
  2
六咳オィエ_廟面図_386
 10
7.6427170000000046
 20
22.418678999999997
 30
0.0
  0
ATTRIB
  5
428
100
AcDbEntity
  8
一般
 62
               0
100
AcDbText
 10
386.375
 20
117.03722199999999
 30
0.0
 40
4.2333333333333325
  1
M2.5
100
AcDbAttribute
  2
ネジの直径
 70
               1
  0
ATTRIB
  5
429
100
AcDbEntity
  8
一般
 62
               0
100
AcDbText
 10
386.375
 20
109.41722199999998
 30
0.0
 40
4.2333333333333325
  1
6.911 mm
100
AcDbAttribute
  2
直径
 70
               1
  0
SEQEND
  5
42B
100
AcDbEntity
  8
0
  0
INSERT
  5
42C
100
AcDbEntity
  8
0
100
AcDbBlockReference
 66
               1
  2
六咳オィエ_廟面図_390
 10
8.1053150000000187
 20
22.418678999999997
 30
0.0
  0
ATTRIB
  5
42D
100
AcDbEntity
  8
一般
 62
               0
100
AcDbText
 10
409.87499999999989
 20
117.03722199999999
 30
0.0
 40
4.2333333333333325
  1
M2.5
100
AcDbAttribute
  2
ネジの直径
 70
               1
  0
ATTRIB
  5
42E
100
AcDbEntity
  8
一般
 62
               0
100
AcDbText
 10
409.87499999999989
 20
109.41722199999998
 30
0.0
 40
4.2333333333333325
  1
6.911 mm
100
AcDbAttribute
  2
直径
 70
               1
  0
SEQEND
  5
430
100
AcDbEntity
  8
0
  0
LWPOLYLINE
  5
431
100
AcDbEntity
  8
0
370
              15
  6
Continuous
 62
               7
100
AcDbPolyline
 90
        6
 70
             128
 10
429.39999999999992
 20
128.422222
 42
0.4142140000000029
 10
427.80000000000001
 20
126.82222200000001
 10
427.80000000000001
 20
126.82222200000001
 10
427.80000000000001
 20
126.82222200000001
 42
0.4142139999999899
 10
429.39999999999992
 20
125.22222200000002
 10
429.39999999999992
 20
125.22222200000002
  0
LWPOLYLINE
  5
432
100
AcDbEntity
  8
0
370
              15
  6
Continuous
 62
               7
100
AcDbPolyline
 90
        6
 70
             128
 10
454.39999999999992
 20
128.422222
 42
-0.4142139999999847
 10
456.0
 20
126.82222200000001
 10
456.0
 20
126.82222200000001
 10
456.0
 20
126.82222200000001
 42
-0.4142139999999977
 10
454.39999999999992
 20
125.22222200000002
 10
454.39999999999992
 20
125.22222200000002
  0
LINE
  5
433
100
AcDbEntity
  8
0
370
              15
  6
Continuous
 62
               7
100
AcDbLine
 10
431.89999999999992
 20
120.82222200000001
 30
0.0
 11
451.89999999999998
 21
120.82222200000001
 31
0.0
  0
LINE
  5
434
100
AcDbEntity
  8
0
370
              15
  6
Continuous
 62
               7
100
AcDbLine
 10
429.39999999999992
 20
125.22222200000002
 30
0.0
 11
431.89999999999992
 21
125.22222200000002
 31
0.0
  0
LINE
  5
435
100
AcDbEntity
  8
0
370
              15
  6
Continuous
 62
               7
100
AcDbLine
 10
429.39999999999992
 20
128.422222
 30
0.0
 11
431.89999999999992
 21
128.422222
 31
0.0
  0
LINE
  5
436
100
AcDbEntity
  8
0
370
              15
  6
Continuous
 62
               7
100
AcDbLine
 10
451.89999999999998
 20
125.22222200000002
 30
0.0
 11
454.39999999999992
 21
125.22222200000002
 31
0.0
  0
LINE
  5
437
100
AcDbEntity
  8
0
370
              15
  6
Continuous
 62
               7
100
AcDbLine
 10
451.89999999999998
 20
128.422222
 30
0.0
 11
454.39999999999992
 21
128.422222
 31
0.0
  0
LINE
  5
438
100
AcDbEntity
  8
0
370
              15
  6
Continuous
 62
               7
100
AcDbLine
 10
431.89999999999992
 20
132.82222200000001
 30
0.0
 11
431.89999999999992
 21
128.422222
 31
0.0
  0
LINE
  5
439
100
AcDbEntity
  8
0
370
              15
  6
Continuous
 62
               7
100
AcDbLine
 10
432.0
 20
132.82222200000001
 30
0.0
 11
451.75999999999988
 21
132.82222200000001
 31
0.0
  0
LINE
  5
43A
100
AcDbEntity
  8
0
370
              15
  6
Continuous
 62
               7
100
AcDbLine
 10
431.92000000000002
 20
125.22222200000002
 30
0.0
 11
431.92000000000002
 21
120.82222200000001
 31
0.0
  0
LINE
  5
43B
100
AcDbEntity
  8
0
370
              15
  6
Continuous
 62
               7
100
AcDbLine
 10
451.89999999999998
 20
132.82222200000001
 30
0.0
 11
451.89999999999998
 21
128.422222
 31
0.0
  0
LINE
  5
43C
100
AcDbEntity
  8
0
370
              15
  6
Continuous
 62
               7
100
AcDbLine
 10
451.92000000000002
 20
125.22222200000002
 30
0.0
 11
451.92000000000002
 21
120.82222200000001
 31
0.0
  0
INSERT
  5
43D
100
AcDbEntity
  8
0
100
AcDbBlockReference
 66
               1
  2
六咳オィエ_廟面図_406
 10
8.4694880000000126
 20
22.418678999999997
 30
0.0
  0
ATTRIB
  5
43E
100
AcDbEntity
  8
一般
 62
               0
100
AcDbText
 10
428.375
 20
117.03722199999999
 30
0.0
 40
4.2333333333333325
  1
M2.5
100
AcDbAttribute
  2
ネジの直径
 70
               1
  0
ATTRIB
  5
43F
100
AcDbEntity
  8
一般
 62
               0
100
AcDbText
 10
428.375
 20
109.41722199999998
 30
0.0
 40
4.2333333333333325
  1
6.911 mm
100
AcDbAttribute
  2
直径
 70
               1
  0
SEQEND
  5
441
100
AcDbEntity
  8
0
  0
INSERT
  5
442
100
AcDbEntity
  8
0
100
AcDbBlockReference
 66
               1
  2
六咳オィエ_廟面図_410
 10
8.9320870000000241
 20
22.418678999999997
 30
0.0
  0
ATTRIB
  5
443
100
AcDbEntity
  8
一般
 62
               0
100
AcDbText
 10
451.87499999999989
 20
117.03722199999999
 30
0.0
 40
4.2333333333333325
  1
M2.5
100
AcDbAttribute
  2
ネジの直径
 70
               1
  0
ATTRIB
  5
444
100
AcDbEntity
  8
一般
 62
               0
100
AcDbText
 10
451.87499999999989
 20
109.41722199999998
 30
0.0
 40
4.2333333333333325
  1
6.911 mm
100
AcDbAttribute
  2
直径
 70
               1
  0
SEQEND
  5
446
100
AcDbEntity
  8
0
  0
LWPOLYLINE
  5
447
100
AcDbEntity
  8
0
370
              15
  6
Continuous
 62
               7
100
AcDbPolyline
 90
        6
 70
             128
 10
349.0
 20
116.922222
 42
0.4142140000000055
 10
347.39999999999998
 20
115.32222200000001
 10
347.39999999999998
 20
115.32222200000001
 10
347.39999999999998
 20
115.32222200000001
 42
0.414213999999999
 10
349.0
 20
113.72222200000002
 10
349.0
 20
113.72222200000002
  0
LWPOLYLINE
  5
448
100
AcDbEntity
  8
0
370
              15
  6
Continuous
 62
               7
100
AcDbPolyline
 90
        6
 70
             128
 10
374.0
 20
116.922222
 42
-0.4142139999999977
 10
375.60000000000002
 20
115.32222200000001
 10
375.60000000000002
 20
115.32222200000001
 10
375.60000000000002
 20
115.32222200000001
 42
-0.4142140000000107
 10
374.0
 20
113.72222200000002
 10
374.0
 20
113.72222200000002
  0
LINE
  5
449
100
AcDbEntity
  8
0
370
              15
  6
Continuous
 62
               7
100
AcDbLine
 10
351.5
 20
109.32222200000001
 30
0.0
 11
371.5
 21
109.32222200000001
 31
0.0
  0
LINE
  5
44A
100
AcDbEntity
  8
0
370
              15
  6
Continuous
 62
               7
100
AcDbLine
 10
349.0
 20
113.72222200000002
 30
0.0
 11
351.5
 21
113.72222200000002
 31
0.0
  0
LINE
  5
44B
100
AcDbEntity
  8
0
370
              15
  6
Continuous
 62
               7
100
AcDbLine
 10
349.0
 20
116.922222
 30
0.0
 11
351.5
 21
116.922222
 31
0.0
  0
LINE
  5
44C
100
AcDbEntity
  8
0
370
              15
  6
Continuous
 62
               7
100
AcDbLine
 10
371.5
 20
113.72222200000002
 30
0.0
 11
374.0
 21
113.72222200000002
 31
0.0
  0
LINE
  5
44D
100
AcDbEntity
  8
0
370
              15
  6
Continuous
 62
               7
100
AcDbLine
 10
371.5
 20
116.922222
 30
0.0
 11
374.0
 21
116.922222
 31
0.0
  0
LINE
  5
44E
100
AcDbEntity
  8
0
370
              15
  6
Continuous
 62
               7
100
AcDbLine
 10
351.5
 20
121.32222200000001
 30
0.0
 11
351.5
 21
116.922222
 31
0.0
  0
LINE
  5
44F
100
AcDbEntity
  8
0
370
              15
  6
Continuous
 62
               7
100
AcDbLine
 10
351.60000000000002
 20
121.32222200000001
 30
0.0
 11
371.36000000000001
 21
121.32222200000001
 31
0.0
  0
LINE
  5
450
100
AcDbEntity
  8
0
370
              15
  6
Continuous
 62
               7
100
AcDbLine
 10
351.51999999999998
 20
113.72222200000002
 30
0.0
 11
351.51999999999998
 21
109.32222200000001
 31
0.0
  0
LINE
  5
451
100
AcDbEntity
  8
0
370
              15
  6
Continuous
 62
               7
100
AcDbLine
 10
371.5
 20
121.32222200000001
 30
0.0
 11
371.5
 21
116.922222
 31
0.0
  0
LINE
  5
452
100
AcDbEntity
  8
0
370
              15
  6
Continuous
 62
               7
100
AcDbLine
 10
371.51999999999998
 20
113.72222200000002
 30
0.0
 11
371.51999999999998
 21
109.32222200000001
 31
0.0
  0
INSERT
  5
453
100
AcDbEntity
  8
0
100
AcDbBlockReference
 66
               1
  2
六咳オィエ_廟面図_426
 10
6.8868110000000229
 20
22.192301000000015
 30
0.0
  0
ATTRIB
  5
454
100
AcDbEntity
  8
一般
 62
               0
100
AcDbText
 10
347.97500000000002
 20
105.537222
 30
0.0
 40
4.2333333333333325
  1
M2.5
100
AcDbAttribute
  2
ネジの直径
 70
               1
  0
ATTRIB
  5
455
100
AcDbEntity
  8
一般
 62
               0
100
AcDbText
 10
347.97500000000002
 20
97.917221999999995
 30
0.0
 40
4.2333333333333325
  1
6.911 mm
100
AcDbAttribute
  2
直径
 70
               1
  0
SEQEND
  5
457
100
AcDbEntity
  8
0
  0
INSERT
  5
458
100
AcDbEntity
  8
0
100
AcDbBlockReference
 66
               1
  2
六咳オィエ_廟面図_430
 10
7.3494089999999801
 20
22.192301000000015
 30
0.0
  0
ATTRIB
  5
459
100
AcDbEntity
  8
一般
 62
               0
100
AcDbText
 10
371.47500000000002
 20
105.537222
 30
0.0
 40
4.2333333333333325
  1
M2.5
100
AcDbAttribute
  2
ネジの直径
 70
               1
  0
ATTRIB
  5
45A
100
AcDbEntity
  8
一般
 62
               0
100
AcDbText
 10
371.47500000000002
 20
97.917221999999995
 30
0.0
 40
4.2333333333333325
  1
6.911 mm
100
AcDbAttribute
  2
直径
 70
               1
  0
SEQEND
  5
45C
100
AcDbEntity
  8
0
  0
LWPOLYLINE
  5
45D
100
AcDbEntity
  8
0
370
              15
  6
Continuous
 62
               7
100
AcDbPolyline
 90
        6
 70
             128
 10
310.89999999999998
 20
116.922222
 42
0.4142139999999883
 10
309.30000000000001
 20
115.32222200000001
 10
309.30000000000001
 20
115.32222200000001
 10
309.30000000000001
 20
115.32222199999997
 42
0.4142139999999905
 10
310.89999999999998
 20
113.72222200000002
 10
310.89999999999998
 20
113.72222200000002
  0
LWPOLYLINE
  5
45E
100
AcDbEntity
  8
0
370
              15
  6
Continuous
 62
               7
100
AcDbPolyline
 90
        6
 70
             128
 10
335.89999999999998
 20
116.922222
 42
-0.4142139999999964
 10
337.5
 20
115.32222200000001
 10
337.5
 20
115.32222200000001
 10
337.5
 20
115.32222200000001
 42
-0.4142140000000055
 10
335.89999999999998
 20
113.72222200000002
 10
335.89999999999998
 20
113.72222200000002
  0
LINE
  5
45F
100
AcDbEntity
  8
0
370
              15
  6
Continuous
 62
               7
100
AcDbLine
 10
313.39999999999998
 20
109.32222200000001
 30
0.0
 11
333.39999999999998
 21
109.32222200000001
 31
0.0
  0
LINE
  5
460
100
AcDbEntity
  8
0
370
              15
  6
Continuous
 62
               7
100
AcDbLine
 10
310.89999999999998
 20
113.72222200000002
 30
0.0
 11
313.39999999999998
 21
113.72222200000002
 31
0.0
  0
LINE
  5
461
100
AcDbEntity
  8
0
370
              15
  6
Continuous
 62
               7
100
AcDbLine
 10
310.89999999999998
 20
116.922222
 30
0.0
 11
313.39999999999998
 21
116.922222
 31
0.0
  0
LINE
  5
462
100
AcDbEntity
  8
0
370
              15
  6
Continuous
 62
               7
100
AcDbLine
 10
333.39999999999998
 20
113.72222200000002
 30
0.0
 11
335.89999999999998
 21
113.72222200000002
 31
0.0
  0
LINE
  5
463
100
AcDbEntity
  8
0
370
              15
  6
Continuous
 62
               7
100
AcDbLine
 10
333.39999999999998
 20
116.922222
 30
0.0
 11
335.89999999999998
 21
116.922222
 31
0.0
  0
LINE
  5
464
100
AcDbEntity
  8
0
370
              15
  6
Continuous
 62
               7
100
AcDbLine
 10
313.39999999999998
 20
121.32222200000001
 30
0.0
 11
313.39999999999998
 21
116.922222
 31
0.0
  0
LINE
  5
465
100
AcDbEntity
  8
0
370
              15
  6
Continuous
 62
               7
100
AcDbLine
 10
313.5
 20
121.32222200000001
 30
0.0
 11
333.25999999999999
 21
121.32222200000001
 31
0.0
  0
LINE
  5
466
100
AcDbEntity
  8
0
370
              15
  6
Continuous
 62
               7
100
AcDbLine
 10
313.42000000000002
 20
113.72222200000002
 30
0.0
 11
313.42000000000002
 21
109.32222200000001
 31
0.0
  0
LINE
  5
467
100
AcDbEntity
  8
0
370
              15
  6
Continuous
 62
               7
100
AcDbLine
 10
333.39999999999998
 20
121.32222200000001
 30
0.0
 11
333.39999999999998
 21
116.922222
 31
0.0
  0
LINE
  5
468
100
AcDbEntity
  8
0
370
              15
  6
Continuous
 62
               7
100
AcDbLine
 10
333.42000000000002
 20
113.72222200000002
 30
0.0
 11
333.42000000000002
 21
109.32222200000001
 31
0.0
  0
INSERT
  5
469
100
AcDbEntity
  8
0
100
AcDbBlockReference
 66
               1
  2
六咳オィエ_廟面図_446
 10
6.1368110000000229
 20
22.192301000000015
 30
0.0
  0
ATTRIB
  5
46A
100
AcDbEntity
  8
一般
 62
               0
100
AcDbText
 10
309.875
 20
105.537222
 30
0.0
 40
4.2333333333333325
  1
M2.5
100
AcDbAttribute
  2
ネジの直径
 70
               1
  0
ATTRIB
  5
46B
100
AcDbEntity
  8
一般
 62
               0
100
AcDbText
 10
309.875
 20
97.917221999999995
 30
0.0
 40
4.2333333333333325
  1
6.911 mm
100
AcDbAttribute
  2
直径
 70
               1
  0
SEQEND
  5
46D
100
AcDbEntity
  8
0
  0
INSERT
  5
46E
100
AcDbEntity
  8
0
100
AcDbBlockReference
 66
               1
  2
六咳オィエ_廟面図_450
 10
6.5994089999999801
 20
22.192301000000015
 30
0.0
  0
ATTRIB
  5
46F
100
AcDbEntity
  8
一般
 62
               0
100
AcDbText
 10
333.375
 20
105.537222
 30
0.0
 40
4.2333333333333325
  1
M2.5
100
AcDbAttribute
  2
ネジの直径
 70
               1
  0
ATTRIB
  5
470
100
AcDbEntity
  8
一般
 62
               0
100
AcDbText
 10
333.375
 20
97.917221999999995
 30
0.0
 40
4.2333333333333325
  1
6.911 mm
100
AcDbAttribute
  2
直径
 70
               1
  0
SEQEND
  5
472
100
AcDbEntity
  8
0
  0
INSERT
  5
473
100
AcDbEntity
  8
0
100
AcDbBlockReference
  2
円_459
 10
6.3661420000000248
 20
22.494957999999997
 30
0.0
  0
INSERT
  5
474
100
AcDbEntity
  8
0
100
AcDbBlockReference
  2
円_460
 10
7.1240159999999833
 20
22.485116000000005
 30
0.0
  0
DIMENSION
  5
475
100
AcDbEntity
  8
寸法
370
               5
  6
Continuous
 62
               7
100
AcDbDimension
  2
*D39
 10
-19.0
 20
180.32222200000001
 30
0.0
 11
-19.0
 21
297.32222200000001
 31
0.0
 71
               5
 72
               1
 41
1.0
 42
0.0
  3
ISO
100
AcDbAlignedDimension
 13
33.0
 23
414.32222200000001
 33
0.0
 14
17.0
 24
180.32222200000001
 34
0.0
 50
90.0
100
AcDbRotatedDimension
1001
ACAD
1000
DSTYLE
1002
{
1070
             279
1070
               2
1070
             340
1005
58
1070
             147
1040
2.00000000000216
1002
}
  0
DIMENSION
  5
476
100
AcDbEntity
  8
寸法
370
               5
  6
Continuous
 62
               7
100
AcDbDimension
  2
*D40
 10
13.0
 20
390.32222200000001
 30
0.0
 11
13.0
 21
310.32222200000001
 31
0.0
 71
               5
 72
               1
 41
1.0
 42
0.0
  3
Arch
100
AcDbAlignedDimension
 13
52.0
 23
230.32222200000001
 33
0.0
 14
52.0
 24
390.32222200000001
 34
0.0
 50
90.0
100
AcDbRotatedDimension
1001
ACAD
1000
DSTYLE
1002
{
1070
             279
1070
               2
1070
             340
1005
58
1070
             147
1040
3.1749999999999998
1002
}
  0
DIMENSION
  5
477
100
AcDbEntity
  8
寸法
370
               5
  6
Continuous
 62
               7
100
AcDbDimension
  2
*D41
 10
40.0
 20
453.0
 30
0.0
 11
257.0
 21
453.0
 31
0.0
 71
               5
 72
               1
 41
1.0
 42
0.0
  3
ISO
100
AcDbAlignedDimension
 13
474.0
 23
423.0
 33
0.0
 14
40.0
 24
423.0
 34
0.0
100
AcDbRotatedDimension
1001
ACAD
1000
DSTYLE
1002
{
1070
             279
1070
               2
1070
             340
1005
58
1070
             147
1040
2.00000000000216
1002
}
  0
DIMENSION
  5
478
100
AcDbEntity
  8
寸法
370
               5
  6
Continuous
 62
               7
100
AcDbDimension
  2
*D42
 10
61.5
 20
434.0
 30
0.0
 11
115.5
 21
434.0
 31
0.0
 71
               5
 72
               1
 41
1.0
 42
0.0
  3
ISO
100
AcDbAlignedDimension
 13
169.5
 23
395.82222200000001
 33
0.0
 14
61.5
 24
395.82222200000001
 34
0.0
100
AcDbRotatedDimension
1001
ACAD
1000
DSTYLE
1002
{
1070
             279
1070
               2
1070
             340
1005
58
1070
             147
1040
2.00000000000216
1002
}
  0
DIMENSION
  5
479
100
AcDbEntity
  8
寸法
370
               5
  6
Continuous
 62
               7
100
AcDbDimension
  2
*D43
 10
169.5
 20
434.0
 30
0.0
 11
203.0
 21
434.0
 31
0.0
 71
               5
 72
               1
 41
1.0
 42
0.0
  3
ISO
100
AcDbAlignedDimension
 13
236.5
 23
398.99722200000002
 33
0.0
 14
169.5
 24
398.99722200000002
 34
0.0
100
AcDbRotatedDimension
1001
ACAD
1000
DSTYLE
1002
{
1070
             279
1070
               2
1070
             340
1005
58
1070
             147
1040
2.00000000000216
1002
}
  0
DIMENSION
  5
47A
100
AcDbEntity
  8
寸法
370
               5
  6
Continuous
 62
               7
100
AcDbDimension
  2
*D44
 10
236.5
 20
434.0
 30
0.0
 11
257.0
 21
434.0
 31
0.0
 71
               5
 72
               1
 41
1.0
 42
0.0
  3
ISO
100
AcDbAlignedDimension
 13
277.5
 23
400.0
 33
0.0
 14
236.5
 24
400.0
 34
0.0
100
AcDbRotatedDimension
1001
ACAD
1000
DSTYLE
1002
{
1070
             279
1070
               2
1070
             340
1005
58
1070
             147
1040
2.00000000000216
1002
}
  0
DIMENSION
  5
47B
100
AcDbEntity
  8
寸法
370
               5
  6
Continuous
 62
               7
100
AcDbDimension
  2
*D45
 10
277.5
 20
434.0
 30
0.0
 11
311.0
 21
434.0
 31
0.0
 71
               5
 72
               1
 41
1.0
 42
0.0
  3
ISO
100
AcDbAlignedDimension
 13
344.5
 23
400.0
 33
0.0
 14
277.5
 24
400.0
 34
0.0
100
AcDbRotatedDimension
1001
ACAD
1000
DSTYLE
1002
{
1070
             279
1070
               2
1070
             340
1005
58
1070
             147
1040
2.00000000000216
1002
}
  0
DIMENSION
  5
47C
100
AcDbEntity
  8
寸法
370
               5
  6
Continuous
 62
               7
100
AcDbDimension
  2
*D46
 10
344.5
 20
434.0
 30
0.0
 11
398.5
 21
434.0
 31
0.0
 71
               5
 72
               1
 41
1.0
 42
0.0
  3
ISO
100
AcDbAlignedDimension
 13
452.5
 23
400.0
 33
0.0
 14
344.5
 24
400.0
 34
0.0
100
AcDbRotatedDimension
1001
ACAD
1000
DSTYLE
1002
{
1070
             279
1070
               2
1070
             340
1005
58
1070
             147
1040
2.00000000000216
1002
}
  0
DIMENSION
  5
47D
100
AcDbEntity
  8
寸法
370
               5
  6
Continuous
 62
               7
100
AcDbDimension
  2
*D47
 10
519.0
 20
250.32222200000001
 30
0.0
 11
519.0
 21
215.32222200000001
 31
0.0
 71
               5
 72
               1
 41
1.0
 42
0.0
  3
ISO
100
AcDbAlignedDimension
 13
502.0
 23
180.32222200000001
 33
0.0
 14
485.0
 24
250.32222200000001
 34
0.0
 50
90.0
100
AcDbRotatedDimension
1001
ACAD
1000
DSTYLE
1002
{
1070
             279
1070
               2
1070
             340
1005
58
1070
             147
1040
2.00000000000216
1002
}
  0
DIMENSION
  5
47E
100
AcDbEntity
  8
寸法
370
               5
  6
Continuous
 62
               7
100
AcDbDimension
  2
*D48
 10
593.35441988381967
 20
423.32222200000001
 30
0.0
 11
589.35441988381967
 21
423.32222200000001
 31
0.0
 71
               5
 72
               1
 41
1.0
 42
0.0
  3
ISO
100
AcDbAlignedDimension
 13
585.35441988381967
 23
415.32222200000001
 33
0.0
 14
593.35441988381967
 24
415.32222200000001
 34
0.0
100
AcDbRotatedDimension
1001
ACAD
1000
DSTYLE
1002
{
1070
             279
1070
               2
1070
             340
1005
58
1070
             147
1040
2.00000000000216
1002
}
  0
DIMENSION
  5
47F
100
AcDbEntity
  8
寸法
370
               5
  6
Continuous
 62
               7
100
AcDbDimension
  2
*D49
 10
474.0
 20
164.0
 30
0.0
 11
485.5
 21
164.0
 31
0.0
 71
               5
 72
               1
 41
1.0
 42
0.0
  3
ISO
100
AcDbAlignedDimension
 13
497.0
 23
147.32222200000001
 33
0.0
 14
474.0
 24
147.32222200000001
 34
0.0
100
AcDbRotatedDimension
1001
ACAD
1000
DSTYLE
1002
{
1070
             279
1070
               2
1070
             340
1005
58
1070
             147
1040
2.00000000000216
1002
}
  0
DIMENSION
  5
480
100
AcDbEntity
  8
寸法
370
               5
  6
Continuous
 62
               7
100
AcDbDimension
  2
*D50
 10
487.0
 20
147.32222200000001
 30
0.0
 11
492.0
 21
147.32222200000001
 31
0.0
 71
               5
 72
               1
 41
1.0
 42
0.0
  3
ISO
100
AcDbAlignedDimension
 13
497.0
 23
140.32222200000001
 33
0.0
 14
487.0
 24
143.32222200000001
 34
0.0
100
AcDbRotatedDimension
1001
ACAD
1000
DSTYLE
1002
{
1070
             279
1070
               2
1070
             340
1005
58
1070
             147
1040
2.00000000000216
1002
}
  0
DIMENSION
  5
481
100
AcDbEntity
  8
寸法
370
               5
  6
Continuous
 62
               7
100
AcDbDimension
  2
*D51
 10
533.0
 20
140.32222200000001
 30
0.0
 11
533.0
 21
118.82222200000001
 31
0.0
 71
               5
 72
               1
 41
1.0
 42
0.0
  3
ISO
100
AcDbAlignedDimension
 13
503.0
 23
97.322222000000011
 33
0.0
 14
503.0
 24
140.32222200000001
 34
0.0
 50
90.0
100
AcDbRotatedDimension
1001
ACAD
1000
DSTYLE
1002
{
1070
             279
1070
               2
1070
             340
1005
58
1070
             147
1040
2.00000000000216
1002
}
  0
DIMENSION
  5
482
100
AcDbEntity
  8
寸法
370
               5
  6
Continuous
 62
               7
100
AcDbDimension
  2
*D52
 10
515.0
 20
134.82222200000001
 30
0.0
 11
515.0
 21
119.472222
 31
0.0
 71
               5
 72
               1
 41
1.0
 42
0.0
  3
ISO
100
AcDbAlignedDimension
 13
490.0
 23
104.12222199999999
 33
0.0
 14
490.0
 24
134.82222200000001
 34
0.0
 50
90.0
100
AcDbRotatedDimension
1001
ACAD
1000
DSTYLE
1002
{
1070
             279
1070
               2
1070
             340
1005
58
1070
             147
1040
2.00000000000216
1002
}
  0
DIMENSION
  5
483
100
AcDbEntity
  8
寸法
370
               5
  6
Continuous
 62
               7
100
AcDbDimension
  2
*D53
 10
41.000000000000028
 20
12.0
 30
0.0
 11
95.750000000000028
 21
12.0
 31
0.0
 71
               5
 72
               1
 41
1.0
 42
0.0
  3
ISO
100
AcDbAlignedDimension
 13
150.50000000000003
 23
21.0
 33
0.0
 14
41.000000000000028
 24
22.555554999999998
 34
0.0
100
AcDbRotatedDimension
1001
ACAD
1000
DSTYLE
1002
{
1070
             279
1070
               2
1070
             340
1005
58
1070
             147
1040
2.00000000000216
1002
}
  0
ENDSEC
  0
SECTION
  2
OBJECTS
  0
DICTIONARY
  5
19
100
AcDbDictionary
280
               0
281
               1
  3
ACAD_GROUP
350
1A
  3
ACAD_MLINESTYLE
350
1B
  3
ACAD_LAYOUT
350
1E
  3
ACAD_PLOTSETTINGS
350
22
  3
ACAD_PLOTSTYLENAME
350
1F
  3
ACAD_WIPEOUT_VARS
350
23
  0
DICTIONARY
  5
1A
102
{ACAD_REACTORS
330
19
102
}
100
AcDbDictionary
280
               0
281
               1
  0
DICTIONARY
  5
1B
102
{ACAD_REACTORS
330
19
102
}
100
AcDbDictionary
280
               0
281
               1
  3
Standard
350
1C
  0
MLINESTYLE
  5
1C
102
{ACAD_REACTORS
330
1B
102
}
100
AcDbMlineStyle
  2
Standard
 70
               0
  3

 62
               0
 51
90.0
 52
90.0
 71
               2
 49
0.5
 62
             256
  6
ByLayer
 49
-0.5
 62
             256
  6
ByLayer
  0
ACDBDICTIONARYWDFLT
  5
1F
102
{ACAD_REACTORS
330
19
102
}
100
AcDbDictionary
281
               1
  3
Normal
350
1D
100
AcDbDictionaryWithDefault
340
1D
  0
ACDBPLACEHOLDER
  5
1D
102
{ACAD_REACTORS
330
1F
102
}
  0
LAYOUT
  5
20
102
{ACAD_REACTORS
330
1E
102
}
100
AcDbPlotSettings
  1

  2

  4

  6

 40
0.0
 41
0.0
 42
0.0
 43
0.0
 44
0.0
 45
0.0
 46
0.0
 47
0.0
 48
0.0
 49
0.0
140
0.0
141
0.0
142
1.0
143
1.0
 70
            1024
 72
               0
 73
               0
 74
               0
  7

 75
               0
147
1.0
148
0.0
149
0.0
100
AcDbLayout
  1
Model
 70
               0
 71
               0
 10
0.0
 20
0.0
 11
0.0
 21
0.0
 12
0.0
 22
0.0
 32
0.0
 14
0.0
 24
0.0
 34
0.0
 15
0.0
 25
0.0
 35
0.0
146
0.0
 13
0.0
 23
0.0
 33
0.0
 16
0.0
 26
0.0
 36
0.0
 17
0.0
 27
0.0
 37
0.0
 76
               0
330
A
331
0
345
0
346
0
  0
LAYOUT
  5
21
102
{ACAD_REACTORS
330
1E
102
}
100
AcDbPlotSettings
  1

  2

  4

  6

 40
0.0
 41
0.0
 42
0.0
 43
0.0
 44
0.0
 45
0.0
 46
0.0
 47
0.0
 48
0.0
 49
0.0
140
0.0
141
0.0
142
1.0
143
1.0
 70
               0
 72
               0
 73
               0
 74
               0
  7

 75
               0
147
1.0
148
0.0
149
0.0
100
AcDbLayout
  1
Layout1
 70
               0
 71
               0
 10
0.0
 20
0.0
 11
0.0
 21
0.0
 12
0.0
 22
0.0
 32
0.0
 14
0.0
 24
0.0
 34
0.0
 15
0.0
 25
0.0
 35
0.0
146
0.0
 13
0.0
 23
0.0
 33
0.0
 16
0.0
 26
0.0
 36
0.0
 17
0.0
 27
0.0
 37
0.0
 76
               0
330
B
331
0
345
0
346
0
  0
DICTIONARY
  5
1E
102
{ACAD_REACTORS
330
19
102
}
100
AcDbDictionary
280
               0
281
               1
  3
Layout1
350
21
  3
Model
350
20
  0
DICTIONARY
  5
22
102
{ACAD_REACTORS
330
19
102
}
100
AcDbDictionary
280
               0
281
               1
  0
WIPEOUTVARIABLES
  5
23
100
AcDbWipeoutVariables
 70
               0
  0
ENDSEC
  0
EOF
